<?xml version="1.0" standalone="no"?>
<!DOCTYPE svg PUBLIC "-//W3C//DTD SVG 1.1//EN" "http://www.w3.org/Graphics/SVG/1.1/DTD/svg11.dtd">
<svg xmlns="http://www.w3.org/2000/svg">
<metadata>Copyright (C) 2023 by original authors @ fontello.com</metadata>
<defs>
<font id="fontello" horiz-adv-x="1000" >
<font-face font-family="fontello" font-weight="400" font-stretch="normal" units-per-em="1000" ascent="850" descent="-150" />
<missing-glyph horiz-adv-x="1000" />
<glyph glyph-name="diamond" unicode="&#xe801;" d="M500-98c-7 0-13 2-19 6-5 4-9 10-11 17l-167 583c-1 5-1 10 0 14 1 5 3 10 5 14 3 3 7 7 11 9 5 2 10 3 14 3h334c5 0 9-1 14-3 4-2 8-6 11-9 3-4 5-9 5-14 1-4 1-9 0-14l-167-583c-2-7-6-13-11-17-6-4-12-6-19-6z m-125 583l125-438 125 438h-250z m292 0c-7 0-13 3-19 6-5 4-9 10-11 16l-76 228h-122l-76-228c-3-8-8-15-16-18-7-4-16-5-23-2-8 3-15 8-19 16-3 7-4 16-1 24l83 250c2 6 6 11 11 15 6 4 12 6 19 6h166c7 0 13-2 19-6 5-4 9-9 11-15l83-250c3-8 2-17-1-24-4-8-11-13-18-16-4-1-7-2-10-2z m250 0h-834c-5 0-11 2-16 5-5 3-8 7-11 12-3 5-4 11-4 16 0 6 2 11 5 16l167 250c3 4 7 8 11 10 5 3 10 4 15 4h542c6 0 11-2 16-5 5-3 9-7 12-12l125-250c2-5 3-10 3-16 0-5-2-10-5-15-2-4-6-8-11-11-5-2-10-4-15-4z m-775 63h724l-94 187h-505l-125-187z m358-646c-5 0-10 1-14 3-5 3-8 6-11 10l-417 584c-3 4-5 10-6 15 0 6 1 12 4 17 2 5 6 9 11 12 5 3 11 5 16 5h834c5 0 11-2 16-5 5-3 9-7 12-12 2-5 3-11 3-17-1-5-3-11-6-15l-417-584c-2-4-6-7-11-10-4-2-9-3-14-3z m-356 583l356-498 356 498h-712z" horiz-adv-x="1000" />

<glyph glyph-name="group" unicode="&#xe805;" d="M500 527c-27 0-53 8-75 23-22 15-40 36-50 61-10 24-13 52-8 78 5 26 18 50 37 69 19 19 43 32 70 37 26 6 53 3 78-7 25-11 46-28 61-50 15-22 22-49 22-75 0-36-14-71-39-96-26-26-60-40-96-40z m0 208c-14 0-28-4-40-12-12-8-22-19-27-33-6-13-7-28-4-42 2-14 9-27 20-37 10-10 23-17 37-20 14-3 29-1 42 4 13 6 25 15 33 27 8 12 12 26 12 41 0 19-8 37-21 51-14 14-33 21-52 21z m83-375h-166c-20 0-38 8-52 22-13 13-21 32-21 51 0 42 16 82 46 111 29 29 69 46 110 46 41 0 81-17 111-46 29-29 45-69 45-111 0-19-7-38-21-51-14-14-32-22-52-22z m-83 167c-25 0-49-10-66-27-18-18-28-42-28-67 0-2 1-5 3-7 2-2 5-3 8-3h166c3 0 6 1 8 3 2 2 3 5 3 7 0 25-10 49-28 67-17 17-41 27-66 27z m-292-458c-26 0-53 8-75 23-22 14-39 36-50 60-10 25-13 52-7 79 5 26 18 50 37 69 19 19 43 32 69 37 26 5 53 3 78-8 25-10 46-27 61-50 15-22 23-48 23-75 0-36-14-70-40-96-25-25-60-39-96-39z m0 208c-14 0-28-4-40-12-12-8-21-20-27-33-5-13-7-28-4-42 3-14 10-27 20-37 10-11 23-18 37-20 14-3 29-2 42 4 14 5 25 15 33 27 8 12 12 26 12 40 0 20-7 38-21 52-14 13-32 21-52 21z m84-375h-167c-19 0-38 8-51 21-14 14-22 33-22 52 0 41 17 81 46 111 29 29 69 45 110 45 42 0 82-16 111-45 29-30 46-70 46-111 0-19-8-38-22-52-13-13-32-21-51-21z m-84 167c-24 0-48-10-66-28-17-17-27-41-27-66 0-3 1-5 3-7 2-2 4-3 7-3h167c2 0 5 1 7 3 2 2 3 4 3 7 0 25-10 49-27 66-18 18-42 28-67 28z m584 0c-27 0-53 8-76 23-22 14-39 36-49 60-11 25-13 52-8 79 5 26 18 50 37 69 19 19 43 32 69 37 27 5 54 3 79-8 24-10 45-27 60-50 15-22 23-48 23-75 0-36-14-70-40-96-25-25-59-39-95-39z m0 208c-15 0-29-4-41-12-12-8-21-20-27-33-5-13-7-28-4-42 3-14 10-27 20-37 10-11 23-18 37-20 15-3 29-2 43 4 13 5 24 15 32 27 8 12 13 26 13 40 0 20-8 38-22 52-13 13-32 21-51 21z m83-375h-167c-19 0-37 8-51 21-14 14-21 33-22 52 0 41 17 81 46 111 30 29 69 45 111 45 41 0 81-16 110-45 30-30 46-70 46-111 0-19-8-38-21-52-14-13-33-21-52-21z m-83 167c-25 0-49-10-67-28-17-17-27-41-27-66 0-3 1-5 3-7 2-2 5-3 7-3h167c3 0 5 1 7 3 2 2 3 4 3 7 0 25-9 49-27 66-18 18-41 28-66 28z m-375 41c-7 0-14 3-20 7-5 5-9 11-11 18-1 6-1 14 2 20 3 6 8 12 15 15l66 33v105c0 9 3 17 9 22 6 6 14 10 22 10 8 0 16-4 22-10 6-5 9-13 9-22v-125c0-5-1-11-4-16-3-5-8-9-13-12l-83-41c-5-2-9-4-14-4z m166 0c-4 0-9 2-14 4l-83 41c-4 2-7 5-10 8-2 3-4 7-6 10-1 4-2 9-1 13 0 4 1 8 3 11 2 4 4 7 7 10 4 3 7 5 11 6 4 1 8 2 12 2 4-1 8-2 12-4l83-41c7-3 12-9 15-15 3-6 3-14 2-20-2-7-6-13-11-18-6-4-13-7-20-7z" horiz-adv-x="1000" />

<glyph glyph-name="layer" unicode="&#xe806;" d="M500 235c-14 0-28 4-40 12l-344 213c-10 6-18 14-24 24-6 10-9 21-9 33 0 11 3 22 9 32 6 10 14 19 24 24l344 214c12 7 26 11 40 11 14 0 28-4 40-11l344-214c10-5 19-14 24-24 6-9 9-21 9-32 0-12-3-23-9-33-5-10-14-18-24-24l-344-213c-12-8-26-12-40-12z m0 500c-3 0-5 0-7-2l-344-213c-2-1-3-2-3-3 0-1 1-3 3-4l344-213c2-1 4-2 7-2 3 0 5 1 7 2l345 213c1 1 3 3 3 4 0 1-2 2-3 3l-344 213c-3 2-5 2-8 2v0z m0-657c-15 0-29 5-42 13l-392 275c-4 2-7 5-9 9-3 3-4 7-5 11-1 5-1 9 0 13 1 4 3 8 5 11 3 4 6 7 9 9 4 2 8 4 12 4 4 1 8 1 12 0 4-1 8-3 11-6l393-275c2-1 4-2 6-2 2 0 4 1 6 2l393 275c3 3 7 5 11 6 4 1 9 1 13 0 4 0 8-2 11-4 4-2 7-5 9-9 3-3 4-7 5-11 1-4 1-8 0-13 0-4-2-8-4-11-3-4-6-7-9-9l-393-275c-12-8-27-13-42-13z m0-167c-15 0-29 5-42 13l-392 276c-4 2-7 5-9 8-3 4-4 8-5 12-1 4-1 8 0 12 1 4 3 8 5 12 3 3 6 6 9 8 4 2 8 4 12 5 4 0 8 0 12-1 4-1 8-3 11-5l393-275c2-2 4-2 6-2 2 0 4 0 6 2l393 275c3 2 7 4 11 5 4 1 9 1 13 1 4-1 8-3 11-5 4-2 7-5 9-8 3-4 4-8 5-12 1-4 1-8 0-12 0-4-2-8-4-12-3-3-6-6-9-8l-393-276c-12-8-27-13-42-13z" horiz-adv-x="1000" />

<glyph glyph-name="map-marker2" unicode="&#xe808;" d="M604 413c0 57-46 104-104 104-57 0-104-47-104-104 0-58 47-105 104-105 58 0 104 47 104 105z m-104-438c-50 0-312 213-312 435 0 174 139 315 312 315 173 0 313-141 313-315 0-222-263-435-313-435z" horiz-adv-x="1000" />

<glyph glyph-name="monitor" unicode="&#xe809;" d="M750 194h-667c-8 0-16 3-22 9-6 6-9 14-9 22 0 8 3 16 9 22 6 6 14 9 22 9h667c8 0 16-3 22-9 6-6 9-14 9-22 0-8-3-16-9-22-6-6-14-9-22-9z m83-125h-666c-31 0-60 12-81 33-22 22-34 51-34 81v459c0 30 12 59 34 81 21 21 50 33 81 33h666c31 0 60-12 81-33 22-22 34-51 34-81v-459c0-30-12-59-34-81-21-21-50-33-81-33z m-666 625c-14 0-27-6-37-15-10-10-15-23-15-37v-459c0-13 5-27 15-36 10-10 23-16 37-16h666c14 0 27 6 37 16 10 9 15 23 15 36v459c0 14-5 27-15 37-10 9-23 15-37 15h-666z m583-750h-500c-8 0-16 3-22 9-6 6-9 14-9 22 0 8 3 16 9 22 6 6 14 9 22 9h500c8 0 16-3 22-9 6-6 9-14 9-22 0-8-3-16-9-22-6-6-14-9-22-9z m-83 0h-334c-8 0-16 3-22 9-6 6-9 14-9 22v125c0 8 3 16 9 22 6 6 14 9 22 9h334c8 0 16-3 22-9 6-6 9-14 9-22v-125c0-8-3-16-9-22-6-6-14-9-22-9z m-302 62h270v63h-270v-63z" horiz-adv-x="1000" />

<glyph glyph-name="monitor2" unicode="&#xe80a;" d="M875 69h-750c-30 0-59 12-81 33-21 22-34 51-34 81v500c0 31 13 60 34 81 22 22 51 34 81 34h750c30 0 60-12 81-34 22-21 34-50 34-81v-500c0-30-12-59-34-81-21-21-51-33-81-33z m-750 666c-14 0-27-5-37-15-10-10-15-23-15-37v-500c0-13 5-27 15-36 10-10 23-16 37-16h750c14 0 27 6 37 16 10 9 15 23 15 36v500c0 14-5 27-15 37-10 10-23 15-37 15h-750z m708-833c-2 0-5 0-7 1-107 25-216 39-326 41-109 2-218-12-323-40-8-3-17-2-24 2-7 3-13 10-15 18-3 7-2 16 1 23 4 7 10 13 18 16 111 31 227 46 343 43 115-2 229-16 341-42 7-2 14-7 18-13 4-6 6-14 5-22-1-7-4-14-10-19-6-5-13-8-21-8z" horiz-adv-x="1000" />

<glyph glyph-name="optimization" unicode="&#xe80b;" d="M527-98h-54c-23 0-46 8-63 24-17 16-28 37-30 60 0 6-2 12-6 16-3 5-8 9-13 11-5 2-11 3-17 3-5-1-11-3-15-7-18-15-41-23-64-22-24 1-46 10-62 27l-39 39c-16 16-26 38-27 61-1 23 6 46 21 64 4 4 6 9 7 15 1 6 1 12-2 17-2 5-5 10-9 14-5 3-10 5-16 6-23 2-45 12-61 30-16 17-25 39-25 63v54c0 23 9 46 24 63 16 17 37 28 60 30 6 0 12 2 16 6 5 3 9 8 11 13 2 5 3 11 3 17-1 5-3 11-7 15-15 18-23 41-22 64 1 24 11 46 27 63l39 38c16 16 38 26 61 27 23 1 46-6 64-21 4-4 9-6 15-7 6-1 12-1 17 2 5 2 10 5 14 10 3 4 5 9 6 15 2 23 12 45 30 61 17 16 39 25 63 25h54c23 0 46-8 63-24 17-16 28-37 30-60 0-6 2-12 6-16 3-5 8-9 13-11 5-2 11-3 17-2 5 0 11 3 15 6 18 15 41 23 64 22 24-1 46-10 63-27l38-38c16-17 26-39 27-62 1-23-6-46-21-63-4-5-6-10-7-16-1-6-1-12 2-17 2-5 5-10 10-13 4-4 9-6 15-7 24-2 45-12 61-29 16-18 25-40 25-64v-54c0-23-9-45-24-63-16-17-37-27-60-30-6 0-12-2-16-5-5-4-9-8-11-14-2-5-3-11-2-16 0-6 3-11 6-16 15-18 23-41 22-64-1-23-10-46-27-62l-38-39c-17-16-39-26-62-27-23-1-46 6-63 21-5 4-10 7-16 8-6 1-12 0-17-2-5-2-10-6-13-10-4-5-6-10-7-16-1-23-12-45-29-61-18-16-40-25-64-25z m-178 176c23 0 45-8 62-24 18-15 28-37 31-60 0-8 4-15 10-21 5-5 13-8 21-8h54c8-1 15 2 21 7 5 6 9 13 10 20 1 17 7 34 17 47 10 14 24 25 40 32 15 6 33 9 49 6 17-2 33-9 47-20 5-5 13-8 21-8 8 1 16 4 21 9l39 39c5 5 8 12 9 20 0 8-2 15-7 21-11 13-18 29-21 46-3 17-1 34 6 50 6 15 17 29 30 40 14 10 30 16 47 18 8 0 15 4 21 10 5 5 8 13 8 21v54c0 8-2 15-8 21-5 5-12 9-19 10-17 1-34 7-47 17-14 10-25 24-32 40-6 15-9 33-6 49 2 17 9 33 20 46 5 6 8 14 8 22 0 8-4 16-9 21l-39 39c-5 5-12 8-20 9-7 0-15-2-21-7-13-11-29-18-46-21-17-3-34-1-50 5-15 7-29 17-40 31-10 14-16 30-18 47 0 8-4 15-10 21-5 5-13 8-21 8h-54c-8 0-15-2-21-8-5-5-9-12-10-19-1-17-7-34-17-47-10-14-24-25-40-32-15-6-33-9-49-6-17 2-33 9-47 20-5 5-13 8-21 8-8-1-16-4-21-9l-39-39c-5-5-8-12-9-20 0-8 3-15 7-21 11-13 18-29 21-46 3-17 1-34-6-50-6-15-16-29-30-39-14-11-30-17-47-19-8 0-15-4-21-10-5-5-8-13-8-21v-54c0-8 3-15 8-21 5-5 12-9 19-10 17-1 34-7 48-17 13-10 24-24 31-40 6-15 9-32 6-49-2-17-9-33-19-46-6-6-9-14-9-22 1-8 4-16 9-21l39-39c5-5 12-8 20-9 8 0 15 2 21 7 17 14 38 22 61 22z m151 12c-51 0-102 15-145 44-42 28-76 69-96 116-19 48-24 100-14 151 10 50 35 97 71 133 36 37 83 61 133 71 51 11 103 5 151-14 47-20 88-53 117-96 28-43 43-93 43-145 0-69-27-135-76-184-49-49-115-76-184-76z m0 458c-39 0-77-12-110-33-32-22-58-53-73-89-15-36-19-76-11-115 8-38 26-73 54-101 28-28 63-46 101-54 39-8 79-4 115 11 36 15 67 41 89 73 21 33 33 71 33 110 0 53-21 103-58 140-37 37-87 58-140 58z m0-438c-75 0-115 121-115 240 0 119 40 240 115 240 75 0 115-121 115-240 0-119-40-240-115-240z m0 417c-13 0-52-61-52-177 0-116 39-177 52-177 13 0 52 61 52 177 0 116-39 177-52 177z m208-208h-416c-9 0-16 3-22 9-6 6-10 14-10 22 0 8 4 16 10 22 6 6 13 9 22 9h416c9 0 17-3 23-9 5-6 9-14 9-22 0-8-4-16-9-22-6-6-14-9-23-9z" horiz-adv-x="1000" />

<glyph glyph-name="pdf" unicode="&#xe80c;" d="M295 207c0 16-12 26-32 26-9 0-14-1-17-1v-54c3 0 8-1 14-1 21 0 35 11 35 30z m125 26c-9 0-14-1-18-2v-118c4-1 9-1 14-1 37 0 61 20 61 63 1 38-21 58-57 58z m234 617h-401c-59 0-107-48-107-106v-394h-10c-24 0-43-19-43-43v-260c0-24 19-43 43-43h10v-48c0-58 48-106 107-106h548c58 0 106 48 106 106v642l-253 252z m-448-590c12 2 30 4 55 4 25 0 43-5 55-14 11-10 19-25 19-42 0-18-6-33-17-43-13-13-34-19-58-19-6 0-10 0-14 1v-65h-40v178z m595-345h-548c-23 0-41 19-41 41v48h510c24 0 43 19 43 43v260c0 24-19 43-43 43h-510v394c0 22 18 41 41 41l377 0v-139c0-41 33-74 74-74l136 0 2-616c0-22-19-41-41-41z m-440 168v177c15 3 35 4 55 4 34 0 57-6 74-19 19-14 31-36 31-68 0-35-13-59-30-73-19-16-48-24-84-24-21 0-36 2-46 3z m292 105v-33h-65v-73h-41v181h111v-34h-70v-41h65z" horiz-adv-x="1000" />

<glyph glyph-name="pencil" unicode="&#xe80d;" d="M177-4c-11 0-22 3-31 8-10 5-19 12-26 21-7 8-11 18-14 29-2 11-2 22 1 33l39 157c3 13 10 25 20 34l463 463c29 28 68 43 109 42 40 0 79-17 108-46 28-28 45-67 45-107 1-41-14-80-42-110l-463-463c-9-9-21-16-34-19l-157-39c-5-2-12-3-18-3z m562 729c-12 0-24-3-36-8-11-4-22-11-30-20l-463-463c-2-1-3-3-3-5l-39-157c-1-2-1-4 0-5 0-2 1-4 2-5 2-1 3-2 5-3 2 0 3 0 5 0l158 40c1 0 3 1 4 2l463 463c14 14 22 30 26 48 4 19 2 38-5 55-7 17-19 31-35 42-15 10-33 16-52 16z m-380-680c-4 0-8 0-12 2-4 2-7 4-10 7l-175 175c-3 3-5 6-7 10-2 4-3 8-3 12 0 4 1 8 2 12 2 4 4 8 7 11 3 3 7 5 11 7 4 1 8 2 12 2 4 0 8-1 12-3 4-2 7-4 10-7l175-175c5-4 8-10 9-16 1-6 0-12-2-18-2-6-6-11-11-14-6-4-12-5-18-5z m421 419c-8 0-16 3-22 9l-176 177c-3 3-6 6-7 10-2 4-3 8-3 12 0 4 1 8 3 12 1 4 4 7 7 10 2 3 6 5 10 7 4 2 8 2 12 2 4 0 8 0 12-2 3-2 7-4 10-7l176-176c5-5 8-10 9-16 1-6 1-13-2-18-2-6-6-11-11-14-5-4-11-6-18-6v0z m-506-330c-7 0-13 2-18 5-5 4-9 9-11 14-3 6-3 12-2 18 1 6 4 12 8 16l352 352c6 5 14 8 22 8 8 0 16-3 21-9 6-6 9-13 10-22 0-8-3-15-9-21l-351-352c-3-3-7-5-10-7-4-1-8-2-12-2z m601-232h-417c-8 0-16 3-22 9-6 6-9 14-9 22 0 9 3 17 9 22 6 6 14 10 22 10h417c8 0 16-4 22-10 6-5 9-13 9-22 0-8-3-16-9-22-6-6-14-9-22-9z m-542 0h-166c-9 0-17 3-22 9-6 6-10 14-10 22 0 9 4 17 10 22 5 6 13 10 22 10h166c9 0 17-4 22-10 6-5 10-13 10-22 0-8-4-16-10-22-5-6-13-9-22-9z" horiz-adv-x="1000" />

<glyph glyph-name="phone" unicode="&#xe80e;" d="M625 183l-8-40c18-4 37 5 45 22l-37 18z m-292 292l-18 37c-17-8-26-27-22-45l40 8z m15 7l19-37-19 37z m40 106l39 15v0l-39-15z m-34 85l-38-16v0l38 16z m469-469l-16-38 16 38z m-85 34l15 39h0l-15-39z m-106-40l38-19 0 0-38 19z m35 194c0-23 18-42 41-42 23 0 42 19 42 42h-83z m29 63l38 16v0l-38-16z m-91 91l16 38-16-38z m-63 54c-23 0-42-19-42-42 0-23 19-41 42-41v83z m291-208c0-23 19-42 42-42 23 0 42 19 42 42h-84z m17 127l38 16v0l-38-16z m-181 181l16 38v0l-16-38z m-127 67c-23 0-42-19-42-42 0-23 19-42 42-42v84z m291-640v-69h84v69h-84z m-625 556h69v84h-69v-84z m417-500c8 41 8 41 8 41 0 0 0 0 0 0 0 0 0 0 0 0 0 0 0 0 0 0 0 0 0 0 0 0 0 0 0 0 0 0-1 0-2 1-3 1-2 1-6 1-11 3-10 3-24 7-40 15-33 14-75 37-112 74l-59-59c47-46 98-75 138-92 20-9 37-14 50-18 6-2 11-3 15-4 1 0 3-1 4-1 0 0 1 0 1 0 0 0 0 0 1 0 0 0 0 0 0 0 0 0 0 0 0 0 0 0 0 0 0 0 0 0 0 0 8 40z m-158 134c-37 37-60 79-74 112-8 16-12 30-15 40-2 5-2 9-3 11 0 1-1 2-1 3 0 0 0 0 0 0 0 0 0 0 0 0 0 0 0 0 0 0 0 0 0 0 0 0 0 0 0 0 0 0 0 0 0 0-41-8-40-8-40-8-40-8 0 0 0 0 0 0 0 0 0 0 0 0 0 0 0 0 0 0 0-1 0-1 0-1 0 0 0-1 0-1 0-1 1-3 1-4 1-4 2-9 4-15 4-13 9-30 18-50 17-40 46-91 92-138l59 59z m-115 121l15 7-37 75-15-8 37-74z m75 165l-34 85-77-31 34-85 77 31z m411-360l-85 34-31-77 85-34 31 77z m-243-26l-7-15 74-37 8 14-75 38z m158 60c-60 24-129-2-158-60l75-38c9 20 32 29 52 21l31 77z m-386 168c58 29 84 98 60 158l-77-31c8-20-1-43-20-52l37-75z m-90 238c17 0 32-10 39-26l77 31c-19 48-65 79-116 79v-84z m640-556c0 51-31 97-79 116l-31-77c16-7 26-22 26-39h84z m-125-110c-345 0-625 280-625 625h-84c0-391 318-709 709-709v84z m0-84c69 0 125 56 125 125h-84c0-23-18-41-41-41v-84z m-625 709c0 23 18 41 41 41v84c-69 0-125-56-125-125h84z m583-250c0 27-5 54-16 79l-77-31c6-16 10-32 10-48h83z m-16 79c-10 26-26 49-45 68l-59-59c12-12 21-25 27-40l77 31z m-45 68c-19 19-42 35-68 45l-31-77c15-6 28-15 40-27l59 59z m-68 45c-25 11-52 16-79 16v-83c16 0 32-4 48-10l31 77z m296-192c0 49-10 98-29 143l-77-32c15-35 22-73 22-111h84z m-29 143c-19 46-46 87-81 122l-59-59c27-27 49-59 63-95l77 32z m-81 122c-35 35-76 62-122 81l-32-77c36-14 68-36 95-63l59 59z m-122 81c-45 19-94 29-143 29v-84c38 0 76-7 111-22l32 77z" horiz-adv-x="1000" />

<glyph glyph-name="presentation" unicode="&#xe80f;" d="M833 110h-666c-31 0-60 13-81 34-22 22-34 51-34 81v417c0 30 12 59 34 81 21 21 50 33 81 33h666c31 0 60-12 81-33 22-22 34-51 34-81v-417c0-30-12-59-34-81-21-21-50-34-81-34z m-666 584c-14 0-27-6-37-15-10-10-15-23-15-37v-417c0-14 5-27 15-37 10-10 23-15 37-15h666c14 0 27 5 37 15 10 10 15 23 15 37v417c0 14-5 27-15 37-10 9-23 15-37 15h-666z m83-750c-6 0-12 2-17 5-5 3-9 8-12 14-2 6-3 12-2 18 2 6 5 12 9 16l167 167c6 5 13 8 22 8 8 0 15-3 21-9 6-6 9-13 9-22 0-8-3-15-8-21l-167-167c-3-3-6-5-10-7-4-2-8-2-12-2z m500 0c-4 0-8 1-12 2-4 2-7 4-10 7l-167 167c-5 6-8 13-8 21 0 9 3 16 9 22 6 6 14 9 22 9 8 0 16-3 21-8l167-167c5-4 7-10 9-16 1-6 0-12-2-18-2-6-6-11-12-14-5-3-11-5-17-5z m-250 0c-8 0-16 3-22 9-6 6-9 14-9 22v167c0 8 3 16 9 22 6 6 14 9 22 9 8 0 16-3 22-9 6-6 9-14 9-22v-167c0-8-3-16-9-22-6-6-14-9-22-9z m229 291h-458c-8 0-16 4-22 10-6 5-9 13-9 22 0 8 3 16 9 22 6 6 14 9 22 9h458c9 0 16-3 22-9 6-6 9-14 9-22 0-9-3-17-9-22-6-6-13-10-22-10z m-229 0c-8 0-16 4-22 10-6 5-9 13-9 22v333c0 8 3 16 9 22 6 6 14 9 22 9 8 0 16-3 22-9 6-6 9-14 9-22v-333c0-9-3-17-9-22-6-6-14-10-22-10z m167 0c-9 0-16 4-22 10-6 5-10 13-10 22v250c0 8 4 16 10 22 6 6 13 9 22 9 8 0 16-3 22-9 6-6 9-14 9-22v-250c0-9-3-17-9-22-6-6-14-10-22-10z m-334 0c-8 0-16 4-22 10-6 5-9 13-9 22v250c0 8 3 16 9 22 6 6 14 9 22 9 9 0 17-3 22-9 6-6 10-14 10-22v-250c0-9-4-17-10-22-5-6-13-10-22-10z" horiz-adv-x="1000" />

<glyph glyph-name="quote" unicode="&#xe810;" d="M647 532c-37 0-68-11-92-34-25-22-38-52-38-88 0-61 39-103 115-128 3-1 9-4 6-8-10-22-25-43-46-64-10-10-27-24-50-43-5-4-13-13-6-24l12-15c7-8 19-5 24-2 134 88 201 179 201 273 0 32-13 61-38 89-25 29-55 44-88 44z m-290 0c-37 0-68-11-93-34-24-22-37-52-37-88 0-61 38-103 115-128 3-1 9-4 6-8-10-22-25-43-46-64-10-10-27-24-50-43-5-4-13-13-7-24l13-15c7-8 19-5 24-2 134 88 201 179 201 273 0 32-13 61-38 89-25 29-55 44-88 44z" horiz-adv-x="1000" />

<glyph glyph-name="scanner" unicode="&#xe811;" d="M536 69c-6-1-12 1-17 5-5 3-9 8-12 13-2 6-3 12-2 18 1 6 3 11 8 16 26 29 47 62 62 98 14 52 20 107 16 161 0 16-6 32-17 43-12 11-27 18-43 18-16 0-32-7-43-18-11-11-18-27-18-43 0-76-38-176-109-211-7-4-16-5-24-2-7 3-14 8-18 16-3 7-4 16-1 24 2 7 8 14 15 18 45 22 75 98 75 155 0 33 13 64 36 87 23 23 54 36 87 36 33 0 64-13 87-36 23-23 36-54 36-87 4-62-3-125-21-185-18-43-43-82-74-116-3-4-6-6-10-8-4-2-9-3-13-2z m126-34c-5 0-11 1-16 4-5 3-9 7-11 12-3 6-4 11-4 17 0 6 2 11 6 16 28 41 50 88 64 136 19 67 23 137 12 206-2 38-14 75-35 108-17 21-39 38-64 49-24 11-52 16-79 14-88-8-182-100-182-180 3-37-2-74-16-108-14-34-35-65-63-89-3-3-7-6-10-8-4-1-8-2-13-2-4 0-8 0-12 2-4 2-7 4-10 7-3 3-5 6-7 10-2 4-2 8-2 12 0 5 1 9 2 13 2 3 5 7 8 10 22 19 39 42 49 69 11 27 15 56 12 84 0 112 118 232 239 242 38 3 75-4 110-19 34-15 64-39 88-68 27-40 43-87 46-136 13-78 8-157-13-233-16-55-40-107-73-155-3-4-7-7-11-10-5-2-10-3-15-3z m-223 69c-7 0-14 3-19 7-6 4-10 10-11 17-2 7-1 14 2 21 3 6 8 11 14 14 26 13 38 48 50 88 1 4 2 8 5 11 3 3 6 6 9 8 4 2 8 4 12 4 4 0 8 0 12-1 4-1 8-3 11-6 3-2 6-5 8-9 2-4 3-8 4-12 0-4 0-8-1-12-4-26-14-50-28-72-14-22-32-40-54-55-4-2-9-3-14-3z m-356 340c-8 0-16 3-22 9-6 6-9 14-9 22v167c0 41 17 81 46 110 29 29 69 46 110 46h167c8 0 16-3 22-9 6-6 9-14 9-22 0-9-3-17-9-22-6-6-14-10-22-10h-167c-24 0-48-9-66-27-17-18-27-41-27-66v-167c0-8-4-16-10-22-5-6-13-9-22-9z m834 0c-9 0-17 3-22 9-6 6-10 14-10 22v167c0 25-9 48-27 66-18 18-41 27-66 27h-167c-8 0-16 4-22 10-6 5-9 13-9 22 0 8 3 16 9 22 6 6 14 9 22 9h167c41 0 81-17 110-46 29-29 46-69 46-110v-167c0-8-3-16-9-22-6-6-14-9-22-9z m-542-542h-167c-41 0-81 17-110 46-29 29-46 69-46 110v167c0 8 3 16 9 22 6 6 14 9 22 9 9 0 17-3 22-9 6-6 10-14 10-22v-167c0-24 10-48 27-66 18-18 42-27 66-27h167c8 0 16-4 22-10 6-5 9-13 9-22 0-8-3-16-9-22-6-6-14-9-22-9z m417 0h-167c-8 0-16 3-22 9-6 6-9 14-9 22 0 9 3 17 9 22 6 6 14 10 22 10h167c25 0 48 9 66 27 18 18 27 42 27 66v167c0 8 4 16 10 22 5 6 13 9 22 9 8 0 16-3 22-9 6-6 9-14 9-22v-167c0-41-17-81-46-110-29-29-69-46-110-46z" horiz-adv-x="1000" />

<glyph glyph-name="target-1" unicode="&#xe812;" d="M563-98c102 0 200 41 272 113 72 72 113 170 113 273 0 102-41 200-113 272-72 72-170 113-272 113-22 0-44-2-65-5-9-2-16-7-21-13-4-7-6-15-5-24 2-8 6-15 13-20 7-5 15-6 23-5 18 3 36 5 55 4 63 0 126-18 179-54 53-35 94-86 119-145 24-59 31-124 18-186-12-63-43-121-88-166-45-45-103-76-165-88-63-13-128-6-187 18-59 25-109 66-145 119-35 53-54 116-54 180 0 24 2 48 8 71 1 4 1 8 1 13-1 4-2 8-4 11-3 4-5 7-9 9-3 3-7 5-11 6-4 1-8 1-12 0-4-1-8-2-12-4-3-2-6-5-9-9-2-3-4-7-5-11-7-28-10-57-10-86 0-103 41-201 113-273 72-72 170-113 273-113z m0 167c58 0 113 23 154 64 41 41 64 97 64 155 0 58-23 113-64 154-41 41-96 64-154 64-11 0-21 0-31-2-8-1-16-5-20-12-5-7-7-15-6-23 1-8 5-16 12-21 7-5 15-7 23-6 7 1 14 2 22 2 30 0 61-9 86-27 26-17 46-41 58-70 12-28 15-60 9-90-6-30-21-58-43-80-22-22-50-37-80-43-30-6-62-3-90 9-29 12-53 32-70 58-18 25-27 56-27 87 0 12 2 25 5 38 2 4 2 9 1 14-1 5-3 9-6 13-3 4-6 7-11 9-4 2-9 4-14 4-7 0-14-3-20-7-5-5-9-12-10-19-5-17-7-35-7-52 0-58 23-114 64-155 41-41 97-64 155-64z m0 187c6 0 11 2 17 5 5 4 9 8 11 14 3 5 3 11 2 17 0 6-3 12-7 16l-193 216c-2 4-6 6-9 8-4 2-8 3-12 3-4 0-8 0-12-2-4-1-8-3-11-6-3-3-5-6-7-10-2-3-3-7-3-12 0-4 0-8 2-12 1-4 3-7 6-10l192-216c3-4 7-6 11-8 4-2 8-3 13-3z m-340 187c2 0 4 0 6 1l147 29c6 1 12 4 16 9 5 4 8 9 9 16l29 147c1 5 1 10-1 15-1 5-4 9-7 13l-148 147c-4 4-9 7-14 9-6 1-11 1-17-1-5-1-10-5-14-9-4-4-6-9-7-15l-26-127-127-25c-5-1-10-4-15-7-4-4-7-9-8-14-2-6-2-12-1-17 1-6 4-11 8-15l148-147c6-6 13-9 22-9z m121 87l-111-22-94 94 90 18c6 2 12 4 16 9 4 4 7 10 8 16l18 90 95-94-22-111z" horiz-adv-x="1000" />

<glyph glyph-name="target-2" unicode="&#xe813;" d="M438-98c-103 0-201 41-273 113-72 72-113 170-113 273 0 102 41 200 113 272 72 72 170 113 273 113 21 0 43-2 65-5 8-2 15-7 20-13 4-7 6-15 5-24-2-8-6-15-13-20-7-5-15-6-23-5-18 3-36 5-54 4-64 0-127-18-180-54-53-35-94-86-119-145-24-59-31-124-18-186 12-63 43-121 88-166 45-45 103-76 166-88 62-13 127-6 186 18 59 25 110 66 145 119 36 53 54 116 54 180 1 24-2 48-8 71-1 4-1 8-1 13 1 4 2 8 5 11 2 4 4 7 8 9 3 3 7 5 11 6 4 1 8 1 12 0 4-1 8-2 12-4 3-2 6-5 9-9 2-3 4-7 5-11 7-28 10-57 10-86 0-103-41-201-113-273-72-72-170-113-272-113z m0 167c-58 0-114 23-155 64-41 41-64 97-64 155 0 58 23 113 64 154 41 41 97 64 155 64 10 0 20 0 30-2 8-1 16-5 21-12 4-7 7-15 5-23-1-8-5-16-12-21-7-5-15-7-23-6-7 1-14 2-21 2-31 0-62-9-87-27-26-17-46-41-58-70-12-28-15-60-9-90 6-30 21-58 43-80 22-22 50-37 80-43 30-6 62-3 90 9 29 12 53 32 70 58 18 25 27 56 27 87 0 12-2 25-5 38-2 4-2 9-1 14 1 5 3 9 6 13 3 4 7 7 11 9 4 2 9 4 14 4 7 0 14-3 20-7 5-5 9-12 11-19 4-17 6-35 6-52 0-58-23-114-64-155-41-41-96-64-154-64z m0 187c-6 0-12 2-17 5-6 4-10 8-12 14-2 5-3 11-2 17 1 6 3 12 7 16l193 216c2 4 6 6 9 8 4 2 8 3 12 3 4 0 9 0 12-2 4-1 8-3 11-6 3-3 5-6 7-10 2-3 3-7 3-12 1-4 0-8-1-12-2-4-4-7-7-10l-192-216c-3-4-7-6-11-8-4-2-8-3-12-3z m339 187c-2 0-4 0-6 1l-147 29c-6 1-12 4-16 9-4 4-7 9-9 16l-29 147c-1 5-1 10 1 15 1 5 4 9 7 13l148 147c4 4 9 7 14 9 6 1 12 1 17-1 5-1 10-5 14-9 4-4 6-9 8-15l25-127 127-25c5-1 11-4 15-7 4-4 7-9 9-14 1-6 1-12 0-17-1-6-4-11-8-15l-148-147c-5-6-13-9-22-9z m-120 87l110-22 94 94-90 18c-6 2-11 4-16 9-4 4-7 10-8 16l-18 90-95-94 23-111z" horiz-adv-x="1000" />

<glyph glyph-name="user" unicode="&#xe814;" d="M629 558c0-71-58-129-129-129v-75c113 0 204 92 204 204h-75z m-129-129c-71 0-129 58-129 129h-75c0-112 91-204 204-204v75z m-129 129c0 72 58 130 129 130v75c-113 0-204-92-204-205h75z m129 130c71 0 129-58 129-130h75c0 113-91 205-204 205v-75z m254-567c0-19-16-45-65-70-46-23-113-38-189-38v-76c85 0 164 18 223 47 57 29 106 75 106 137h-75z m-254-108c-76 0-143 15-189 38-49 25-65 51-65 70h-75c0-62 49-108 106-137 59-29 138-47 223-47v76z m-254 108c0 18 16 45 65 69 46 24 113 39 189 39v75c-85 0-164-17-223-46-57-29-106-75-106-137h75z m254 108c76 0 143-15 189-39 49-24 65-51 65-69h75c0 62-49 108-106 137-59 29-138 46-223 46v-75z" horiz-adv-x="1000" />

<glyph glyph-name="bag" unicode="&#xe815;" d="M833 235h-666c-31 0-60 13-81 34-22 22-34 51-34 81v208c0 31 12 60 34 81 21 22 50 34 81 34h666c31 0 60-12 81-34 22-21 34-50 34-81v-208c0-30-12-59-34-81-21-21-50-34-81-34z m-666 375c-14 0-27-5-37-15-10-10-15-23-15-37v-208c0-14 5-27 15-37 10-10 23-15 37-15h666c14 0 27 5 37 15 10 10 15 23 15 37v208c0 14-5 27-15 37-10 10-23 15-37 15h-666z m541 0h-416c-9 0-17 4-22 10-6 5-10 13-10 22v83c0 19 8 38 22 52 14 13 32 21 51 21h334c19 0 38-8 51-21 14-14 22-33 22-52v-83c0-9-4-17-10-22-5-6-13-10-22-10z m-385 63h354v52c0 3-1 5-3 7-2 2-5 3-7 3h-334c-2 0-5-1-7-3-2-2-3-4-3-7v-52z m469-771h-584c-30 0-59 12-81 34-21 21-33 50-33 81v261c0 8 3 16 9 22 6 6 14 9 22 9 8 0 16-3 22-9 6-6 9-14 9-22v-261c0-14 6-27 16-37 9-10 23-15 36-15h584c14 0 27 5 37 15 9 10 15 23 15 37v261c0 8 3 16 9 22 6 6 14 9 22 9 8 0 16-3 22-9 6-6 9-14 9-22v-261c0-31-12-60-33-81-22-22-51-34-81-34z m-459 292c-8 0-16 3-22 9-6 6-9 14-9 22v83c0 9 3 17 9 22 6 6 14 10 22 10 9 0 17-4 22-10 6-5 10-13 10-22v-83c0-8-4-16-10-22-5-6-13-9-22-9z m334 0c-9 0-17 3-22 9-6 6-10 14-10 22v83c0 9 4 17 10 22 5 6 13 10 22 10 8 0 16-4 22-10 6-5 9-13 9-22v-83c0-8-3-16-9-22-6-6-14-9-22-9z" horiz-adv-x="1000" />

<glyph glyph-name="briefcase" unicode="&#xe816;" d="M708 527h-416c-9 0-16 3-22 9-6 6-10 14-10 22v84c1 30 13 59 34 81 22 21 51 33 81 33h250c30 0 60-12 81-33 22-22 34-51 34-81v-84c0-8-4-16-9-22-6-6-14-9-23-9z m-385 63h354v52c0 14-5 27-15 37-10 9-23 15-37 15h-250c-14 0-27-6-37-15-9-10-15-23-15-37v-52z m480-355h-136c-9 0-16 4-22 10-6 5-10 13-10 22 0 8 4 16 10 22 6 6 13 9 22 9h136c13 0 25 5 34 13 10 8 16 20 18 32l24 172c0 2 0 3 0 5-1 1-1 2-2 4-1 1-2 2-4 2-1 1-3 1-4 1h-738c-1 0-3 0-4-1-1 0-2-1-3-2-1-2-2-3-3-4 0-2 0-3 0-5l25-172c1-13 8-24 17-32 10-8 22-13 34-13h220c8 0 16-3 22-9 6-6 9-14 9-22 0-9-3-17-9-22-6-6-14-10-22-10h-220c-27 0-54 10-75 28-21 18-34 43-38 71l-25 172c-1 11 0 21 3 32 3 10 8 19 15 27 6 8 15 14 24 18 10 5 20 7 30 7h738c10 0 21-2 30-7 9-4 18-10 25-18 7-8 12-17 15-27 3-10 3-21 2-31l-25-173c-3-27-17-52-38-70-21-19-47-29-75-29z m-53-333h-500c-30 0-59 12-81 34-21 21-33 50-34 81v250c0 8 4 16 10 22 6 6 13 9 22 9h250c8 0 16-3 22-9 6-6 9-14 9-22 0-9-3-17-9-22-6-6-14-10-22-10h-219v-218c0-14 6-27 15-37 10-10 23-15 37-15h500c14 0 27 5 37 15 10 10 15 23 15 37v218h-135c-9 0-16 4-22 10-6 5-10 13-10 22 0 8 4 16 10 22 6 6 13 9 22 9h166c9 0 17-3 23-9 5-6 9-14 9-22v-250c0-31-12-60-34-81-21-22-51-34-81-34z m-208 250h-84c-19 0-37 8-51 22-14 13-22 32-22 51v83c0 20 8 38 22 52 14 14 32 21 51 21h84c19 0 38-7 51-21 14-14 22-32 22-52v-83c0-19-8-38-22-51-13-14-32-22-51-22z m-84 167c-2 0-5-1-7-3-2-2-3-5-3-8v-83c0-3 1-5 3-7 2-2 5-3 7-3h84c2 0 5 1 7 3 2 2 3 4 3 7v83c0 3-1 6-3 8-2 2-5 3-7 3h-84z" horiz-adv-x="1000" />

<glyph glyph-name="chart-1" unicode="&#xe819;" d="M917-98h-750c-31 0-60 12-81 34-22 21-34 50-34 81v750c0 8 3 16 9 22 6 6 14 9 22 9 9 0 17-3 22-9 6-6 10-14 10-22v-750c0-14 5-27 15-37 10-10 23-15 37-15h750c8 0 16-4 22-10 6-5 9-13 9-22 0-8-3-16-9-22-6-6-14-9-22-9z m-125 167c-9 0-17 3-22 9-6 6-10 14-10 22v375c0 8 4 16 10 22 5 6 13 9 22 9 8 0 16-3 22-9 6-6 9-14 9-22v-375c0-8-3-16-9-22-6-6-14-9-22-9z m-167 0c-8 0-16 3-22 9-6 6-9 14-9 22v250c0 8 3 16 9 22 6 6 14 9 22 9 8 0 16-3 22-9 6-6 9-14 9-22v-250c0-8-3-16-9-22-6-6-14-9-22-9z m-167 0c-8 0-16 3-22 9-6 6-9 14-9 22v250c0 8 3 16 9 22 6 6 14 9 22 9 9 0 17-3 22-9 6-6 10-14 10-22v-250c0-8-4-16-10-22-5-6-13-9-22-9z m-166 0c-9 0-17 3-22 9-6 6-10 14-10 22v167c0 8 4 16 10 22 5 6 13 9 22 9 8 0 16-3 22-9 6-6 9-14 9-22v-167c0-8-3-16-9-22-6-6-14-9-22-9z m-42 333c-6 0-13 2-18 6-5 3-9 9-11 15-3 6-3 12-1 19 2 6 5 11 10 15l250 209c6 5 14 7 21 7 8 0 16-4 21-9l103-103 186 186c6 6 14 9 22 9 8-1 16-4 22-10 5-5 9-13 9-21 0-8-3-16-9-22l-208-208c-3-3-6-6-10-7-4-2-8-3-12-3-4 0-8 1-12 3-4 1-7 4-10 7l-105 104-228-190c-6-4-13-7-20-7z" horiz-adv-x="1000" />

<glyph glyph-name="chart-2" unicode="&#xe81a;" d="M750 110h-500c-30 0-59 13-81 34-21 22-33 51-34 81v458c0 9 4 17 10 22 6 6 13 10 22 10h666c9 0 17-4 23-10 5-5 9-13 9-22 0-8-4-16-9-22-6-6-14-9-23-9h-635v-427c0-14 6-27 15-37 10-10 23-15 37-15h500c14 0 27 5 37 15 10 10 15 23 15 37v375c0 8 3 16 9 22 6 6 14 9 22 9 9 0 17-3 23-9 5-6 9-14 9-22v-375c0-30-12-59-34-81-21-21-51-34-81-34z m167 542h-834c-8 0-16 3-22 9-6 6-9 14-9 22 0 9 3 17 9 22 6 6 14 10 22 10h834c8 0 16-4 22-10 6-5 9-13 9-22 0-8-3-16-9-22-6-6-14-9-22-9z m-417 0c-8 0-16 3-22 9-6 6-9 14-9 22v84c0 8 3 16 9 22 6 6 14 9 22 9 8 0 16-3 22-9 6-6 9-14 9-22v-84c0-8-3-16-9-22-6-6-14-9-22-9z m250-750c-6 0-12 2-18 5-5 4-9 9-11 15l-83 208c-3 8-3 16 0 24 3 8 9 14 17 17 8 3 16 3 24-1 8-3 14-9 17-17l83-208c1-4 2-8 2-12 0-4-1-8-2-12-2-4-4-7-7-10-3-3-7-5-11-7-3-1-7-2-11-2z m-500 0c-4 0-8 1-12 2-3 2-7 4-10 7-3 3-5 6-7 10-1 4-2 8-2 12 0 4 1 8 2 12l83 208c2 4 4 8 7 10 3 3 6 6 10 7 4 2 8 3 12 3 4 0 8-1 12-2 4-2 7-4 10-7 3-3 5-6 7-10 2-4 3-8 3-12 0-4-1-8-3-12l-83-208c-2-6-6-11-11-15-6-3-12-5-18-5z m292 417c-6 0-12 2-18 5l-103 69-66-65c-5-6-13-9-21-8-8 0-16 3-22 9-6 5-9 13-9 21 0 8 3 16 8 22l84 83c5 6 11 9 19 9 7 1 14-1 20-5l104-69 107 107c6 6 13 9 21 9 9-1 16-4 22-10 6-5 9-13 9-21 0-8-3-16-8-22l-125-125c-3-3-7-5-10-7-4-1-8-2-12-2z" horiz-adv-x="1000" />

<glyph glyph-name="check" unicode="&#xe81b;" d="M319-121l-11 20c-82 145-299 452-302 455l-6 9 82 84 234-170c147 198 284 333 373 413 99 88 161 127 164 129l3 2h144l-24-23c-309-286-643-893-647-899l-10-20z" horiz-adv-x="1000" />
</font>
</defs>
</svg>
