<svg xmlns="http://www.w3.org/2000/svg" xmlns:xlink="http://www.w3.org/1999/xlink" version="1.1"><metadata>Created by FontForge 20170731 at Tue Feb 19 07:27:10 2019 By root</metadata><defs><font id="Flaticon" horiz-adv-x="512"><font-face ascent="448" bbox="-0.000970248 -64 512 448" descent="-64" font-family="Flaticon" font-stretch="normal" font-weight="400" panose-1="2 0 5 3 0 0 0 0 0 0" underline-position="-51.2" underline-thickness="25.6" unicode-range="U+0020-F131" units-per-em="512"/><glyph glyph-name="space" horiz-adv-x="200"/><glyph d="M437 86c41.3672 0 75 -33.6475 75 -75s-33.6328 -75 -75 -75s-75 33.6475 -75 75s33.6328 75 75 75zM452 -3.92676l-0.0878906 15.0742h0.0878906l-0.146484 15l-30 -0.220703l0.146484 -30zM75 86c41.3672 0 75 -33.6475 75 -75s-33.6328 -75 -75 -75 s-75 33.6475 -75 75s33.6328 75 75 75zM90 -4v30h-30v-30h30zM178.451 26c-3.40234 23.3086 -14.085 44.2578 -30.2012 60h215.5c-16.1172 -15.7422 -26.7988 -36.6914 -30.2012 -60h-155.098zM178.451 -4h155.098c3.40234 -23.3086 14.084 -44.2578 30.2012 -60h-215.5 c16.1172 15.7422 26.7988 36.6914 30.2012 60zM467 448c24.8145 0 45 -20.1855 45 -45v-30c0 -74.4434 -60.5566 -135 -135 -135h-60c-19.5303 0 -36.0244 12.5781 -42.2393 30h-63.7607v30h63.7607c6.21484 17.4219 22.709 30 42.2393 30h60c24.8145 0 45 20.1855 45 45v30 c0 24.8145 20.1855 45 45 45zM449.85 225.181l1.08105 -109.181h-126.071l19.9062 92h32.2344c26.1689 0 50.8447 6.28809 72.8496 17.1807z" glyph-name="038-treadmill" unicode=""/><glyph d="M240.008 295.996v29.999h180.995v-130.821l-120.938 -17.0635c0.321289 -92.9854 -71.2188 -140.27 -121.872 -149.527c-9.49121 -1.74219 -18.9834 -2.59277 -28.3291 -2.59277c-32.7744 0 -63.7959 11.0361 -89.8506 30.7988v-45.7842 c0 -24.8135 20.1846 -44.999 44.998 -44.999c46.3564 0 42.5908 -2.69824 76.082 23.6279c25.7803 20.3164 46.1709 36.3701 90.1729 36.3701h13.7402c24.8135 0 44.998 -20.1846 44.998 -44.998s-20.1846 -44.999 -44.998 -44.999h-179.995 c-41.3652 0 -74.998 33.6465 -74.998 74.998v75.3145c-23.9453 31.832 -34.3379 71.541 -28.3574 112.312c10.6924 72.6104 77.1367 127.364 154.624 127.364h53.7285v-29.999h29.999zM199.638 -33.9346c-0.0283203 -0.015625 -0.0585938 -0.0439453 -0.0878906 -0.0595703 h85.457c8.26172 0 14.999 6.72363 14.999 15c0 8.27539 -6.7373 14.999 -14.999 14.999h-13.7402c-33.6318 0 -47.1084 -10.6338 -71.6289 -29.9395zM150.011 116.002c33.0752 0 59.998 26.9082 59.998 59.998s-26.9229 59.998 -59.998 59.998 s-59.998 -26.9082 -59.998 -59.998s26.9229 -59.998 59.998 -59.998zM150.011 205.999c16.5527 0 29.999 -13.4619 29.999 -29.999s-13.4463 -29.999 -29.999 -29.999s-29.999 13.4619 -29.999 29.999s13.4463 29.999 29.999 29.999zM451.002 325.995h60.998v-118.019 l-60.998 -8.53516v126.554zM210.009 387.994v59.998h29.999v-59.998h-29.999zM109.406 422.389l21.21 21.2109l44.998 -44.999l-21.21 -21.21zM274.4 398.602l44.998 44.998l21.21 -21.21l-44.998 -44.999z" glyph-name="040-whistle" unicode=""/><glyph d="M413.503 448c52.9717 0 94.8945 -45.7285 89.5322 -99.2285c-4.54102 -45.293 -45.7617 -80.7715 -93.8096 -80.7715h-25.7227v-15c0 -24.8145 -20.1855 -45 -45 -45h-90c-8.26172 0 -15 -6.72363 -15 -15v-15h30v-62h-90v62h30v15c0 24.8145 20.1865 45 45 45h90 c8.26172 0 15 6.72363 15 15v15h-30c-33.0762 0 -60 26.9092 -60 60s26.9238 60 60 60s60 -26.9092 60 -60v-30h25.7227c32.8418 0 60.9375 23.6143 63.9844 53.7598c3.61035 36.6572 -25.1494 66.2402 -59.707 66.2402h-285c-24.8135 0 -45 -20.1855 -45 -45v-195h30v-62 h-90v62h30v195c0 41.3525 33.6328 75 75 75h285zM353.503 298v30c0 16.5381 -13.4473 30 -30 30s-30 -13.4619 -30 -30s13.4473 -30 30 -30h30zM265.891 86c0.810547 -5.49023 12.6982 -83.9824 12.6123 -89.5312c0 -33.5596 -26.9238 -60.4688 -60 -60.4688 s-60 26.9092 -60 60c-0.0839844 6.06445 11.7324 84.001 12.6162 90h94.7715zM115.891 86c0.810547 -5.49023 12.6982 -83.9824 12.6123 -89.5312c0 -33.5596 -26.9238 -60.4688 -60 -60.4688s-60 26.9092 -60 60c-0.0839844 6.06445 11.7324 84.001 12.6162 90h94.7715z" glyph-name="024-jumping-rope" unicode=""/><glyph d="M151 267v90h30v-90h-30zM331 267v90h30v-90h-30zM241 297v120h30v-120h-30zM256 207c111.255 0 204.547 -65.0186 222.496 -150h-444.991c17.9482 84.9814 111.24 150 222.495 150zM467 27c24.8506 0 45 -20.1475 45 -45v-15h-512v15c0 24.8525 21.1494 45 46 45h421z" glyph-name="013-balance" unicode=""/><glyph d="M256 101c24.8145 0 45 -20.1855 45 -45s-20.1855 -45 -45 -45s-45 20.1855 -45 45s20.1855 45 45 45zM256 176c66.1816 0 120 -53.833 120 -120s-53.8184 -120 -120 -120s-120 53.833 -120 120s53.8184 120 120 120zM256 -19c41.3672 0 75 33.6475 75 75 s-33.6328 75 -75 75s-75 -33.6475 -75 -75s33.6328 -75 75 -75zM238.327 363.438l-64.8311 -86.4424l-127.496 171.004h127.324zM196 193.285v43.7148h120v-43.7148c-18.4062 8.08105 -38.6465 12.7148 -60 12.7148s-41.5938 -4.63477 -60 -12.7148zM331 267h-127.5l135 181 h127.5z" glyph-name="037-medal" unicode=""/><glyph d="M422 252v-60h-332v60c0 33.1377 26.8652 60 60 60h212c33.1348 0 60 -26.8623 60 -60zM452 252h60v-180h-129.258l-15 30h-223.484l-15 -30h-129.258v180h60v-90h392v90z" glyph-name="026-gym" unicode=""/><glyph d="M422 116c49.6289 0 90 -40.3711 90 -90s-40.3711 -90 -90 -90s-90 40.3711 -90 90s40.3711 90 90 90zM467 11v30h-30v30h-30v-60h60zM60 418v30h30v-30h-30zM120 418v30h30v-30h-30zM181 418v30h30v-30h-30zM241 418v30h30v-30h-30zM302 418v30h30v-30h-30zM362 418v30 h30v-30h-30zM452 418v-90h-452v90h60v-60h30v60h30v-60h30v60h31v-60h30v60h30v-60h30v60h31v-60h30v60h30v-60h30v60h60zM422 146c-66.1816 0 -120 -53.833 -120 -120c0 -10.4189 1.75391 -20.3535 4.2627 -30h-306.263v302h452v-156.259 c-9.64648 2.50684 -19.5781 4.25879 -30 4.25879zM302 267v-90h90v90h-90zM150 56v90h-90v-90h90zM150 177v90h-90v-90h90zM271 56v90h-90v-90h90zM271 177v90h-90v-90h90zM90 86v30h30v-30h-30zM332 207v30h30v-30h-30zM211 207v30h30v-30h-30zM90 207v30h30v-30h-30z M211 86v30h30v-30h-30z" glyph-name="008-calendar" unicode=""/><glyph d="M341.237 448c33.1348 0 60 -26.8633 60 -60s-26.8652 -60 -60 -60h-180v15c0 19.5303 12.5762 36.0244 30 42.2373v62.7627h150zM341.237 358c16.5674 0 30 13.4307 30 30s-13.4336 30 -30 30h-60v-32.7627c12.6953 -4.52832 22.6748 -14.5957 27.2305 -27.2373h32.7695z M349.03 183.211c-11.1914 -19.1748 -11.1914 -19.1748 1.99121 -43.8291c7.25098 -13.5518 9.62305 -32.3018 9.35938 -52.3828h-248.496c-0.0878906 19.957 2.31836 38.7656 9.88867 52.8516c12.7432 23.7754 12.7432 23.7754 2.05078 42.4668 c-4.75977 8.33203 -8.27246 16.2432 -10.583 24.6826h244.899c-1.91895 -8.48926 -4.81836 -16.4277 -9.11035 -23.7891zM133.347 -32.5938c-4.94336 15.5723 -15.2129 52.5811 -19.5957 89.5938h244.563c-5.21973 -43.8916 -18.2568 -86.6914 -19.1865 -89.6084 c-5.91797 -18.7646 -23.1738 -31.3916 -42.8906 -31.3916c-11.5654 0 -22.0205 4.50781 -30 11.7041c-7.98047 -7.19629 -18.4355 -11.7041 -30 -11.7041c-11.5654 0 -22.0205 4.50781 -30 11.7041c-7.98047 -7.19629 -18.4355 -11.7041 -30 -11.7041 c-19.7158 0 -36.9727 12.627 -42.8906 31.4062zM359.387 243.354c0.205078 -2.10742 0.373047 -4.22559 0.504883 -6.35352h-249.13c0.286133 3.41895 0.766602 7.12305 1.40332 10.9834c4.69922 28.5039 30.125 50.0166 59.0186 50.0166h128.371 c30.6963 0 56.8223 -24.1006 59.832 -54.6465z" glyph-name="032-bottle" unicode=""/><glyph d="M253.895 142.807c27.2314 -30.5918 65.5518 -51.0293 108.666 -54.7939c-46.5908 -62.0684 -113.406 -104.116 -198.674 -121.243c-40.3418 18.5264 -163.887 143.064 -163.887 327.612c0 30.6182 0.467773 67.2305 37.5303 98.3496 c23.7891 20.0098 55.1943 28.2715 86.3955 22.8955c43.4473 -7.63184 78.3691 -43.5352 84.873 -87.3047c4.74609 -31.875 -5.21484 -63.75 -26.3379 -86.9092c14.5312 -14.9707 24.2295 -36.2412 26.8359 -59.9707c1.98535 -18.0156 -0.387695 -35.9385 -6.50391 -52.7119 c17.168 2.14355 35.6328 6.97949 51.1016 14.0762zM377 387.282c74.4434 0 135 -60.5576 135 -135c0 -74.4434 -60.5566 -135 -135 -135s-135 60.5566 -135 135c0 74.4424 60.5566 135 135 135zM417.488 233.003c6.12891 12.7998 5.90137 26.2324 0 38.5576l23.1445 23.1436 l-21.2109 21.2109l-23.1445 -23.1426c-12.8857 6.16406 -26.3105 5.8584 -38.5557 0l-23.1445 23.1426l-21.2109 -21.2109l23.1445 -23.1436c-6.12793 -12.7998 -5.90137 -26.2314 0 -38.5576l-23.1445 -23.1426l21.2109 -21.2109l23.1445 23.1426 c12.8857 -6.16504 26.3096 -5.85938 38.5557 0l23.1445 -23.1426l21.2109 21.2109zM377 267.282c8.26172 0 15 -6.72461 15 -15c0 -8.27637 -6.73828 -15 -15 -15s-15 6.72363 -15 15c0 8.27539 6.73828 15 15 15z" glyph-name="027-fitness-2" unicode=""/><glyph d="M0 179.319h57.543c6.6582 -10.0381 14.7803 -20.0107 23.6787 -30h-81.2217v30zM454.457 179.319h57.543v-30h-81.2217c8.89844 9.98926 17.0205 19.9619 23.6787 30zM166 301.751l-40.8105 -122.432h-67.6465c-17.0215 25.6426 -26.543 52.0078 -26.543 82.0605 c0 60.8203 41.9824 114.887 97.6465 125.771c50.4199 9.75586 96.415 -16.2168 127.354 -70.415c30.9961 54.3896 77.1973 80.5225 127.705 70.6348c56.3672 -11.0146 97.2949 -64.0127 97.2949 -125.991c0 -30.0527 -9.52148 -56.4189 -26.542 -82.0605h-93.75 l-43.9746 97.7197l-40.7236 -97.7197h-43.0371l-17.4316 -26.1621zM317.787 201.599l23.5264 -52.2793h89.4648c-27.7451 -31.1504 -65.4199 -62.8936 -110.706 -100.664c-17.0801 -14.2383 -64.0723 -54.082 -64.0723 -54.082s-46.9922 39.8438 -64.0723 54.082 c-45.2861 37.7705 -82.9619 69.5137 -110.706 100.664h65.5889l19.1895 57.5674l40.459 -121.405l42.5684 63.8379h46.9629z" glyph-name="014-heart-beat" unicode=""/><glyph d="M422 237v-210.999h-211.999v210.999h211.999zM271 116.001v30h-29.999v-30h29.999zM331 86.001v30h-30v-30h30zM331 146.001v30h-30v-30h30zM391 56.001v30h-30v-30h30zM391 116.001v30h-30v-30h30zM391 176.001v29.999h-30v-29.999h30zM180.001 104.535 c-22.0107 25.1943 -53.9863 41.4658 -90 41.4658s-67.9912 -16.2715 -90 -41.4658v253.465c0 49.7061 40.2939 90 90 90s90 -40.2939 90 -90v-253.465zM90.001 41.001c8.26074 0 15 -6.72461 15 -15c0 -8.27637 -6.73828 -15 -15 -15s-15 6.72363 -15 15 c0 8.27539 6.73828 15 15 15zM210.001 327h301.999v-390.999h-343.575c17.7939 15.6807 31.1611 36.3232 37.3125 60h246.263v270.999h-241.999v60zM178.315 43.6357c12.085 -63.3037 -42.6484 -118.036 -105.951 -105.949 c-35.1797 6.71875 -63.959 35.4971 -70.6797 70.6797c-12.085 63.3027 42.6494 118.034 105.952 105.948c35.1787 -6.71777 63.959 -35.4971 70.6787 -70.6787zM90.001 -18.999c24.8135 0 45 20.1855 45 45c0 24.8135 -20.1865 45 -45 45c-24.8145 0 -45 -20.1865 -45 -45 c0 -24.8145 20.1855 -45 45 -45z" glyph-name="001-mattress" unicode=""/><glyph d="M356.17 273.35c-14.2969 7.54688 -24.1699 22.3906 -24.1699 39.6504c0 24.8145 20.1855 45 45 45s45 20.1855 45 45s20.1855 45 45 45s45 -20.1855 45 -45c0 -60.542 -40.3164 -111.29 -95.3184 -128.36l-9.2207 -65.5449l-57.3408 20.8926zM60 328 c-33.0762 0 -60 26.9092 -60 60s26.9238 60 60 60c5.71289 0 11.3672 -0.805664 16.8164 -2.40234l100.811 -29.3994c19.043 -5.55176 32.373 -23.3203 32.373 -43.1982c0 -24.8145 -20.1855 -45 -45 -45h-35.6982l6.00586 -31.0273 c-0.102539 0 -0.205078 0.0273438 -0.307617 0.0273438c-20.4863 0 -40.0342 -3.92578 -58.1475 -10.7832l-8.14453 41.7832h-8.70801zM135 87c-24.8145 0 -45 20.1855 -45 45s20.1855 45 45 45s45 -20.1855 45 -45c0 -6.92676 -1.70312 -13.4121 -4.51172 -19.2793 l-29.8828 29.8857l-21.2119 -21.2119l29.8838 -29.8848c-5.86621 -2.80664 -12.3486 -4.50977 -19.2773 -4.50977zM105 27c-57.9785 0 -104.974 46.9629 -105 104.941v0.0585938c0 74.4434 60.5566 135 135 135c15.8789 0 31.4316 -2.74805 46.2266 -8.13867 l241.564 -87.2812c35.4199 -12.8906 59.209 -46.8896 59.209 -84.5801c0 -33.1367 -26.8652 -60 -60 -60h-317zM392 87v-30h30v30h-30zM332 87v-30h30v30h-30zM270 87v-30h30v30h-30zM135 207c-41.3672 0 -75 -33.6475 -75 -75s33.6328 -75 75 -75 c15.2637 0 29.4404 4.63379 41.2939 12.4932l12.4951 -12.4932h51.2109v30h-38.7891l-3.70605 3.7041c7.85938 11.8574 12.4951 26.0361 12.4951 41.2959c0 41.3525 -33.6328 75 -75 75zM467 -4c24.8506 0 44.9932 -20.1289 45 -45v-15h-512v15c0 24.8525 20.1494 45 45 45 h422z" glyph-name="034-stationary-bike" unicode=""/><glyph d="M106 388v60h300v-60h-300zM406 358v-271h-300v271h300zM254.125 144.671c54.6973 43.6719 90 64.7344 90 101.631c0 24.917 -17.4609 46.626 -41.5137 51.6367c-14.9414 3.0752 -33.6621 -0.483398 -48.4863 -16.8311c-14.8242 16.3037 -33.5449 19.834 -48.3398 16.7578 c-24.1406 -5.02539 -41.6602 -26.7051 -41.6602 -51.5635c0 -36.75 34.8535 -57.5996 90 -101.631zM296.488 268.567c8.75977 -1.81641 17.6367 -10.0488 17.6367 -22.2666c0 -20.832 -43.0742 -49.9668 -60 -63.2959c-16.9258 13.3291 -60 42.4639 -60 63.2959 c0 12.877 10.7754 22.6035 21.6797 22.6035c9.69727 0 18.4863 -7.66113 24.5801 -21.6211l13.7402 -31.582l13.7402 31.582c6.94238 15.8643 17.4014 23.6279 28.623 21.2842zM106 57h300v-121h-300v121zM271 -4v30h-30v-30h30z" glyph-name="020-smartphone" unicode=""/><glyph d="M391.006 251.996c66.1787 0 120.994 -60.5527 120.994 -134.993c0 -74.7324 -54.5225 -164.992 -120.994 -164.992c-15.292 0 -30.4082 3.42871 -44.998 10.21c-14.5889 -6.78125 -29.7051 -10.21 -44.9971 -10.21c-66.4727 0 -119.994 90.2598 -119.994 164.992 c0 74.4395 53.8145 134.993 119.994 134.993c12.2383 0 24.2891 -2.80176 36.1211 -7.15723c8.79883 25.9639 26.9805 47.9805 51.9111 60.4463l10.2539 5.12695l13.417 -26.835l-10.2539 -5.12695c-12.8457 -6.42285 -22.9814 -16.5771 -30.2256 -28.5664 c6.22656 1.16113 12.4658 2.1123 18.7715 2.1123zM151.018 117.003c0 -25.0039 4.95508 -50.6992 13.5859 -74.9951h-138.61l-17.0908 256.425l36.5068 30.0098c27.5967 22.6758 67.6426 22.6758 95.2393 0l31.6973 -26.0723 c28.9434 -23.7881 68.7275 -30.3506 103.706 -17.1377c5.9248 2.23535 11.4463 5.11719 16.7598 8.28809l-0.801758 -12.0273c-78.5049 -5.16309 -140.992 -76.8545 -140.992 -164.49zM61.0225 221.998v-29.999h29.998v29.999h-29.998zM91.0205 72.0049v29.999h-29.998 v-29.999h29.998zM121.02 132.002v29.999h-29.999v-29.999h29.999zM177.713 12.0078c12.1875 -23.3936 27.9043 -44.3281 46.6611 -59.9971h-192.384l-3.99902 59.9971h149.722zM159.689 351.615c-38.6699 31.7568 -94.7129 31.7568 -133.324 0.00195312l-19.917 -16.375 l-6.44824 96.7471h302.036l-6.44824 -96.7793c-8.30957 -9.62793 -18.2188 -17.4141 -30.1133 -21.8975c-24.9883 -9.44824 -53.376 -4.76074 -74.0879 12.2305z" glyph-name="033-juice" unicode=""/><glyph d="M331.029 176.997h-38.7959l-30.0127 30.0127h68.8086v-30.0127zM436.395 372.384c49.7373 -49.7295 75.6055 -114.055 75.6055 -179.379c0 -65.0996 -25.4805 -125.247 -65.501 -170.268l-124.254 124.248h98.8213v90.0361h-30.0117v15.0059 c0 24.8242 -20.1943 45.0186 -45.0186 45.0186h-60.0234c-8.26562 0 -15.0059 6.72656 -15.0059 15.0059s6.74023 15.0059 15.0059 15.0059h15.0059v30.0117h-15.0059c-24.8242 0 -45.0186 -20.1934 -45.0186 -45.0176s20.1943 -45.0186 45.0186 -45.0186h60.0234 c8.26562 0 15.0068 -6.72656 15.0068 -15.0059v-15.0059h-128.834l-145.478 145.476c45.0068 39.999 104.144 65.4697 169.268 65.4697c65.3301 0 130.659 -25.8613 180.396 -75.583zM361.042 176.997v30.0127h30.0117v-30.0127h-30.0117zM90.9336 146.985v0.000976562 h188.871l145.474 -145.468c-45.0098 -40.0049 -104.151 -65.4854 -169.279 -65.4854c-140.999 0 -255.999 114.856 -255.999 255.971c0 65.1064 25.4844 124.26 65.5078 169.275l124.261 -124.258h-98.835v-90.0361zM210.981 207.01h8.80078l30.0117 -30.0127h-38.8125 v30.0127zM120.945 176.997v30.0127h60.0244v-30.0127h-60.0244z" glyph-name="044-no-smoking" unicode=""/><glyph d="M296.488 238.567c8.75977 -1.81641 17.6367 -10.0488 17.6367 -22.2656c0 -20.832 -43.0742 -49.9658 -60 -63.2959c-16.9258 13.3301 -60 42.4639 -60 63.2959c0 12.0117 9.14062 20.4053 17.7539 22.1924c1.31934 0.27832 2.63672 0.410156 3.92578 0.410156 c9.69727 0 18.4863 -7.66113 24.5801 -21.6211l13.7402 -31.582l13.7402 31.582c6.94238 15.8643 17.4014 23.5684 28.623 21.2842zM346 357c24.8145 0 45 -20.1855 45 -45v-240c0 -24.8145 -20.1855 -45 -45 -45h-180c-24.8145 0 -45 20.1855 -45 45v240 c0 24.8145 20.1855 45 45 45h180zM254.125 114.671c54.6973 43.6719 90 64.7354 90 101.631c0 24.917 -17.4609 46.626 -41.5137 51.6367c-14.9707 3.0752 -33.6621 -0.498047 -48.4863 -16.8311c-14.8242 16.2891 -33.5449 19.8779 -48.3398 16.7578 c-24.1406 -5.02539 -41.6602 -26.7051 -41.6602 -51.5635c0 -36.7529 34.8486 -57.5938 90 -101.631zM484.93 306.287c17.959 -35.6836 27.0703 -74.1357 27.0703 -114.287s-9.11133 -78.6035 -27.0713 -114.288l-26.7764 13.4775 c15.8203 31.4648 23.8477 65.376 23.8477 100.811s-8.02734 69.3457 -23.8467 100.81zM27.0703 306.287l26.7773 -13.4766c-15.8203 -31.4648 -23.8477 -65.376 -23.8477 -100.811s8.02734 -69.3457 23.8467 -100.81l-26.7764 -13.4775 c-17.959 35.6836 -27.0703 74.1357 -27.0703 114.287s9.11133 78.6035 27.0703 114.287zM417.518 230.35l29.1797 6.94336c3.51562 -14.7803 5.30273 -30.0146 5.30273 -45.293s-1.78711 -30.5127 -5.30176 -45.293l-29.1807 6.94336 c2.95898 12.5098 4.48242 25.415 4.48242 38.3496s-1.52344 25.8398 -4.48242 38.3496zM65.3027 237.293l29.1797 -6.94336c-2.95898 -12.5098 -4.48242 -25.415 -4.48242 -38.3496s1.52344 -25.8398 4.4834 -38.3496l-29.1807 -6.94336 c-3.51562 14.7803 -5.30273 30.0146 -5.30273 45.293s1.78711 30.5127 5.30273 45.293zM178.543 -44.0654l-13.3604 41.0654h181.635l-20.0078 -61h-141.619zM326.811 448l20.0068 -61h-181.635l20.0068 61h141.621z" glyph-name="009-smartwatch" unicode=""/><glyph d="M31 -4h261.131l8.56934 -60h-224.7c-24.8145 0 -45 20.1855 -45 45v15zM301 147h180l-6.43066 -45h-167.139zM331 -64l-19.2852 136h158.57l-19.2852 -136h-120zM61 387v61h270v-61h-270zM301 325.482c29.3477 -5.98047 52.5039 -29.1396 58.4844 -58.4824h-326.969 c5.98047 29.3428 29.1367 52.502 58.4844 58.4824v31.5176h210v-31.5176zM266.43 177l21.4189 -151h-256.849v211h330v-60h-94.5703zM209.916 51.4336l38.2324 95.5664h-60l21.7676 54.4326l-27.832 11.1338l-38.2324 -95.5664h60l-21.7676 -54.4326z" glyph-name="015-proteins" unicode=""/><glyph d="M271 56v301h210v-301h-210zM301 327v-30h120v30h-120zM301 267v-30h120v30h-120zM301 177v-30h30v30h-30zM31 26h210v-60h-180v-30h-30v90zM31 387v61h450v-61h-450zM241 357v-301h-210v301h210zM121 147v30h-30v-30h30zM211 237v30h-120v-30h120zM211 297v30h-120v-30 h120zM271 -34v60h210v-90h-30v30h-180zM241 -64v30h30v-30h-30z" glyph-name="010-lockers" unicode=""/><glyph d="M467 146c24.8145 0 45 -20.1855 45 -45v-45h-90v-90h30v-30h-90v30h30v30h-120v-30h30v-30h-90v30h30v30h-152v-30h30v-30h-90v30h30v90h-60v45c0 24.8145 20.1855 45 45 45h167v93.5156c-50.75 7.35742 -90 50.7295 -90 103.484c0 57.8906 47.1094 105 105 105 c26.3232 0 51.1816 -9.81055 70.2246 -26.9824c-7.17383 -10.0625 -12.8428 -21.2158 -17.1123 -33.0186h-53.1123c-24.8145 0 -45 -20.1855 -45 -45s20.1855 -45 45 -45h53.1123c4.26953 -11.8027 9.93848 -22.9561 17.1123 -33.0186 c-15.3623 -13.8506 -34.5771 -22.6016 -55.2246 -25.5879v-93.3926h150v93.5156c-50.75 7.35742 -90 50.7295 -90 103.484c0 57.8906 47.1094 105 105 105s105 -47.1094 105 -105c0 -52.7549 -39.25 -96.127 -90 -103.484v-93.5156h45zM362 343 c0 -24.8145 20.1855 -45 45 -45s45 20.1855 45 45s-20.1855 45 -45 45s-45 -20.1855 -45 -45zM90 26h152v30h-152v-30zM392 26v30h-120v-30h120zM422 343c0 -8.27637 -6.73828 -15 -15 -15s-15 6.72363 -15 15s6.73828 15 15 15s15 -6.72363 15 -15zM227 358h46.2158 c-0.571289 -4.95508 -1.21582 -9.88965 -1.21582 -15s0.644531 -10.0449 1.21582 -15h-46.2158c-8.26172 0 -15 6.72363 -15 15s6.73828 15 15 15z" glyph-name="030-dumbbells-1" unicode=""/><glyph d="M389.484 177h-28.4844v-30h28.4854c-2.91504 -25.9092 -12.9863 -49.4287 -28.4775 -68.7979l-20.1641 20.1504l-21.2109 -21.2109l20.1602 -20.1504c-19.3691 -15.4912 -42.8867 -25.5605 -68.793 -28.4756v28.4844h-30v-28.4844 c-25.9092 2.91504 -49.4307 12.9854 -68.7959 28.4785l20.1641 20.1465l-21.2109 21.2109l-20.1641 -20.1465c-15.4912 19.3682 -25.5625 42.8867 -28.4775 68.7949h28.4844v30h-28.4854c2.91504 25.9082 12.9863 49.4277 28.4775 68.7949l20.1641 -20.1465l21.2109 21.2109 l-20.1641 20.1465c19.3652 15.4922 42.8867 25.5635 68.7959 28.4785v-28.4844h30v28.4844c25.9062 -2.91504 49.4238 -12.9844 68.793 -28.4756l-20.1602 -20.1504l21.2109 -21.2109l20.1641 20.1504c15.4912 -19.3691 25.5625 -42.8887 28.4775 -68.7979zM331 147v30h-60 v60h-30v-90h90zM446.327 331.103l-21.127 -21.1279c35.9551 -41.0068 55.7998 -92.917 55.7998 -147.975c0 -60.1025 -23.4082 -116.616 -65.8887 -159.097c-42.5391 -42.4951 -99.0234 -66.9033 -159.111 -66.9033s-116.572 24.4082 -159.111 66.9033 c-42.4805 42.4805 -65.8887 98.9941 -65.8887 159.097c0 55.0576 19.8447 106.968 55.7998 147.975l-21.127 21.1279c-9.36426 -10.5137 -18.1455 -21.5107 -25.6201 -33.3262l-25.3711 16.0244c11.3086 17.9014 24.7266 34.6445 39.8145 49.7168 c15.1172 15.1328 31.8457 28.5215 49.7168 39.8008l15.9961 -25.3711c-11.7881 -7.45215 -22.793 -16.2432 -33.3291 -25.6309l21.1338 -21.1348c29.6455 25.9775 64.8857 43.6045 102.986 51.3047v35.5137h-30v30h150v-30h-30v-35.5137 c38.1006 -7.69922 73.3408 -25.3271 102.986 -51.3047l21.1338 21.1348c-10.5361 9.3877 -21.541 18.1787 -33.3291 25.6309l15.9961 25.3711c17.8711 -11.2793 34.5996 -24.668 49.7168 -39.8008c15.0869 -15.0723 28.5049 -31.8164 39.8145 -49.7168l-25.3711 -16.0244 c-7.47461 11.8154 -16.2559 22.8125 -25.6201 33.3262zM256 -3c90.9668 0 165 74.0186 165 165s-74.0332 165 -165 165s-165 -74.0186 -165 -165s74.0332 -165 165 -165z" glyph-name="036-timer" unicode=""/><glyph d="M480.475 -33.9902h31.5146v-29.999h-511.979v29.999h31.5137c5.97949 29.3418 29.1348 52.5 58.4814 58.4795v182.51h60.998v-180.992h74.9961v60.998h-44.998v44.998c0 8.28516 6.71289 14.999 15 14.999h44.998v89.9961h-162.478l-21.6787 -43.416 c-7.22461 -14.5098 -25.0615 -21.0137 -40.2529 -13.418c-14.8223 7.41211 -20.8281 25.4307 -13.417 40.2529l29.999 59.9971c5.12695 10.2246 15.4092 16.5811 26.835 16.5811h180.992v60.998h-15v59.9971h59.998v-59.9971h-15v-60.998h180.992 c11.4258 0 21.708 -6.35742 26.8643 -16.5957l29.9697 -59.9824c7.41016 -14.8223 1.40527 -32.8418 -13.418 -40.2529c-14.7646 -7.38184 -32.7568 -1.50684 -40.2812 13.4326l-21.6484 43.4014h-162.478v-89.9961h44.998c8.28418 0 15 -6.71387 15 -14.999v-44.998 h-44.998v-60.998h74.9961v180.992h60.998v-182.51c29.3467 -5.97949 52.501 -29.1377 58.4814 -58.4795zM360.995 326.994v30.999h-44.998v59.9971h44.998v29.999h60.998v-120.995h-60.998zM151.005 357.993v-30.999h-60.998v120.995h60.998v-29.999h44.998v-59.9971 h-44.998z" glyph-name="028-weightlifting" unicode=""/><glyph d="M122.001 237.021c2.55664 17.7568 9.78613 33.9375 20.084 47.6807l47.6846 -47.6807h-67.7686zM286.012 327.058c52.8135 0 96.6602 -39.2002 103.987 -90.0361h-157.79l-68.8096 68.8057c17.5371 13.1318 39.0498 21.2305 62.5879 21.2305h60.0244zM421.065 192.004 c0 -8.2793 -6.74023 -15.0068 -15.0049 -15.0068h-113.827l-30.0127 30.0127h143.839c8.26562 0 15.0059 -6.72656 15.0059 -15.0059zM436.395 372.384c49.7373 -49.7295 75.6055 -115.055 75.6045 -180.38c0 -65.0996 -25.4805 -124.25 -65.501 -169.269l-61.0498 61.0469 c18.666 16.585 31.1621 39.5439 34.3389 65.5703c18.0869 5.8457 31.29 22.6436 31.29 42.6514c0 20.0068 -13.2031 36.8057 -31.2861 42.6504c-6.48438 68.4766 -63.6367 122.415 -133.779 122.415h-60.0244c-31.8213 0 -60.7188 -11.5215 -83.8291 -30.0029 l-55.4307 55.4287c45.0107 39.999 104.147 65.4717 169.271 65.4717c65.3301 0 130.659 -25.8613 180.396 -75.583zM316.023 56.9492c15.7178 0 30.4961 3.71191 43.8965 9.92578l65.3584 -65.3555c-45.0098 -40.0059 -104.151 -65.4863 -169.279 -65.4863 c-140.999 0 -255.999 114.856 -255.999 255.971c0 65.1064 25.4805 124.258 65.5078 169.273l55.4297 -55.4307c-15.9658 -19.9668 -26.1865 -44.3496 -28.7295 -71.1924c-18.083 -5.84473 -31.2861 -22.6436 -31.2861 -42.6504c0 -20.0078 13.2031 -36.8057 31.29 -42.6514 c6.33008 -51.9062 50.1797 -92.4033 103.764 -92.4033h120.048zM90.9336 192.004c0 8.28027 6.74121 15.0059 15.0059 15.0059h113.842l30.0117 -30.0127h-143.854c-8.26562 0 -15.0059 6.72754 -15.0059 15.0068zM389.559 146.985 c-3.4209 -16.7842 -12.5215 -31.4971 -25.1289 -42.1836l-42.1855 42.1836h67.3145zM122.441 146.985h157.365l56.8555 -56.8525c-6.59082 -1.89941 -13.4453 -3.1709 -20.6377 -3.1709h-120.048c-36.2256 0 -66.5596 25.8213 -73.5352 60.0234z" glyph-name="050-no-fast-food" unicode=""/><glyph d="M90 -64v60h31v-60h-31zM256 26c-8.26172 0 -15 6.72363 -15 15s6.73828 15 15 15s15 -6.72363 15 -15s-6.73828 -15 -15 -15zM151 -64v270h210v-270h-210zM211 146v-30h90v30h-90zM256 86c-24.8145 0 -45 -20.1855 -45 -45s20.1855 -45 45 -45s45 20.1855 45 45 s-20.1855 45 -45 45zM90 26v90h31v-90h-31zM90 146v60h31v-60h-31zM391 146v60h31v-60h-31zM391 -64v60h31v-60h-31zM467 206c24.8145 0 45 -20.1855 45 -45v-180c0 -24.8145 -20.1855 -45 -45 -45h-15v270h15zM0 161c0 24.8145 20.1855 45 45 45h15v-270h-15 c-24.8145 0 -45 20.1855 -45 45v180zM391 26v90h31v-90h-31zM256 448c75.7031 0 135 -94.2412 135 -212h-30c0 97.5732 -48.0762 182 -105 182s-105 -84.4268 -105 -182h-30c0 117.759 59.2969 212 135 212z" glyph-name="012-bag" unicode=""/><glyph d="M422 87v240h89.8018l-0.519531 -240h-89.2822zM422 417h90l-0.131836 -60h-89.8682v60zM467 -64l-40.0889 121h80.9072zM90 27v30h30v-30h-30zM90 267v30h30v-30h-30zM120 387v61h152v-61h-152zM90 147v30h30v-30h-30zM302 357v60h90v-481h-392v481h90v-60h212zM150 -3 v90h-90v-90h90zM150 117v90h-90v-90h90zM150 237v90h-90v-90h90zM332 -3v30h-151v-30h151zM332 57v30h-151v-30h151zM332 117v30h-151v-30h151zM332 177v30h-151v-30h151zM332 237v30h-151v-30h151zM332 297v30h-151v-30h151z" glyph-name="005-clipboard" unicode=""/><glyph d="M467 448c24.8145 0 45 -20.1855 45 -45v-422c0 -24.8145 -20.1855 -45 -45 -45h-422c-24.8145 0 -45 20.1855 -45 45v422c0 24.8145 20.1855 45 45 45h422zM452 -4v332h-65.1934l7.53223 22.6025l-24.2871 12.1445c-71.4248 35.7129 -156.679 35.7129 -228.104 0 l-24.2871 -12.1445l7.5332 -22.6025h-65.1934v-332h392zM355.492 234.045l21.3135 63.9551h45.1943v-272h-151v180.396h-30v-180.396h-151v272h45.1943l21.3135 -63.9551l18.8672 6.27051c51.9434 17.3135 109.218 17.3281 161.279 -0.015625zM211 56v30h-90v-30h90z M211 116v30h-90v-30h90zM211 176v30h-90v-30h90zM391 56v30h-90v-30h90zM391 116v30h-90v-30h90zM391 176v30h-90v-30h90zM241 282.244c-22.1191 -1.15625 -44.165 -4.19238 -65.4492 -10.4502l-21.2109 63.6045l1.02539 0.512695c62.9883 31.5225 138.282 31.5225 201.27 0 l1.02539 -0.512695l-21.2109 -63.6045c-21.3066 6.25879 -43.3369 9.29297 -65.4492 10.4502v45.7559h-30v-45.7559z" glyph-name="018-scale" unicode=""/><glyph d="M135 87c16.5527 0 30 -13.4619 30 -30s-13.4473 -30 -30 -30s-30 13.4619 -30 30s13.4473 30 30 30zM120 238v-30h-30v150h90v-150h-30v30h-30zM437 298h75v-90h-30v-15c0 -19.5303 -12.5762 -36.0244 -30 -42.2373v-33.7627c0 -27.8799 -19.2002 -51.1621 -45 -57.8691 v-47.1309c0 -24.8145 -20.1855 -45 -45 -45h-92v-31h-270v512h270v-451h92c8.26172 0 15 6.72363 15 15v47.1309c-25.7998 6.70801 -45 29.9893 -45 57.8691v183.763c-17.4238 6.21289 -30 22.707 -30 42.2373v60c0 24.8145 20.1855 45 45 45h75v-90h-30v-15 c0 -19.5303 -12.5762 -36.0244 -30 -42.2373v-183.763c0 -16.5381 13.4473 -30 30 -30s30 13.4619 30 30v33.7627c-17.4238 6.21289 -30 22.707 -30 42.2373v60c0 24.8145 20.1855 45 45 45zM135 -3c33.0762 0 60 26.9092 60 60s-26.9238 60 -60 60s-60 -26.9092 -60 -60 s26.9238 -60 60 -60zM210 178v210h-150v-210h150z" glyph-name="043-mp3" unicode=""/><glyph d="M0 448h512v-30h-241v-30h30v-61h-90v61h30v30h-241v30zM256 -34c-17.9297 0 -45 60.8242 -45 151c0 64.7021 13.623 121.699 22.6172 159.434c1.86035 7.79297 3.42773 14.5273 4.73926 20.5664h35.2871c1.31152 -6.03809 2.87988 -12.7734 4.73926 -20.5664 c8.99414 -37.7344 22.6172 -94.7314 22.6172 -159.434c0 -90.1758 -27.0703 -151 -45 -151zM181 117c0 -89.4434 25.752 -181 75 -181c-90.9668 0 -165 75.0186 -165 166c0 36.0059 11.3965 70.21 32.9297 98.9355l72.0635 96.0645h11.6533 c-0.981445 -4.25098 -2 -8.57129 -3.20801 -13.6084c-9.31738 -39.082 -23.4385 -98.1592 -23.4385 -166.392zM316.007 297l72.0635 -96.0791c21.5332 -28.7109 32.9297 -62.915 32.9297 -98.9209c0 -90.9814 -74.0332 -166 -165 -166c49.248 0 75 91.5566 75 181 c0 68.2324 -14.1211 127.31 -23.4385 166.392c-1.20801 5.03711 -2.22656 9.35645 -3.20801 13.6084h11.6533z" glyph-name="035-punching-ball-1" unicode=""/><glyph d="M241 343c0 -37.2217 -19.834 -71.3965 -51.416 -90.1611c7.99805 -39.375 7.99805 -82.3027 0 -121.678c31.582 -18.7646 51.416 -52.9395 51.416 -90.1611c0 -57.8906 -47.1094 -105 -105 -105s-105 47.1094 -105 105c0 37.2217 19.834 71.3965 51.416 90.1611 c-7.99805 39.375 -7.99805 82.3027 0 121.678c-31.582 18.7646 -51.416 52.9395 -51.416 90.1611c0 57.8906 47.1094 105 105 105s105 -47.1094 105 -105zM429.584 131.161c31.582 -18.7646 51.416 -52.9395 51.416 -90.1611c0 -57.8906 -47.1094 -105 -105 -105 s-105 47.1094 -105 105c0 37.2217 19.834 71.3965 51.416 90.1611c-7.99805 39.375 -7.99805 82.3027 0 121.678c-31.582 18.7646 -51.416 52.9395 -51.416 90.1611c0 57.8906 47.1094 105 105 105s105 -47.1094 105 -105c0 -37.2217 -19.834 -71.3965 -51.416 -90.1611 c7.99805 -39.375 7.99805 -82.3027 0 -121.678z" glyph-name="023-dumbbells" unicode=""/><glyph d="M344.487 182h0.512695zM345 188.538l-24.1895 -72.5381h-271.838l-48.9727 84.5068v126.493h45v-90h30v211h45v-151h30v151h45v-151h30v151h45v-151h30v151h45v-259.462zM270 176v30h-120v-30h120zM60 86h75.3809c-9.51758 -12.5742 -15.3809 -28.0518 -15.3809 -45 s5.86328 -32.4258 15.3809 -45h-75.3809v90zM315 -4h-120c-24.8506 0 -45 20.1475 -45 45s20.1494 45 45 45h120v-90zM435 387h45v-258l-24.1885 -73h-110.812v37.7246l7.43359 22.2754h52.5664v30h-42.5566l12.5566 37.6289v203.371h30v-150h30v150zM345 -34v60h105v-90 h-120c-19.5635 0 -36.0498 12.5635 -42.2461 30h57.2461zM195 -34h61.7402c2.34277 -11.0596 7.02637 -21.2617 13.6406 -30h-75.3809v30z" glyph-name="046-gloves" unicode=""/><glyph d="M494.213 282.212c-46.9189 -49.1143 -127.72 -75.2119 -238.213 -75.2119c-126.929 0 -198.677 32.2061 -238.583 74.1982c7.91406 21.0938 18.4609 40.8506 31.3877 58.8779c30.3857 -48.2803 99.4189 -73.0762 207.195 -73.0762 c125.83 0 182.714 34.6777 207.385 72.8242c12.6348 -17.6709 22.9912 -36.998 30.8281 -57.6123zM256 297c-96.8262 0 -160.43 21.3281 -184.014 61.6699c-1.20117 2.05371 -1.80957 4.22656 -2.7832 6.32812c12.3047 13.2734 25.8984 25.292 40.7529 35.7168 c0.431641 -0.895508 0.760742 -1.99805 1.22949 -2.80176c20.6543 -35.5957 99.6094 -40.9131 144.814 -40.9131c35.4785 0 120.527 3.79395 143.643 38.9785c0.887695 1.34863 1.65918 3.06055 2.4541 4.69727c14.8027 -10.3926 28.3525 -22.3682 40.6201 -35.5918 c-0.984375 -2.12988 -1.48633 -4.34863 -2.70312 -6.42871c-23.584 -40.3271 -87.2168 -61.6553 -184.014 -61.6553zM6.04297 141.642c65.7236 -36.2002 149.341 -54.6416 249.957 -54.6416c112.709 0 192.942 23.5508 249.99 54.8525 c-5.77246 -28.8154 -16.6016 -55.7461 -31.2158 -80.1836c-63.0391 -22.9561 -136.281 -34.6689 -218.774 -34.6689s-155.713 11.6689 -218.741 34.6162c-14.6006 24.3926 -25.4336 51.2686 -31.2158 80.0254zM67.7422 20.6104 c56.4658 -15.5635 119.3 -23.6104 188.258 -23.6104c68.8369 0 131.689 7.91211 188.09 23.4248c-46.667 -51.1113 -113.595 -84.4248 -188.09 -84.4248c-74.583 0 -141.584 33.3896 -188.258 84.6104zM504.254 249.36c4.27051 -18.4688 7.74609 -37.6123 7.74609 -57.3604 c0 -4.14648 -0.424805 -8.18262 -0.623047 -12.2793c-63.6104 -41.0381 -150.619 -62.7207 -255.377 -62.7207c-105.71 0 -191.752 21.2422 -255.37 62.5557c-0.202148 4.15137 -0.629883 8.24414 -0.629883 12.4443c0 19.7656 3.4834 38.9277 7.75977 57.4131 c45.5352 -40.5801 121.437 -72.4131 248.24 -72.4131c128.035 0 203.635 32.8662 248.254 72.3604zM256 387c-60.1465 0 -110.127 10.9277 -118.857 25.9717c-0.387695 0.655273 -1.03516 1.8916 -1.08398 3.93164c35.7822 19.1602 76.5967 31.0967 119.941 31.0967 c43.3193 0 84.1113 -11.9277 119.879 -31.0684c-0.0517578 -2.27148 -0.791016 -3.68555 -1.31445 -4.4873c-9.69727 -14.7363 -59.5605 -25.4443 -118.564 -25.4443z" glyph-name="016-fitness" unicode=""/><glyph d="M422 448h90v-512h-512v422h90v-60h121v150h90v-60h121v60zM211 -34v302h-121v-302h121zM422 -34v392h-121v-392h121z" glyph-name="017-pull-up-bar" unicode=""/><glyph d="M255.473 267c-41.0742 0 -74.4727 33.4131 -74.4727 74.4873v91.5127c0 -41.3525 33.6328 -75 75 -75s75 33.6475 75 75v-90.3262c0 -41.7334 -33.8672 -75.6738 -75.5273 -75.6738zM181 57v90h150v-90h-150zM466 267h15v-331h-450v331h15c24.8145 0 45 20.1855 45 45 v136h60v-106.513c0 -57.6123 46.875 -104.487 104.473 -104.487c58.1836 0 105.527 47.4023 105.527 105.674v105.326h60v-136c0 -24.8145 20.1855 -45 45 -45zM361 27v150h-210v-150h210z" glyph-name="021-tshirt" unicode=""/><glyph d="M91.0723 281.961c0 -24.8047 -20.1758 -44.9805 -44.9785 -44.9805h-26.8174l6.42383 89.96h65.3721v-44.9795zM494.868 206.994l10.708 -149.934h-241.663l-7.91406 37.7031l-7.91309 -37.7031h-241.662l10.708 149.934h28.9609 c41.3486 0 74.9668 33.6318 74.9668 74.9668v44.9795h109.09l-47.1543 -82.5225l26.0625 -14.876l46.9414 82.1484l46.9424 -82.1484l26.0625 14.876l-47.1543 82.5225h109.09v-44.9795c0 -41.335 33.6182 -74.9668 74.9668 -74.9668h28.9619zM420.927 281.961v44.9795 h65.373l6.42383 -89.96h-26.8174c-24.8027 0 -44.9795 20.1768 -44.9795 44.9805zM0 -32.8994l4.2832 59.9727h237.511l-12.5889 -59.9727h-229.205zM479.875 416.9l4.2832 -59.9727h-456.316l4.2832 59.9727h447.75zM507.717 27.0732l4.2832 -59.9727h-229.205 l-12.5889 59.9727h237.511z" glyph-name="022-short" unicode=""/><glyph d="M256 207c8.26172 0 15 -6.72363 15 -15s-6.73828 -15 -15 -15s-15 6.72363 -15 15s6.73828 15 15 15zM256 267c41.3672 0 75 -33.6475 75 -75s-33.6328 -75 -75 -75s-75 33.6475 -75 75s33.6328 75 75 75zM256 147c24.8145 0 45 20.1855 45 45s-20.1855 45 -45 45 s-45 -20.1855 -45 -45s20.1855 -45 45 -45zM256 357c90.9668 0 165 -74.0186 165 -165s-74.0332 -165 -165 -165s-165 74.0186 -165 165s74.0332 165 165 165zM256 87c57.8906 0 105 47.1094 105 105s-47.1094 105 -105 105s-105 -47.1094 -105 -105s47.1094 -105 105 -105z M256 448c140.596 0 256 -115.39 256 -256s-115.404 -256 -256 -256s-256 115.39 -256 256s115.404 256 256 256zM256 -3c107.52 0 195 87.4805 195 195s-87.4805 195 -195 195s-195 -87.4805 -195 -195s87.4805 -195 195 -195z" glyph-name="006-weight-1" unicode=""/><glyph d="M181 166.217v-18.2168h-60v70.4326c15.4102 -21.9297 35.999 -39.8994 60 -52.2158zM91 58v60h120v-60h-30v-122h-60v122h-30zM301 253.377v-67.3809c-14.4072 -5.0918 -29.5791 -7.99609 -45 -7.99609c-74.4434 0 -135 60.5566 -135 135s60.5566 135 135 135 s135 -60.5566 135 -135v-165h-60v165c0 41.3525 -33.6328 75 -75 75s-75 -33.6475 -75 -75s33.6328 -75 75 -75c16.9521 0 32.4277 5.86133 45 15.377zM301 118h120v-60h-30v-122h-60v122h-30v60z" glyph-name="049-hand-grip" unicode=""/><glyph d="M271 -4c0 33.0908 26.9238 60 60 60h30v-120h-30c-33.0762 0 -60 26.9092 -60 60zM421 56c33.0762 0 60 -26.9092 60 -60s-26.9238 -60 -60 -60h-30v120h30zM61 388v60h240v-60h-240zM91 328v30h180v-30h-180zM331 86c-49.6289 0 -90 -40.3711 -90 -90 c0 -23.1338 9.01562 -44.041 23.4082 -60h-233.408v60h180v210h-180v21.541l46.9697 70.459h206.061l46.9697 -70.459v-141.541zM181 176v-150h-150v30h120v30h-120v30h120v30h-120v30h150z" glyph-name="042-pills" unicode=""/><glyph d="M120 86.0225v-60h-120v60h45v183.268l-43.418 122.13c-5.88867 26.0742 9.46289 50.1562 33.6621 55.5322c24.0527 5.21484 48.252 -9.94629 53.7012 -34.1455l45.0439 -116.784h61.0107c52.7559 0 97.127 -39.25 104.484 -90h46.5156c24.8145 0 45 -20.1865 45 -45 c0 -24.8145 -20.1855 -45 -45 -45h-28.1543c2.41406 -29.4541 22.8643 -45 45.1465 -45h31.1387c6.70898 25.8066 30 45 57.8691 45c33.0762 0 60 -26.9092 60 -60c0 -33.0918 -26.9238 -60 -60 -60c-27.8691 0 -51.1602 19.1924 -57.8691 45h-31.1387 c-36.1738 0 -71.1865 25.6631 -75.2275 75h-134.718c-31.4941 0 -59.8535 19.8926 -70.5469 49.5117l-7.5 20.751v-100.263h45zM195 266.022h-49.2402l23.5469 -60h100.178c-6.96973 34.1904 -38.2559 60 -74.4844 60zM187.874 26.0225l-13.2793 60h91.7363l13.29 -60 h-91.7471zM326.635 -24.0273c1.15723 -3.19922 1.95508 -6.56152 2.66602 -9.95117h182.699v-30h-512v60h120v-30h31.6631c1.08398 4.8623 2.66602 9.53125 4.67969 13.9756c4.60742 10.1455 15.4326 16.0244 26.5723 16.0244h115.258 c12.7549 0 24.1191 -8.05371 28.4619 -20.0488z" glyph-name="031-workout" unicode=""/><glyph d="M165 117.612v-0.612305h195v-120h-30v60h-30v-60h-30v30h-30v-30h-30v60h-30v-60h-15c-5.06055 0 -10.0518 0.310547 -15 0.759766v29.2402h-30v-23.6016c-69.1406 19.6553 -120 83.2373 -120 158.602v21.0479c31.9854 -40.0977 86.6777 -66.0479 150 -66.0479 c5.07227 0 10.0449 0.28418 15 0.612305zM150 222c-40.6641 0 -75 20.6104 -75 45s34.3359 45 75 45s75 -20.6104 75 -45s-34.3359 -45 -75 -45zM105 282v-30h90v30h-90zM150 147c-84.1113 0 -150 52.7051 -150 120s65.8887 120 150 120s150 -52.7051 150 -120 s-65.8887 -120 -150 -120zM150 342c-58.8867 0 -105 -32.9443 -105 -75s46.1133 -75 105 -75s105 32.9443 105 75s-46.1133 75 -105 75zM258.922 147c38.9277 24.3643 65.0498 61.6992 70.0342 105h1.04395v-105h-71.0781zM390 117h122v-120h-122v120zM467 42v30h-30v-30h30 z" glyph-name="004-measuring-tape" unicode=""/><glyph d="M271 -64v91.1172c40.7012 0.582031 98.2402 3.73633 149.865 14.7881c-5.74609 -21.8262 -13.0996 -43.707 -20.958 -66.3506c-3.22363 -9.27246 -13.0967 -39.5547 -13.0967 -39.5547h-115.811zM111.859 -23.7422c-7.76367 22.4434 -15.0518 44.1279 -20.7646 65.6562 c51.6289 -11.0576 109.197 -14.2148 149.905 -14.7969v-91.1172h-115.811s-10.0498 30.7949 -13.3301 40.2578zM256 117c65.251 0 197.157 6.04785 256 50.7217v-35.7217c0 -59.3262 -167.787 -75 -256 -75s-256 15.6738 -256 75v35.7217 c58.8428 -44.6738 190.749 -50.7217 256 -50.7217zM35.999 181.2c-15 7.5 -26.0967 16.2002 -31.7988 26.0996c12.001 21.6016 49.9004 35.7002 90.1006 44.4004c-2.09863 -4.49902 -4.20117 -9 -7.2002 -13.7988c-6.30273 -10.2012 -11.4004 -20.4004 -16.1973 -30.6016 c-15.6016 -7.5 -28.3057 -16.2002 -34.9043 -26.0996zM424.9 237.901c-2.99902 4.79883 -5.10156 9.2998 -7.19922 13.7979c40.1992 -8.99902 78.0977 -22.7979 90.0986 -44.3994c-5.70215 -9.90039 -16.7979 -18.5996 -31.7979 -25.7998 c-6.89941 9.90137 -19.6025 18.5996 -35.2041 25.7998h-0.296875c-4.20117 10.2012 -9.29883 20.4004 -15.6006 30.6016zM112.299 221.401c0 0.298828 0.299805 0.898438 0.600586 1.19922c23.4004 39.2998 26.0996 70.1992 18.0029 104.399h250.195 c-7.80078 -34.2002 -3.59668 -68.0986 18.002 -104.4c0.301758 -0.299805 0.601562 -0.899414 0.601562 -1.19824c3.89648 -6.30176 7.2002 -12.3018 9.89844 -18.6025c3.30078 -5.99902 6.00293 -12.2988 8.10156 -18.5996 c2.69922 -6.60059 4.80078 -13.499 6.59863 -20.1006c-47.6992 -11.3994 -108.899 -17.0996 -168.3 -17.0996s-120.901 5.7002 -168.6 17.0996c1.79785 6.60156 4.19922 13.501 6.89844 20.1006c2.09961 6.30078 4.80078 12.6006 8.10156 18.5996 c2.69824 6.30078 6.00293 12.3008 9.89844 18.6025zM241 207v-30h30v30h-30zM390.209 357h-268.418c-4.43066 12.7158 -20.5879 54.1797 -34.541 91h337.5c-13.668 -36.0664 -30.5938 -79.7568 -34.541 -91z" glyph-name="025-fitness-1" unicode=""/><glyph d="M391 289.789c70.2246 -19.8779 121 -84.7852 121 -158.789c0 -90.9814 -75.0332 -165 -166 -165s-165 74.0186 -165 165c0 74.0039 49.7754 138.911 120 158.789v36.2109h30v122h30v-122h30v-36.2109zM346 26c57.8906 0 106 47.1094 106 105s-48.1094 105 -106 105 s-105 -47.1094 -105 -105s47.1094 -105 105 -105zM271 131c0 25.2559 12.6338 47.5293 31.8242 61.1279c17.6064 -26.4062 28.1758 -57.6982 28.1758 -91.1279c0 -14.4541 -2.05762 -28.4033 -5.56641 -41.7725c-31.3252 9.00781 -54.4336 37.5977 -54.4336 71.7725zM166 -4 c11.9746 0 23.2979 2.43945 34.0283 6.14941c14.751 -16.6885 32.1895 -30.9219 51.8076 -41.79c-25.0449 -15.3477 -54.3779 -24.3594 -85.8359 -24.3594c-90.9668 0 -166 74.0186 -166 165c0 74.0039 50.7754 138.911 121 158.789v36.2109h30v152h30v-152h30v-25.166 c-18.9951 -18.416 -34.1162 -40.4111 -44.4033 -64.8936c-0.200195 0.000976562 -0.391602 0.0595703 -0.59668 0.0595703c-57.8906 0 -106 -47.1094 -106 -105s48.1094 -105 106 -105z" glyph-name="007-rings" unicode=""/><glyph d="M331 -3v-31h120v-30h-390v30h120v31h-30v30h30v30h-30v30c0 16.5693 13.4326 30 30 30h150c16.5674 0 30 -13.4307 30 -30v-30h-30v-30h30v-30h-30zM211 57v-30h90v30h-90zM211 -3v-31h90v31h-90zM481 327v-150h-30v-60h-60v30h30v30h-30v150h30v30h-90v30h120v-60h30z M181 387v61h150v-61h-150zM271 147v210h60v-210h-60zM181 147v210h60v-210h-60zM61 327v60h120v-30h-90v-30h30v-150h-30v-30h30v-30h-60v60h-30v150h30z" glyph-name="041-chest" unicode=""/><glyph d="M151.006 288.29c71.3633 16.2295 138.625 16.2295 209.988 0v-81.1592h-89.9951v-119.993h57.4189c-6.18164 -17.46 -22.8506 -29.998 -42.4199 -29.998h-59.9961c-19.5693 0 -36.2383 12.5381 -42.4199 29.998h57.4189v119.993h-89.9951v81.1592zM471.905 403.903 l9.08203 -3.89648v-209.72c0 -102.54 -70.6006 -232.844 -224.987 -254.286c-161.118 22.3779 -224.987 159.415 -224.987 254.286v209.721l9.08203 3.89551c137.218 58.7959 294.592 58.7959 431.811 0zM390.992 177.133v134.71l-11.3662 2.82715 c-83.1982 20.7998 -164.054 20.7998 -247.252 0l-11.3662 -2.82715v-134.71h89.9951v-59.9961h-59.9971v-14.999c0 -41.3506 33.6309 -74.9961 74.9961 -74.9961h59.9961c41.3652 0 74.9961 33.6455 74.9961 74.9961v14.999h-59.9971v59.9961h89.9951z" glyph-name="048-headgear" unicode=""/><glyph d="M256 148c24.8145 0 45 -20.1855 45 -45s-20.1855 -45 -45 -45s-45 20.1855 -45 45s20.1855 45 45 45zM394.516 240.241c36.0352 -36.3877 56.4844 -85.752 56.4844 -137.241c0 -65.4785 -32.5781 -128.211 -87.1865 -164.495l-3.75 -2.50488h-208.125l-3.75 2.50488 c-54.6104 36.2842 -87.1885 99.0166 -87.1885 164.495c0 51.4893 20.4492 100.854 56.4844 137.241l-28.5352 52.8809c-17.7529 32.8711 -16.9043 71.6172 2.22656 103.682c19.1309 32.0498 52.8525 51.1963 90.1758 51.1963h149.297 c37.3242 0 71.0449 -19.1465 90.1758 -51.1963c19.1309 -32.0645 19.9805 -70.8105 2.25586 -103.667zM256 28c41.3672 0 75 33.6475 75 75s-33.6328 75 -75 75s-75 -33.6475 -75 -75s33.6328 -75 75 -75zM345.473 275.725l35.8301 66.3525l-38.2617 45.9229h-174.082 l-38.2607 -45.9229l35.8184 -66.334c55.3457 28.3408 123.563 28.4111 178.956 -0.0185547z" glyph-name="003-weight" unicode=""/><glyph d="M193.815 235.916l63.626 63.626l106.042 -106.042l-21.209 -21.209l-63.625 63.625l-21.208 -21.208l63.625 -63.625l-21.209 -21.208zM299.857 384.375l148.459 -148.459l-21.208 -21.208l-21.209 21.208l-21.208 -21.208l-106.042 106.042l21.208 21.208 l-21.208 21.208zM95.168 137.269l77.4395 77.4395l106.042 -106.041l-21.208 -21.209l-63.626 63.625l-21.208 -21.208l63.626 -63.626l-35.0234 -35.0215l-106.042 -21.209l-73.9004 -74.0186l-21.21 21.208l73.9023 74.0195zM363.483 363.166l42.416 42.418 l-21.208 21.208l21.208 21.208l106.042 -106.042l-21.209 -21.208l-21.208 21.208l-42.416 -42.416z" glyph-name="039-syringe" unicode=""/><glyph d="M392.025 221.959l-165.984 -165.984l4.95898 -119.965l-85.4854 -0.00976562l-19.5967 19.8516l-21.2129 -19.8516l-104.705 104.705l19.8516 21.2129l-19.8516 19.5967l0.00976562 85.4854l119.965 -4.95898l165.984 165.984l-4.95898 119.965l85.4854 0.00976562 l19.5967 -19.8516l21.2129 19.8516l104.705 -104.705l-19.8516 -21.2129l19.8516 -19.5967l-0.00976562 -85.4854zM147.131 146.771l21.2129 -21.2139l154.099 154.099l-21.2139 21.2129zM343.656 258.442l-154.099 -154.099l21.2139 -21.2129l154.098 154.098z M157.945 -34.0029l41.7949 -0.00976562l-3.72461 89.4727l-76.5557 76.5557l-89.4727 3.72461l0.00976562 -41.7949l11.0684 -10.8145l21.2129 21.2129l106.065 -106.065l-21.2129 -21.2129zM354.055 418.003l-41.7949 0.00976562l3.72461 -89.4727l76.5557 -76.5557 l89.4727 -3.72461l-0.00976562 41.7949l-11.0684 10.8145l-21.2129 -21.2129l-106.065 106.065l21.2129 21.2129z" glyph-name="019-bands" unicode=""/><glyph d="M467 297c24.8145 0 45 -20.1855 45 -45v-15h-512v15c0 24.8145 20.1855 45 45 45h45v30c0 33.0908 26.9238 60 60 60s60 -26.9092 60 -60v-30h92v30c0 33.0908 26.9238 60 60 60s60 -26.9092 60 -60v-30h45zM180 297v30c0 16.5381 -13.4473 30 -30 30 s-30 -13.4619 -30 -30v-30h60zM392 297v30c0 16.5381 -13.4473 30 -30 30s-30 -13.4619 -30 -30v-30h60zM0 147v60h512v-60h-109.614l45 -120h64.6143v-30h-512v30h64.6143l45 120h-109.614zM201.636 147l-22.5 -60h153.729l-22.5 60h-108.729zM167.886 57l-11.25 -30 h198.729l-11.25 30h-176.229z" glyph-name="047-buck" unicode=""/><glyph d="M210 26v212h60v-212h-60zM0 -19v15h270v-15c0 -24.8145 -20.1855 -45 -45 -45h-180c-24.8145 0 -45 20.1855 -45 45zM0 26v212h180v-212h-180zM512 448v-30h-30v-270h-90v270h-220.789l98.7891 -98.7891v-51.2109h-270v51.2109l98.7891 98.7891h-98.7891v30h512z M120 396.789l-68.7891 -68.7891h68.7891v68.7891zM150 328h68.7891l-68.7891 68.7891v-68.7891zM392 56v62h90v-62h-90zM392 -64v90h90v-90h-90z" glyph-name="011-punching-ball" unicode=""/><glyph d="M256.354 425.199l233.346 -233.346l-42.4258 -42.4258l-84.8535 84.8535l-148.492 148.492zM65.4346 234.28l233.346 -233.346l-42.4268 -42.4258l-233.345 233.345zM171.502 170.645l106.065 106.064l63.6387 -63.6387l-106.064 -106.065zM0 84.4922l44.2217 43.7217 l148.492 -148.492l-44.2217 -43.7217l-42.4258 42.4258l-42.4268 -42.4258l-63.6396 63.6396l42.4258 42.4268zM512 299.508l-43.5137 -44.0146l-148.493 148.493l43.5146 44.0137l42.4258 -42.4258l41.7197 42.4258l64.3467 -64.3467l-42.4258 -41.7197z" glyph-name="002-dumbell" unicode=""/><glyph d="M0 147v90h76v-90h-76zM436 147v90h76v-90h-76zM136 258.35v38.6504h30v-210h-30v38.6504c-8.43652 8.2207 -18.8525 14.0107 -30 17.543v97.6133c11.1475 3.53223 21.5615 9.32227 30 17.543zM376 297v-38.6504c8.43652 -8.2207 18.8525 -14.0107 30 -17.543v-97.6133 c-11.1475 -3.53223 -21.5615 -9.32227 -30 -17.543v-38.6504h-30v210h30zM286 418v-181h30v-90h-30v-181c0 -16.5381 -13.4473 -30 -30 -30s-30 13.4619 -30 30v181h-30v90h30v181c0 16.5381 13.4473 30 30 30s30 -13.4619 30 -30z" glyph-name="029-wheel" unicode=""/><glyph d="M91 -3v60h240v-60h-240zM391 261.917c0 -62.6064 -15.5898 -118.823 -48.2451 -174.917h-287.296c-33.4326 22.2881 -55.459 49.8994 -55.459 93.1641c0 0.00195312 1.25684 6.16992 3.47852 14.5732c6.59082 24.915 29.1797 42.2627 54.9512 42.2627h92.5703 c16.5527 0 30 -13.4619 30 -30s-13.4473 -30 -30 -30h-60v-30h60c33.0762 0 60 26.9092 60 60h15c57.8906 0 105 47.1094 105 105v15h-30v-15c0 -41.3525 -33.6328 -75 -75 -75h-23.3457c-10.4111 17.8467 -29.5508 30 -51.6543 30h-118.286 c-1.04688 4.88281 -1.71387 9.87695 -1.71387 15v30c0 74.4434 60.5566 136 135 136h90c74.4434 0 135 -61.5566 135 -136v-50.083zM361 -33v30h90v-61h-240v31h150zM404.271 383.913c60.8936 -13.0449 107.729 -67.1777 107.729 -131.913v-50.083 c0 -62.6064 -16.5898 -118.823 -49.2451 -174.917h-101.755v31.7119c17.4648 30.001 29.6895 52.2705 42.4219 92.3799c44.5488 12.1514 77.5781 52.5645 77.5781 100.908v15h-30v-15c0 -27.9844 -15.5859 -52.1504 -38.3643 -65.0371 c5.0498 24.4131 8.36426 49.209 8.36426 74.9541v50.083c0 25.7998 -6.12305 50.1416 -16.7285 71.9131z" glyph-name="045-boxing-gloves" unicode=""/></font>
</defs>
</svg>
