<?xml version="1.0" standalone="no"?>
<!DOCTYPE svg PUBLIC "-//W3C//DTD SVG 1.1//EN" "http://www.w3.org/Graphics/SVG/1.1/DTD/svg11.dtd" >
<svg xmlns="http://www.w3.org/2000/svg">
<metadata>Generated by IcoMoon</metadata>
<defs>
<font id="icomoon" horiz-adv-x="1024">
<font-face units-per-em="1024" ascent="960" descent="-64" />
<missing-glyph horiz-adv-x="1024" />
<glyph unicode="&#x20;" horiz-adv-x="512" d="" />
<glyph unicode="&#xe900;" glyph-name="1" d="M918.002 664.534c39.997 30 75.994 66 103.997 108-35.997-16-78.001-28-119.999-32 43.998 26 76.001 66 91.996 116-39.997-24-85.996-42-131.994-52-40.004 42-94.003 66-154.003 66-116 0-210.001-94-210.001-210 0-16 2-32 6-48-174 10-330 94-434 220-18-30-28-66-28-106 0-72 36-136 94-174-34 2-68 10-96 26v-2c0-102 72-186 168-206-16-4-36-7.999-54-7.999-14 0-26 2-40 4 26-84 104-144 196-146-72-55.997-162-90.001-260-90.001-18 0-34 2-50 4 92-60 202-94.003 322-94.003 386 0 596.002 318.003 596.002 596.003 0 10 0 18 0 28z" />
<glyph unicode="&#xe901;" glyph-name="2" d="M747.125 364l26.25 172.5h-166.875v112.5c0 48.75 22.5 93.75 97.5 93.75h76.875v148.125c0 0-69.375 13.125-135 13.125-136.876 0-226.875-84.375-226.875-234.375v-133.125h-153.75v-172.5h153.75v-420h187.5v420h140.625z" />
<glyph unicode="&#xe902;" glyph-name="3" d="M214.286-64v640.715h-199.286v-640.715h199.286zM113.571 662.429c64.286 0 115.715 53.571 115.715 117.857 0 62.143-51.429 113.571-115.715 113.571-62.143 0-113.571-51.428-113.571-113.571 0-64.286 51.429-117.857 113.571-117.857zM957.857-64h2.143v351.429c0 171.429-38.568 304.285-240 304.285-96.429 0-160.715-53.571-188.572-102.857h-2.142v87.858h-190.714v-640.715h199.286v317.143c0 83.572 14.999 162.857 117.857 162.857s105.001-94.286 105.001-169.285v-310.715h197.142z" />
<glyph unicode="&#xe903;" glyph-name="4" d="M515.93 310.397c-43.905-43.903-105.839-51.546-150.456-6.93-26.075 26.077-49.060 91.869-4.698 136.21l437.211 426.698 206.244 73.509-74.551-215.717-413.749-413.77zM386.632 413.821c-21.121-25.252-14.52-62.208 6.582-83.29 21.066-21.103 62.775-28.361 99.402-7.205l36.241 51.712-90.513 83.565-51.712-44.782zM464.2 491.407l90.513-90.495 64.659 57.69-90.515 82.653-64.657-49.848zM774.525 801.735l-219.812-219.83 90.515-90.497 219.812 219.832c-34.122 14.883-75.594 56.374-90.515 90.495zM800.381 827.591c13.148-25.253 62.685-78.922 90.515-90.495l58.020 140.433-148.535-49.938zM1005.165-62.777h-1001.51v1005.257h252.288v-749.732h749.715l-0.494-255.525zM219.372 905.89h-182.857v-91.428h109.714v-36.571h-109.714v-73.143h73.143v-36.571h-73.143v-91.447h109.714v-36.553h-109.714v-73.161h73.143v-36.555h-73.143v-91.445h109.714v-36.536h-109.714v-91.464h73.143v-36.555h-73.143v-182.856l182.857 201.142v713.143zM969.085 156.176h-731.427l-164.572-182.858h164.572v73.161h36.571v-73.161h91.429v109.715h36.571v-109.715h91.429v73.161h36.571v-73.161h73.142v109.715h36.571v-109.715h73.142v73.161h36.573v-73.161h91.427v109.715h36.573v-109.715h91.427v182.858z" />
<glyph unicode="&#xe904;" glyph-name="5" d="M932.056 621.041h-113.824l-67.045-60.522c-5.696-5.559-14.17-7.085-12.085-18.795-16.591 17.897-21.32 25.015-21.32 28.643v50.674h-111.382v-19l-0.017-0.711c-1.779-49.573-22.457-96.231-58.215-131.399-7.796-7.626-16.117-24.474-24.864-20.693l14.406-67.115 45.506-23.558h21.541c126.586 0 211.477-122.349 211.477-239.612v-119.957c0-10.864-8.83-19.678-19.709-19.678h-772.577c-10.881 0-19.71 8.814-19.71 19.678v119.957c0 29.033 5.322 57.607 15.83 84.893 3.915 10.134 28.744 0.1 25.456 11.287 10.152-3.914 15.236-15.304 11.304-25.472-8.745-35.711-13.186-46.54-13.186-70.708v-100.23h71.724v140.245c0 5.226 2.077 10.24 5.773 13.938 3.696 3.696 8.71 5.773 13.937 5.773s10.241-2.077 13.937-5.773c3.696-3.698 5.773-8.712 5.773-13.938v-140.245h185.971l19.931 139.703-19.711 56.098-45.489-34.54c-11.237-8.524-28.253-2.373-31.201 11.627l-15.151 127.532h-16.135c-24.145-1.223-47.846-6.959-69.877-16.913-3.813-4.475-21.592-0.035-12.626 9.863-17.897 9.933-0.508 21.608-3.559 26.066 26.675 12.052 55.385 18.965 84.621 20.372 0.323 0.035 0.645 0.035 0.951 0.035h16.2l47.065 23.71 13.592 63.741c-51.148 33.523-86.163 90.638-83.452 155.312-0.168 0.238-0.168 0.475-0.168 0.711v64.489c0 0.236 0.168 0.491 0.168 0.744l0.17 0.035c-9.458 2.423-13.322 5.611-16.61 9.525-8.71 10.321-12.354 24.219-10.016 38.149 10.932 64.42 67.555 173.481 210.563 173.481 54.081 0 94.417-15.168 123.618-33.947 4.154 17.7 14.164 33.48 28.405 44.781s31.883 17.463 50.064 17.486h319.929c21.367-0.022 41.851-8.52 56.96-23.628s23.606-35.593 23.627-56.96v-130.178c0-44.42-36.149-84.977-80.569-84.977zM521.913 345.956l-72.52-50.47 85.977-65.302 20.693 98.080-34.149 17.692zM498.406 377.599l-11.135 51.776c-23.083-9.678-48.014-14.746-73.639-14.746-20.439 0-46.725 4.542-67.961 12.729l-10.611-49.844 80.944-63.065 82.401 63.15zM488.205 18.724h183.36v140.245c0 5.226 2.077 10.24 5.773 13.938 3.696 3.696 8.71 5.773 13.938 5.773s10.24-2.077 13.938-5.773c3.696-3.698 5.773-8.712 5.773-13.938v-140.245h65.843v100.23c0 52.624-17.016 101.842-46.37 138.534-33.338 37.845-76.437 59.131-126.195 61.656h1.287l-38.031-127.532c-2.966-14-19.982-20.152-31.201-11.627l-46.065 34.98-21.643-56.844 19.593-139.397zM448.41 18.724l-17.151 121.958h-33.286l-17.406-121.958h67.843zM394.837 180.087h39.98l22.727 59.707-41.64 31.609-32.032-31.846 10.965-59.469zM275.794 328.059l0.135-0.661 20.507-97.214 86.147 65.42-71.216 50.387-35.573-17.932zM260.287 602.398c3.051-79.996 71.164-159.821 151.481-148.296 81.928-1.101 152.108 66.521 155.227 148.296v59.402h-20.235c-29.711 0-56.235 18.117-73.572 41.167-35.761-30.388-84.148-41.167-130.077-41.167h-82.824v-59.402zM410.039 849.076c-40.234 0-95.568-17.355-127.295-51.505-33.253-35.794-42.423-77.316-34.965-89.198-4.915-2.846 3.221-5.033-8.204-6.1 0.645-0.781 1.323-1.051 2.458-1.051 4.61 0.050 109.755-0.238 111.094 0.203 81.080 2.863 100.315 35.828 117.178 34.692-7.438 15.592-0.423 20.321 7.966 19.643 7.39-0.458 18.304-5.322 16.643-20.829 4.73-2.56 12.085-12.864 21.796-21.118 22.066-8.219 20.998-12.558 29.862-12.591h37.863c1.322 3.033 1.119 6.169 0.541-4.084-6.202 55.453-47.318 151.938-174.938 151.938zM973.206 706.017v130.178c0 22.71-18.473 41.184-41.167 41.184h-319.946c-10.916-0.014-21.382-4.357-29.099-12.078-7.719-7.721-12.058-18.188-12.068-29.105v-12.626c21.118-22.388 33.999-53.725 41.862-66.029 6.119-15.406 10.186-42.946 11.88-46.845 1.119-10.829-2.050-26.524-11.625-37.133 6.237-2.187-4.222-4.102-6.644-5.763v-2.948h131.076c10.881 0 19.711-8.812 19.711-19.694v-23.981l39.353 33.251c3.679 8.441 8.594 10.424 13.712 10.424h121.806c10.916 0.004 21.384 4.343 29.103 12.062 7.721 7.721 12.058 18.189 12.064 29.105h-0.017zM891.568 752.794c4.788 2.041 8.586 5.879 10.576 10.689s2.013 10.21 0.066 15.038c-2.036 4.793-5.874 8.594-10.684 10.588s-10.213 2.020-15.041 0.073c-9.915-4.085-14.78-15.796 2.608-25.744-9.15-9.898 5.593-14.762 12.475-10.643zM787.251 754.082c4.019 2.461 7.033 6.268 8.507 10.743 1.476 4.475 1.314 9.329-0.456 13.696-6.304 8.44-29.88 4.542-36.371 0-3.201-7.762-1.016-16.948 19.661-22.456-7.983-5.474 5.423-6.288 8.66-1.983zM680.361 754.082c8.254 4.949 11.762 15.558 8.066 24.439-6.627 7.084-29.777 6.406-36.369 0-1.561-3.831-1.886-8.054-0.931-12.079 0.953-4.025 3.14-7.653 6.252-10.377 3.151-2.675 7.056-4.302 11.175-4.658 4.117-0.355 8.244 0.579 11.807 2.675zM396.769 623.836l-17.406-42.403c-1.758-4.281-2.436-8.928-1.973-13.534 0.464-4.604 2.054-9.023 4.629-12.868 2.577-3.845 6.061-6.996 10.143-9.175 4.082-2.177 8.638-3.319 13.268-3.319h24.184c5.226 0 10.236 2.075 13.932 5.771 3.694 3.694 5.769 8.706 5.769 13.93 0 5.226-2.075 10.238-5.769 13.932-3.696 3.694-8.706 5.771-13.932 5.771h-7.44l11.050 13.507c4.119 23.49-0.694 34.998-10.762 39.15-2.392 0.983-4.956 1.486-7.545 1.476-2.587-0.010-5.147-0.527-7.533-1.528-2.386-0.999-4.552-2.46-6.374-4.297s-3.263-4.017-4.241-6.413zM67.367 263.386c6.711-16.102 30.269-15.779 36.557 0.441 6.627 17.151-12.779 33.336-28.49 23.981-4.028-2.448-7.052-6.25-8.53-10.725-1.478-4.477-1.314-9.332 0.463-13.696z" />
<glyph unicode="&#xe905;" glyph-name="6" d="M780.81-53.907c-88.458 0-149.195 41.048-163.045 55.772h-469.055v130.156h-148.711v814.218h799.401v-144.936h130.138v-483.388c34.728-34.635 80.332-92.845 80.332-158.082 0-98.459-92.305-213.741-229.061-213.741zM185.893 39.049h409.005c-19.056 5.15-33.631 65.163-37.181 92.973h-371.824v-92.973zM501.943 912.85h-185.912v-241.723l85.241 57.876 100.671-57.876v241.723zM762.217 912.85h-223.093v-316.067l-137.852 81.243-122.422-81.243v316.067h-241.685v-743.664h520.553c0 108.795 103.701 204.503 204.501 204.503v539.161zM892.356 764.103h-92.955v-390.413c50.214-2.994 72.654-13.145 92.955-32.238v422.651zM788.265 337.157c-116.122 0-193.367-88.755-193.367-186.581 0 0 7.511-167.302 185.912-167.302 45.566 0 74.085 11.284 102.976 31.736l-56.647 56.647c-13.647-7.084-29.152-11.081-38.874-11.081-45.363 0-105.952 44.49-105.952 99.258 0 54.714 60.589 99.278 105.952 99.278 48.058 0 92.584-44.564 92.584-99.278 0-16.434-14.278-50.122-25.674-65.032l55.772-55.754c34.599 28.315 55.774 66.315 55.774 111.528 0 108.034-87.359 186.581-178.455 186.581zM839.78 159.816c0 31.995-26.064 58.079-50.586 58.079-39.563 0-65.628-26.084-65.628-58.079 0-32.069 26.066-58.115 65.628-58.115 24.522 0 50.586 26.046 50.586 58.115zM130.119 317.916h204.502v-37.163h-204.502v37.163zM129.116 462.87l112.55 3.775v-37.183h-111.547l-1.004 33.409z" />
<glyph unicode="&#xe906;" glyph-name="7" d="M273.078 553.462l33.403-5.566v-55.374c0-110.748 90.386-200.348 202.105-200.348s202.107 89.6 202.107 200.348v55.374l33.403 5.566c32.561 5.286 56.42 33.112 56.42 65.948 0 2.226 0 4.452 0 6.679 0 17.807-7.016 34.781-19.649 47.303-7.299 7.236-16.282 12.8-25.825 16.14-4.491 58.157-29.753 112.973-71.578 154.434-30.317 30.052-67.93 51.756-108.632 62.887-6.457 30.33-33.686 53.148-66.247 53.148s-59.789-22.817-65.964-53.426c-40.702-11.13-78.316-32.556-108.632-62.887-41.824-41.461-67.088-96.278-71.579-154.435-9.544-3.34-18.526-8.626-25.824-16.14-12.632-12.521-19.649-29.495-19.649-47.303v-6.679c-0.281-32.557 23.579-60.383 56.14-65.669zM665.78 492.521c0-85.983-70.457-155.826-157.194-155.826s-157.192 69.843-157.192 155.826v47.862l124.070-20.593c21.895-3.617 44.351-3.617 66.527 0l124.070 20.593v-47.862h-0.281zM575.955 859.548c28.070-9.739 53.895-25.878 75.51-47.304 32.561-32.278 52.771-74.574 57.823-119.374h-133.333v166.679zM486.13 893.217c0 12.244 10.107 22.261 22.456 22.261 12.351 0 22.456-10.017 22.456-22.261v-200.348h-44.913v200.348zM365.709 812.244c21.615 21.426 47.438 37.287 75.51 47.304v-166.679h-133.616c5.052 45.079 25.545 87.096 58.106 119.374zM261.569 626.088c0 5.843 2.246 11.686 6.456 15.86s9.824 6.4 16 6.4h449.122c5.896 0 11.79-2.226 16.001-6.4s6.455-9.738 6.455-15.86v-6.679c0-10.852-7.858-20.036-18.807-21.983l-202.385-33.391c-17.123-2.783-34.527-2.783-51.649 0l-202.387 33.391c-10.947 1.669-18.807 11.131-18.807 21.983 0 2.226 0 4.452 0 6.679zM876.026 188.936c-37.896 37.566-89.264 58.714-142.879 58.714h-449.122c-53.614 0-104.983-21.148-142.877-58.714-37.895-37.564-59.228-88.486-59.228-141.634v-44.521c0-37.009 30.035-66.783 67.368-66.783h718.597c37.333 0 67.369 29.774 67.369 66.783v44.521c0 53.148-21.334 104.069-59.228 141.634zM598.411 203.129l-35.93-47.583c-12.632-16.974-32.561-26.712-53.895-26.712-21.332 0-41.263 10.017-53.893 26.712l-35.93 47.583h179.649zM261.569-19.481h-112.281c-12.351 0-22.456 10.017-22.456 22.262v44.521c0 41.46 16.561 80.974 46.035 110.191 9.824 9.74 20.772 18.088 32.842 24.766l36.491-36.731c12.351-12.521 19.368-29.495 19.368-47.026v-117.983zM710.693 99.336v-118.817h-404.212v118.262c0 29.217-11.788 57.321-32.561 78.191l-22.737 22.817c10.667 2.226 21.614 3.34 32.562 3.34h78.596l56.142-74.295c21.332-28.105 54.456-44.524 89.823-44.524 35.369 0 68.491 16.419 89.825 44.524l56.14 74.295h78.596c10.949 0 21.615-1.114 32.281-3.34l-21.893-21.705c-20.773-20.869-32.561-48.974-32.561-78.748zM890.341 2.781c0-12.245-10.105-22.262-22.456-22.262h-112.282v118.817c0 17.809 7.018 34.783 19.651 47.305l35.93 35.895c12.069-6.676 23.017-15.026 32.842-25.043 29.473-29.217 46.035-68.731 46.035-110.191v-44.521h0.281z" />
<glyph unicode="&#xe907;" glyph-name="8" d="M1010.617 522.057l-90.011 69.189c0 0-7.388 7.388-7.388 22.165v151.139c0 17.129-13.77 30.899-30.9 30.899h-111.171c-17.128 0-30.898-13.77-30.898-30.899v-25.525c0-7.053-3.695-3.694-3.695-3.694l-204.876 159.534c-5.375 4.030-11.42 6.381-18.137 6.381-10.749 0-20.488-6.046-25.526-15.786l-48.029-91.019c-5.709-11.083-5.709-26.533 0-37.617l61.799-118.559c0 0 4.702-6.045-1.679-17.129-16.122-28.548-77.586-106.132-77.586-106.132-7.388-10.075-9.74-25.526-5.373-37.618l16.458-45.341c0 0 5.373-14.442-5.038-6.045-19.817 16.458-54.745 42.655-72.546 57.433-9.74 8.061-2.352 17.801-2.352 17.801l61.128 107.139c7.052 12.427 5.709 29.557-3.695 40.639l-75.234 87.997c-6.045 7.053-14.777 11.083-23.846 11.083-7.052 0-13.77-2.351-19.144-6.717l-282.124-219.318c-11.083-8.397-12.091-19.48-9.404-27.205 2.687-7.388 10.412-15.449 24.182-15.449h61.799c0 0 6.381 0.671 6.381-5.709v-447.705c0-17.129 13.77-30.9 30.899-30.9h275.743c17.128 0 30.898 13.77 30.898 30.9v131.994c0 6.045-0.336 16.122-0.336 22.167 0 0.336-0.671 40.975 23.174 65.492 12.763 13.099 30.228 19.481 53.402 19.481 24.519 0 43.998-7.054 57.769-20.824 24.517-24.853 24.853-64.485 24.853-64.821 0-6.047 0-15.786 0-21.831v-131.994c0-17.129 13.77-30.9 30.9-30.9h275.743c17.129 0 30.9 13.77 30.9 30.9v444.681c0 9.74 8.397 9.068 8.397 9.068h60.119c13.77 0 21.496 8.061 24.182 15.449 2.352 7.39 1.009 18.472-9.74 27.205zM780.552 749.772c0 5.374 5.375 5.71 5.375 5.71h79.934c0 0 7.054 0.336 7.054-7.053v-106.804c0-11.756-6.718-6.718-6.718-6.718l-84.3 65.83c-0.336 0.671-1.007 1.679-1.007 5.373v43.662h-0.337zM917.92 519.707c-17.129 0-30.9-13.77-30.9-30.9v-443.674c0 0 1.343-10.075-9.74-10.075h-235.439c-11.756 0-11.756 11.083-11.756 11.083v111.507c0 5.709 0 15.449 0 21.16 0 2.35 0.336 56.424-36.273 93.369-21.494 21.831-50.715 32.914-86.652 32.914-34.257 0-62.135-10.747-82.622-31.907-35.937-36.945-34.259-92.361-34.259-94.712 0.336-5.711 0.336-15.115 0.336-20.824v-114.864c0 0 0.673-7.725-11.754-7.725h-233.089c-13.434 0-11.755 11.083-11.755 11.083v442.667c0 17.129-13.77 30.9-30.899 30.9h-20.152c-8.061 0-1.343 6.716-1.343 6.716l224.020 173.978c0 0 4.702 4.031 8.059 0.336 10.413-11.756 42.991-50.379 55.419-64.823 5.709-6.716-1.009-11.418-1.009-11.418l-172.633-110.835c-7.388-4.702-9.74-14.777-4.702-22.165 3.023-4.702 8.397-7.39 13.435-7.39 3.023 0 6.047 0.671 8.733 2.688 0 0 94.042 59.447 124.941 80.27 7.052 4.702 6.381-1.343 6.381-1.343l-34.93-61.128c-7.724-13.77-4.365-31.907 8.061-41.647l143.749-113.186c5.373-4.031 10.747-6.381 16.458-6.381 7.052 0 13.77 3.359 17.801 9.068 3.022 4.366 6.045 12.092 2.014 23.174l-41.982 115.2c0 0.337 0 1.009 0.336 1.009l84.3 115.2c8.061 10.747 9.068 27.541 3.023 39.296 0 0-21.496 41.982-29.219 55.753-7.39 13.77 4.366 5.709 4.366 5.709l295.894-220.996c3.023-2.016 6.381-3.359 9.74-3.359 5.038 0 9.74 2.35 13.099 6.381 5.373 7.054 3.695 17.129-3.359 22.503l-351.982 263.316c0 0-4.704 3.023-1.68 8.396 7.054 13.099 25.862 50.044 33.587 63.814 3.357 6.046 9.404 2.687 9.404 2.687l413.446-322.091c0 0 8.061-9.068-3.359-9.068h-15.113v0.336z" />
<glyph unicode="&#xe908;" glyph-name="9" d="M1002.921 118.129l-58.39 77.853 58.39 77.853c5.152 6.869 6.010 16.313 2.003 24.042-4.007 7.727-11.734 12.594-20.321 12.594h-163.434c17.175 56.673 26.047 115.92 26.047 175.168v374.377c0 12.594-10.304 22.898-22.897 22.898h-29.481c-97.315 0.286-193.486 22.898-280.782 66.117-6.584 3.148-14.025 3.148-20.608 0-87.299-43.219-183.182-65.831-280.784-66.117h-29.481c-12.594 0-22.897-10.304-22.897-22.898 5.152-126.224-17.746-432.195 26.047-549.545h-163.433c-8.587 0-16.601-4.867-20.608-12.594-4.007-7.729-3.148-17.173 2.29-24.042l58.389-77.853-58.389-77.853c-5.152-6.869-6.011-16.315-2.29-24.042 4.007-7.729 12.021-12.594 20.608-12.594h160.284c0-9.731 0-22.899 8.586-29.196 182.896-144.255 440.782-144.255 623.676 0 7.156 7.729 10.304 18.605 8.586 29.196h160.285c8.586 0 16.601 4.865 20.608 12.594 4.007 8.014 3.149 17.173-2.003 24.042zM183.182 127.288h-114.488c60.679 83.004 60.393 54.668 0 137.387h114.488v-137.387zM778.522 81.494c-162.86-121.644-386.684-121.644-549.544 0v149.979c167.154-108.477 382.392-108.477 549.544 0v-149.979zM801.421 485.638c0-72.701-14.311-144.542-42.075-211.518-154.56-103.897-356.632-103.897-511.193 0-27.762 66.976-42.073 139.105-42.073 211.518v351.48c103.040-0.859 204.647 21.753 297.67 66.117 93.021-44.364 194.631-66.976 297.67-66.117v-351.48zM897.591 182.243l41.215-54.955h-114.488v137.387h114.488l-41.215-54.955c-6.011-8.014-6.011-19.177 0-27.477zM437.632 691.432l-12.881-38.927c-3.148-9.444-11.734-15.741-21.752-15.741h-41.215c-29.481-0.287-55.528-19.75-64.687-48.086-8.874-28.335 1.145-58.961 25.187-76.421l33.488-24.329c8.014-5.724 11.449-16.313 8.301-25.759l-12.881-38.925c-9.731-28.623 0.285-60.394 24.902-78.14 24.615-17.745 57.816-17.173 81.86 1.145 19.463 11.736 40.356 39.212 60.105 24.329l31.484-24.329c24.044-17.745 56.673-17.745 81.002 0 24.042 17.46 34.061 48.658 24.902 76.995l-12.881 38.925c-3.149 9.446 0.285 19.75 8.586 25.759l33.201 24.329c24.044 17.46 34.348 48.371 25.189 76.708s-35.493 47.512-65.259 47.512h-41.215c-10.018 0-18.605 6.297-21.754 15.743l-12.879 38.925c-9.159 28.051-35.493 47.227-65.259 47.227-30.054 0.287-56.385-18.603-65.544-46.939zM526.647 676.834l12.881-39.212c9.159-28.335 35.491-47.512 65.259-47.512h41.215c10.018 0 18.605-6.584 21.752-16.028 3.149-9.446-0.285-19.75-8.299-25.474l-33.203-24.329c-24.328-17.173-34.918-48.084-26.045-76.708l12.594-39.212c2.862-9.444-0.287-19.748-8.301-25.472s-18.605-6.011-26.619-0.287c-20.035 14.311-47.512 39.5-73.844 37.21-26.047 2.29-53.525-22.899-73.846-37.21-8.014-5.724-18.89-5.724-26.619 0.287-8.014 5.724-11.163 16.028-8.301 25.472l12.595 39.212c9.159 28.336-0.859 59.248-24.902 76.708l-33.203 24.329c-8.299 5.724-11.734 16.601-8.586 26.047 2.862 9.444 11.736 16.028 21.754 16.028h41.215c29.767 0 56.1 19.177 65.259 47.512l12.879 38.355c2.29 10.304 11.736 17.745 22.327 17.745 10.304 0.285 19.748-6.869 22.038-17.46z" />
<glyph unicode="&#xe909;" glyph-name="10" d="M876.8 219.201c-5.6 9.598-17.867 12.8-27.467 7.199s-12.8-17.865-7.199-27.467c28.266-47.998 42.933-102.932 42.933-158.932v-64h-331.467l49.067 49.067c5.067 5.065 6.932 12.532 5.067 19.466l-54.4 197.6 23.467 47.734c3.466 7.199 2.4 16-2.934 22.132l-15.2 17.335 20.267 25.6c50.133-1.333 99.466-14.667 143.2-38.668 2.934-1.599 6.4-2.4 9.6-2.4 6.932 0 13.867 3.734 17.599 10.4 5.335 9.6 1.867 21.866-7.999 27.201-46.667 25.6-98.668 40.533-152.001 43.199v35.2c57.068 30.133 96 90.134 96 159.2v82.934h25.334c10.933 0 20 9.066 20 20v69.067c0 109.599-89.334 198.932-198.934 198.932-56.533 0-105.598-32.8-129.065-80.533-64.534-5.333-115.468-59.467-115.468-125.333v-56.267c0-8.8 5.6-16.532 13.867-19.2 8.001-2.4 16.268-4.267 24.267-5.333v-84.799c0-69.067 38.934-128.8 96-159.201v-35.198c-186.933-9.602-336-164.801-336-354.133v-84c0-10.935 9.067-20 20-20h800c10.933 0 20 9.066 20 20v84c0 63.2-16.8 125.066-48.534 179.2zM505.334-15.734l-60.8 60.8 49.333 178.934h22.932l49.335-178.934-60.8-60.8zM534.934 295.467l-15.468-31.466h-28.534l-15.466 31.466 12 13.6h35.466l12.001-13.6zM531.732 920c87.735 0 158.935-71.2 158.935-158.932v-49.067h-158.935c-57.332 0-103.999 46.665-103.999 103.999s46.667 104 103.999 104zM326.932 754.4c0 39.2 26.4 72.001 62.135 82.4-1.067-6.667-1.601-13.6-1.601-20.8 0-29.6 9.068-57.334 24.533-80.266-23.999-18.934-54.932-27.201-85.067-21.868v40.533zM365.332 588.8v84.801c26.935 3.732 52.535 14.665 73.602 32.266 25.066-21.067 57.332-33.867 92.798-33.867h113.601v-83.2c0-77.066-62.933-140-140-140s-140.001 62.667-140.001 140zM505.334 408.8c15.2 0 29.867 1.867 44 5.333v-32.266l-26.134-32.8h-35.732l-26.134 32.8v32.266c14.135-3.466 28.802-5.333 44.001-5.333zM125.333 40.001c0 170.667 136.8 310.132 306.4 314.665l20.267-25.6-15.2-17.333c-5.335-6.134-6.4-14.667-2.934-22.132l23.467-47.734-54.4-197.6c-1.867-6.934 0-14.401 5.065-19.468l49.067-49.067h-331.732v64.268zM540.8 538.933c7.733 7.735 7.733 20.533 0 28.268-7.733 7.733-20.533 7.733-28.266 0-3.734-3.734-10.134-3.734-13.867 0-7.735 7.733-20.535 7.733-28.268 0-7.733-7.735-7.733-20.533 0-28.268 9.6-9.6 22.4-14.665 35.2-14.665 12.8 0.266 25.6 5.065 35.2 14.665zM804 260c5.333 0 10.399 2.133 14.133 5.866 3.732 3.734 5.866 8.801 5.866 14.133 0 5.335-2.133 10.4-5.866 14.135-3.734 3.732-8.8 5.866-14.133 5.866s-10.4-2.133-14.133-5.866c-3.734-3.734-5.868-8.8-5.868-14.135 0-5.332 2.133-10.399 5.868-14.133 3.732-3.732 8.8-5.866 14.133-5.866z" />
<glyph unicode="&#xe90a;" glyph-name="12" d="M959.93 124.85l-49.062 126.796c0 0-4.479 7.393-4.704 7.617l-159.054 158.607 271.065 271.065c8.065 8.065 8.065 21.058 0 28.899l-236.118 236.117c-8.065 8.065-21.058 8.065-28.899 0l-271.065-271.066-249.559 249.56c-36.516 36.515-96.105 36.515-132.621 0l-72.359-72.359c-36.515-36.515-36.515-95.881 0-132.621l249.56-249.559-271.066-271.065c-8.065-8.065-8.065-21.058 0-28.899l236.117-236.118c4.033-4.033 9.185-6.048 14.563-6.048 5.151 0 10.529 2.015 14.561 6.048l271.065 271.065 158.831-158.831c0.223-0.223 4.704-3.809 7.168-4.704l287.867-112.011c2.466-0.895 4.93-1.343 7.393-1.343 5.376 0 10.529 2.015 14.561 6.048 5.825 5.825 7.617 14.338 4.704 21.955l-62.949 160.848zM56.453 756.589c-20.61 20.61-20.61 53.989 0 74.599l72.359 72.359c10.305 10.305 23.746 15.457 37.412 15.457 13.441 0 27.107-5.153 37.411-15.457l78.407-78.407-73.703-73.478-73.478-73.48-78.407 78.408zM163.759 649.284l146.957 146.957 142.254-142.253-146.958-146.958-142.253 142.254zM491.727 356.264c-8.065 8.065-21.060 8.065-28.899 0-8.065-8.065-8.065-21.058 0-28.899l67.879-67.879-51.974-51.972-36.739 36.739c-8.065 8.065-21.058 8.065-28.899 0-8.063-8.065-8.063-21.058 0-28.899l36.741-36.739-51.974-51.972-67.879 67.879c-8.063 8.063-21.058 8.063-28.897 0-8.065-8.065-8.065-21.060 0-28.899l67.879-67.879-51.974-51.972-36.962 36.739c-8.065 8.065-21.060 8.065-28.899 0-8.065-8.065-8.065-21.058 0-28.899l36.739-36.739-31.363-31.363-207.219 207.219 718.211 717.764 207.219-207.221-172.272-172.495-36.739 36.739c-8.065 8.065-21.058 8.065-28.899 0-8.065-8.065-8.065-21.058 0-28.899l36.739-36.739-52.195-51.749-67.879 67.879c-8.065 8.065-21.058 8.065-28.899 0-8.065-8.065-8.065-21.058 0-28.899l67.879-67.879-51.974-51.972-36.739 36.739c-8.065 8.065-21.058 8.065-28.897 0-8.065-8.065-8.065-21.058 0-28.897l36.739-36.741-51.974-51.972-67.877 67.879zM571.030 242.012l146.958 146.958 144.493-144.495-146.956-146.956-144.495 144.493zM870.994 89.006c-8.065-8.065-15.682-16.577-22.85-25.313-2.241-2.689-4.033-5.378-6.050-8.065-2.687-3.584-5.825-7.17-8.288-10.977l-81.32 31.586 131.5 131.5 31.812-81.992c-3.809-2.464-7.168-5.376-10.754-8.065-2.912-2.015-5.599-4.030-8.511-6.271-8.737-6.945-17.25-14.338-25.315-22.18 0 0-0.223 0.002-0.223-0.223zM873.458 29.192c1.12 1.346 2.017 2.912 2.912 4.258 1.343 1.567 2.689 3.359 3.809 4.927 6.048 7.393 12.321 14.785 19.266 21.506l0.223 0.223c6.945 6.722 14.338 13.218 21.955 19.042 1.569 1.343 3.135 2.464 4.927 3.809 1.569 1.12 3.138 2.015 4.481 3.135l36.516-93.641-94.089 36.739z" />
<glyph unicode="&#xe90b;" glyph-name="13" d="M695.155 58.796c-11.448 0-20.814-9.366-20.814-20.812v-39.545c0-11.448-9.366-20.814-20.812-20.814h-420.631v128.834c0 34.341-28.099 62.439-62.44 62.439h-128.833v503.882h632.715v-117.176c0-11.448 9.366-20.814 20.814-20.814 11.446 0 20.814 9.366 20.814 20.814v258.705c0 34.341-28.099 62.439-62.439 62.439h-49.953v16.65c0 36.631-29.97 66.602-66.601 66.602s-66.601-29.971-66.601-66.602v-16.65h-45.789v16.65c0 36.631-29.97 66.602-66.601 66.602s-66.603-29.971-66.603-66.602v-16.65h-45.787v16.65c0 36.631-29.97 66.602-66.602 66.602s-66.602-29.971-66.602-66.602v-16.65h-49.951c-34.341 0-62.439-28.098-62.439-62.439v-666.224c0-5.62 2.289-10.824 6.036-14.778l191.272-191.271c3.954-3.955 9.158-6.035 14.777-6.035h441.444c34.341 0 62.439 28.099 62.439 62.439v39.545c0 11.446-9.368 20.812-20.814 20.812zM512 893.398c0 13.737 11.239 24.976 24.975 24.976s24.975-11.239 24.975-24.976v-16.65h-49.951v16.65zM333.009 893.398c0 13.737 11.237 24.976 24.975 24.976 13.736 0 24.975-11.239 24.975-24.976v-16.65h-49.951v16.65zM154.016 893.398c0 13.737 11.239 24.976 24.976 24.976s24.976-11.239 24.976-24.976v-16.65h-49.951v16.65zM41.626 814.309c0 11.447 9.366 20.813 20.813 20.813h141.528v-16.65c0-13.737-11.239-24.976-24.976-24.976-11.447 0-20.813-9.366-20.813-20.813s9.366-20.813 20.813-20.813c36.632 0 66.602 29.971 66.602 66.602v16.65h137.366v-16.65c0-13.737-11.239-24.976-24.975-24.976-11.448 0-20.814-9.366-20.814-20.813s9.366-20.813 20.814-20.813c36.631 0 66.601 29.971 66.601 66.602v16.65h137.366v-16.65c0-13.737-11.239-24.976-24.975-24.976-11.446 0-20.812-9.366-20.812-20.813s9.366-20.813 20.812-20.813c36.631 0 66.601 29.971 66.601 66.602v16.65h49.953c11.446 0 20.812-9.366 20.812-20.813v-99.903h-632.715v99.903zM191.272 6.971l-120.299 120.3h99.486c11.447 0 20.813-9.366 20.813-20.812v-99.488zM695.155 489.421c-5.411 0-10.822-2.29-14.776-6.038-3.955-3.953-6.035-9.157-6.035-14.776s2.29-10.824 6.035-14.776c3.955-3.955 9.157-6.038 14.776-6.038s10.824 2.29 14.778 6.038c3.955 3.953 6.035 9.157 6.035 14.776s-2.29 10.824-6.035 14.776c-3.955 3.748-9.366 6.038-14.778 6.038zM562.369 574.96h-408.768c-11.447 0-20.813-9.366-20.813-20.812 0-11.448 9.366-20.814 20.813-20.814h408.559c11.448 0 20.814 9.366 20.814 20.814 0 11.446-9.159 20.812-20.605 20.812zM562.369 458.406h-408.768c-11.447 0-20.813-9.368-20.813-20.814s9.366-20.814 20.813-20.814h408.559c11.448 0 20.814 9.368 20.814 20.814s-9.159 20.814-20.605 20.814zM562.369 341.854h-408.768c-11.447 0-20.813-9.366-20.813-20.812 0-11.448 9.366-20.814 20.813-20.814h408.559c11.448 0 20.814 9.366 20.814 20.814 0 11.446-9.159 20.812-20.605 20.812zM983.81 662.493c-18.53 10.689-40.188 13.582-60.951 8.016-20.765-5.566-37.956-18.702-48.673-37.183l-240.232-415.246c-1.341-2.226-2.234-4.897-2.458-7.346l-16.968-151.181c-0.893-7.569 2.902-14.918 9.378-18.702 2.902-1.782 6.25-2.449 9.601-2.449 4.018 0 8.036 1.335 11.385 3.785l122.796 90.175c2.232 1.559 3.797 3.561 5.136 5.788l240.456 415.246c22.104 38.074 8.931 87.056-29.471 109.099zM657.396 98.517l8.931 78.817 55.37-31.838-64.301-46.979zM749.382 173.55l-72.784 41.859 192.901 333.087 72.784-41.859-192.901-333.087zM980.238 572.32l-18.756-32.508-73.007 41.859 18.754 32.508c5.583 9.796 14.737 16.697 25.453 19.593 10.94 2.894 22.104 1.335 31.928-4.231 9.822-5.566 16.744-14.694 19.646-25.383 3.125-10.91 1.563-22.264-4.018-31.838z" />
<glyph unicode="&#xe90c;" glyph-name="14" d="M1010.364 958.33c-2.781 1.113-5.564 1.67-8.626 1.67h-979.477c-2.783 0-5.844-0.557-8.626-1.67-5.287-2.226-9.739-6.678-11.965-11.965-1.113-2.783-1.67-5.843-1.67-8.626v-979.477c0-2.783 0.557-5.845 1.67-8.626 2.226-5.566 6.678-9.74 11.965-11.966 2.783-1.112 5.565-1.669 8.626-1.669h356.175c2.781 0 5.843 0.557 8.626 1.669 5.564 2.226 9.738 6.679 11.964 11.966 1.112 2.781 1.669 5.564 1.669 8.626v601.043h601.043c2.783 0 5.845 0.557 8.626 1.669 5.566 2.226 9.74 6.679 11.966 11.964 1.112 2.783 1.669 5.566 1.669 8.626v356.175c0 2.783-0.557 5.844-1.669 8.626-2.226 5.287-6.679 9.739-11.966 11.965zM814.469 781.913h-604.938l-133.566 133.565h872.070l-133.566-133.565zM178.087 750.469v-604.938l-133.565-133.566v872.070l133.565-133.566zM200.348 104.905l124.383-124.383h-248.766l124.383 124.383zM222.609 145.531v560.417l133.564-133.564v-560.419l-133.564 133.566zM387.617 603.826l-133.564 133.564h560.417l133.566-133.564h-560.419zM855.095 759.652l124.383 124.383v-248.766l-124.383 124.383z" />
<glyph unicode="&#xe90d;" glyph-name="15" d="M990.746 564.593h-53.937l-412.845 389.324c-0.405 0.406-0.811 0.406-0.811 0.811-0.405 0.406-0.405 0.406-0.811 0.811-0.407 0.406-0.813 0.406-0.813 0.811-0.405 0.406-0.811 0.406-0.811 0.406-0.405 0.406-0.811 0.406-1.216 0.406s-0.811 0.406-1.216 0.406c-0.407 0-0.813 0.406-1.218 0.406s-0.811 0.406-1.216 0.406c-0.405 0-0.811 0.406-1.216 0.406s-0.813 0.406-1.218 0.406c-0.405 0-0.811 0-1.216 0.406-0.405 0-0.811 0-1.216 0.406-0.405 0-0.811 0-0.811 0-0.813 0-1.218 0-2.029 0h-0.405c-0.811 0-1.621 0-2.434 0-0.405 0-0.405 0-0.811 0s-1.216 0-1.621-0.406c-0.405 0-0.811 0-0.811-0.406-0.407 0-0.813 0-1.218-0.406-0.405 0-0.811-0.406-0.811-0.406-0.405 0-0.811-0.406-1.216-0.406s-0.811-0.406-0.811-0.406c-0.407 0-0.813-0.406-1.218-0.406s-0.405-0.406-0.811-0.406-0.811-0.406-1.216-0.811c-0.405-0.406-0.405-0.406-0.811-0.811s-0.813-0.406-0.813-0.811c-0.405-0.406-0.811-0.406-0.811-0.811-0.405-0.406-0.405-0.406-0.811-0.406l-404.733-388.513h-62.454c-13.383 0-24.333-10.948-24.333-24.331 0-13.385 10.95-24.333 24.333-24.333h463.132v-530.859h-366.207v455.021c0 13.382-10.95 24.333-24.333 24.333s-24.333-10.95-24.333-24.333v-479.354c0-13.382 10.95-24.333 24.333-24.333h830.554c13.385 0 24.333 10.95 24.333 24.333v555.191h39.339c13.382 0 24.333 10.948 24.333 24.333-0.405 13.382-11.356 24.331-24.738 24.331zM532.075 879.297l145.997-137.479-145.997-143.563v281.042zM713.353 708.158l152.484-143.97h-298.886l146.402 143.97zM483.409 878.486v-280.231l-94.086 92.058c-9.732 9.327-25.143 9.327-34.47-0.405-9.329-9.732-9.329-25.143 0.405-34.47l92.868-91.249h-291.18l326.463 314.298zM902.741-15.334h-158.972v409.195c0 13.382-10.95 24.333-24.333 24.333-13.385 0-24.333-10.95-24.333-24.333v-409.195h-158.974v531.264h366.611v-531.264zM380.806 197.577c13.382 0 24.333 10.95 24.333 24.333v153.295c0 13.385-10.95 24.333-24.333 24.333h-152.89c-13.385 0-24.333-10.948-24.333-24.333v-153.295c0-13.382 10.949-24.333 24.333-24.333h152.89zM252.25 350.871h104.629v-104.629h-104.629v104.629z" />
<glyph unicode="&#xe90e;" glyph-name="16" d="M1004.739 408.235c-1.907 187.113 9.26 112.485-84.432 274.54-30.776 50.114-109.217 28.325-109.217-31.049 0-15.798 1.361-12.256 35.95-114.664v-49.57c-75.716 23.15-84.432-71.086-162.326-135.092-85.522-69.995-13.073-123.651-42.217-260.104h-5.447c-23.15 0-41.942-18.793-41.942-41.944v-62.37c0-23.15 18.791-41.944 41.942-41.944h226.605c23.15 0 41.944 18.793 41.944 41.944v62.37c0 20.428-14.707 37.314-33.774 41.127 1.907 45.757 19.884 83.615 59.376 122.836 69.724 77.621 75.172 34.316 73.537 193.919zM637.050-12.29v62.372h226.605v-62.372h-226.605zM900.696 242.64c-46.301-45.757-68.907-93.965-70.813-150.614h-144.352c27.236 140.264-36.497 176.76 25.873 227.693 30.505 25.056 60.464 65.638 80.619 95.87 17.432 25.873 23.152 32.684 35.952 32.684 8.987 0 16.886-4.903 21.516-13.073 19.066-38.677-122.563-136.182-77.077-165.597 9.804-6.264 22.606-3.54 28.869 6.264 59.103 91.513 110.034 121.201 87.701 173.494-0.544 117.66 7.899 73.537-28.325 176.489-7.899 22.335-7.899 22.335-7.899 25.875 0 17.43 23.15 23.15 31.593 9.533 91.24-157.698 76.806-76.806 78.713-253.569 1.088-138.087 2.723-91.785-62.372-165.051zM132.095 91.208c-19.338-3.813-33.773-20.699-33.773-41.127v-62.372c0-23.15 18.793-41.942 41.943-41.942h226.603c23.152 0 41.944 18.791 41.944 41.942v62.372c0 23.15-18.791 41.944-41.944 41.944h-5.447c-26.146 123.651 22.879 158.786-10.077 221.429h-0.271c-7.082 16.613-27.236 36.768-39.765 45.213-15.525 10.621-69.997 88.516-81.98 104.585-16.886 23.152-46.029 32.413-72.448 24.241v49.57c10.622 52.565 72.721 133.73 2.451 167.502-28.325 13.617-59.375 4.903-75.989-22.333-53.655-93.421-83.342-115.208-83.342-169.41v-195.010c0-74.626 126.648-102.408 132.095-226.603zM366.869-12.29h-226.603v62.372h226.603v-62.372zM41.944 512.821c0 38.677 26.691 59.647 77.623 147.894 10.622 17.157 37.858 4.357 30.777-14.981-42.488-124.741-35.952-78.167-35.134-196.644-22.334-52.565 28.598-81.709 87.7-173.494 6.264-9.806 19.064-12.529 28.871-6.264 9.804 6.264 12.529 19.338 6.264 28.871-57.469 89.333-95.871 111.122-83.343 136.724 4.085 7.626 11.439 12.529 19.61 13.073 16.342 1.090 21.516-10.077 34.589-28.054 31.866-44.122 61.828-84.703 79.258-96.415 64.55-43.578 5.447-100.501 30.505-231.779h-144.352c-5.175 136.726-132.367 182.754-132.367 225.788v195.281zM562.152 698.3l-82.797-82.526-32.411 32.413c-8.172 8.17-21.518 8.17-29.688 0-8.172-8.172-8.172-21.518 0-29.688l47.118-47.118c4.086-4.086 9.533-5.991 14.707-5.991s10.621 2.179 14.707 5.991l97.505 97.232c8.172 8.172 8.172 21.516 0 29.688-7.626 8.17-20.972 8.17-29.142 0zM791.753 949.688c-0.273 0-0.273 0-0.546 0-6.536 1.089-13.073-1.089-17.974-5.72-69.724-69.452-183.3-69.452-253.295 0-7.899 7.898-22.606 7.898-30.232 0-71.632-71.359-188.201-71.359-259.56 0-3.813 3.813-9.806 5.992-15.525 5.992-10.623 0-19.338-7.898-20.7-18.248-28.325-226.060 98.050-554.254 303.681-638.686 2.452-1.090 5.176-1.634 7.899-1.634 2.725 0 5.447 0.544 8.172 1.634 204.814 84.976 330.373 413.172 301.502 638.686-1.361 11.439-11.983 19.61-23.421 17.976zM505.501 334.97c-170.225 77.077-281.349 351.073-273.177 552.892 82.524-56.651 194.737-52.293 272.633 13.073 77.894-65.094 190.653-68.090 271.816-9.26 10.077-201.819-100.774-478.537-271.272-556.705z" />
<glyph unicode="&#xe90f;" glyph-name="17" d="M1011.849 6.952l-214.010 214.010c65.001 78.205 104.203 178.611 104.203 288.016-0.199 248.612-202.405 451.022-451.020 451.022-248.612 0-451.022-202.41-451.022-451.022 0-248.615 202.41-451.020 451.022-451.020 109.405 0 209.811 39.202 288.016 104.203l214.010-214.010c8.198-8.203 18.802-12.203 29.4-12.203s21.202 3.999 29.4 12.203c16.202 16.202 16.202 42.604 0 58.8zM83.204 508.978c0 202.81 165.008 367.618 367.618 367.618s367.615-165.008 367.615-367.618c0-202.609-165.006-367.621-367.615-367.621s-367.618 165.012-367.618 367.621z" />
<glyph unicode="&#xe910;" glyph-name="18" d="M532.48 960h-40.96v-491.52h-491.52v-40.96h491.52v-491.52h40.96v491.52h491.52v40.96h-491.52v491.52z" />
<glyph unicode="&#xe911;" glyph-name="19" d="M127.347 644.925l146.708 293.087c9.846 19.692 33.477 27.569 52.841 17.723 19.692-9.846 27.569-33.477 17.723-52.841l-128.985-257.969h581.253l-128.988 258.297c-9.518 19.364-1.638 43.323 17.725 52.841s43.325 1.641 52.844-17.723l146.703-293.415h48.579c22.646 0 44.303-9.846 59.402-26.913s21.663-39.713 18.708-62.359c-14.771-108.637-52.844-387.61-70.564-517.254-8.207-58.419-58.092-102.067-117.171-102.067h-635.732c-59.077 0-109.293 43.648-117.169 102.067-17.723 129.644-55.795 408.617-70.564 517.254-2.954 22.318 3.61 45.292 18.708 62.359s36.759 26.913 59.405 26.913h48.574zM933.75 566.156h-854.977l70.564-517.25c2.626-19.364 19.364-34.135 39.056-34.135h635.732c19.692 0 36.434 14.444 39.055 34.135l70.569 517.25zM337.071 408.617c0 21.663 17.395 39.385 39.385 39.385 21.661 0 39.385-17.722 39.385-39.385v-236.308c0-21.658-17.723-39.383-39.385-39.383s-39.385 17.725-39.385 39.383v236.308zM597.007 408.617c0 21.663 17.398 39.385 39.388 39.385 21.658 0 39.383-17.722 39.383-39.385v-236.308c0-21.658-17.725-39.383-39.383-39.383-21.663 0-39.388 17.725-39.388 39.383v236.308z" />
<glyph unicode="&#xe912;" glyph-name="20" d="M737.068 840c0-33-27.003-60-60.003-60s-60 27-60 60c0 66.2-53.798 120-119.999 120s-119.999-53.8-119.999-120c0-33-27.001-60-60.001-60s-60 27-60 60c0 66.2-53.8 120-120 120s-120-53.8-120-120v-784.001h60c0 33 27 60 60 60s60-26.999 60-60c0-66.198 53.8-119.999 120-119.999s120.001 53.801 120.001 119.999c0 33 26.999 60 60 60s60-26.999 60-60c0-66.198 53.801-119.999 119.999-119.999 66.202 0 120.003 53.801 120.003 119.999 0 33 26.999 60 60 60s60-26.999 60-60h60v784.001c0 66.2-53.801 120-119.999 120-66.202 0-119.999-53.8-119.999-120zM197.067 159.799c-17.6 10.202-38.2 16.2-60 16.2s-42.4-5.799-60-16.2v680.202c0 33 27 60 60 60s60-27 60-60v-680.202zM377.068 55.999c0-33-27.001-60-60.001-60s-60 26.999-60 60v680.201c17.6-10.2 38.2-16.2 60-16.2s42.398 5.8 60.001 16.2v-680.201zM557.066 159.799c-17.599 10.202-38.199 16.2-60 16.2s-42.4-5.799-60-16.2v680.202c0 33 26.999 60 60 60s60-27 60-60v-680.202zM737.068 55.999c0-33-27.003-60-60.003-60s-60 26.999-60 60v680.201c17.603-10.2 38.202-16.2 60-16.2 21.801 0 42.4 5.8 60.003 16.2v-680.201zM917.067 840v-680.202c-17.599 10.202-38.202 16.2-60 16.2-21.801 0-42.4-5.799-60-16.2v680.202c0 33 26.999 60 60 60s60-27 60-60z" />
<glyph unicode="&#xe913;" glyph-name="21" d="M457.021-7.168c-149.106 0-288.785 72.533-374.192 193.991-85.693 121.458-106.259 277.047-55.415 416.709 51.13 139.378 167.101 245.475 311.066 283.875s297.641 4.551 412.181-90.738c9.426-7.68 15.428-18.773 16.572-31.004 1.138-12.231-2.571-24.178-10.57-33.564-7.714-9.387-19.137-15.076-31.42-16.213-12.282-0.853-24.28 2.844-33.422 10.809-129.397 108.089-315.636 113.778-451.317 14.507-135.681-99.556-185.668-278.471-120.827-433.207 64.841-154.738 227.657-245.476 394.188-219.591 166.533 25.884 293.639 161.849 307.64 329.1 0.853 11.947 6.565 23.324 15.991 31.004 9.426 7.964 21.424 11.662 33.422 10.524s23.137-6.827 31.135-15.929c7.714-9.102 11.713-21.049 10.57-33.28-21.14-235.233-218.516-415.856-455.602-416.993zM560.138 304.299l431.89 430.078c8.858 8.533 13.716 20.196 14 32.427 0 12.231-4.574 23.893-13.426 32.711-8.567 8.533-20.565 13.369-32.848 13.369s-23.996-5.12-32.563-13.938l-431.895-430.364c-9.141-9.102-21.709-13.938-34.277-13.369-12.283 0.284-23.994 5.973-32.278 15.36l-118.828 151.040c-15.71 19.342-43.989 22.756-63.698 7.396s-23.423-43.52-7.998-63.431l119.685-152.176c24.565-29.582 60.557-47.218 99.118-48.924 2 0 3.999 0 6.285 0 35.991-0.284 70.839 14.222 96.833 39.822z" />
<glyph unicode="&#xe914;" glyph-name="22" d="M130.133 114.087h-105.066c-13.79 0-24.953 11.164-24.953 24.952v4.597c0 12.477 9.193 22.984 21.013 24.954 84.053 13.788 158.256 64.352 202.909 137.243-128.706 7.88-227.862 116.885-223.922 244.934 3.94 128.706 109.663 231.146 238.369 231.146 131.332 0 237.71-106.379 237.71-238.369v-83.396c0-190.433-154.971-346.061-346.061-346.061zM266.062 357.71c18.387 0 30.206-18.387 22.984-35.462-28.238-65.008-75.517-119.512-135.93-156.941 153.659 12.477 272.514 140.526 273.171 295.497v82.739c0 76.174-45.966 144.467-116.228 173.36s-151.032 13.133-204.879-40.713c-53.19-53.846-69.606-134.617-40.056-204.222 28.893-70.262 97.843-115.572 173.36-115.572 7.878 0 15.758 0.657 24.296 1.313 0.657 0 1.97 0 3.283 0zM660.059 114.087h-104.408c-13.791 0-24.954 11.164-24.954 24.952v4.597c0 12.477 9.194 22.984 21.014 24.954 84.053 13.788 158.255 64.352 202.251 137.243-128.706 7.88-227.206 116.228-223.265 244.934s109.007 231.146 237.713 231.146c131.332 0 237.71-106.379 238.367-238.369v-83.396c-0.657-190.433-155.628-345.404-346.717-346.061zM795.989 357.71c18.387 0 30.206-18.387 22.984-35.462-28.238-65.008-75.518-119.512-135.929-156.941 153.658 12.477 272.515 140.526 273.172 294.841v83.396c0 76.174-45.966 144.467-116.231 173.36-70.262 28.893-151.031 13.133-204.878-40.713s-69.608-134.617-40.713-204.879c29.549-69.605 98.498-115.572 174.015-115.572 7.88 0 15.758 0.657 24.296 1.313 1.313 0.657 1.97 0.657 3.283 0.657z" />
<glyph unicode="&#xe915;" glyph-name="23" d="M512 710.857c45.714 0 89.143-13.714 130.286-36.571s73.143-54.857 96.004-96c22.85-41.143 36.571-84.571 36.571-130.286 0-48-13.722-91.429-36.571-132.571-22.861-41.143-54.861-73.143-96.004-96s-84.571-34.289-130.286-34.289c-48 0-91.429 11.432-132.571 34.289s-73.143 54.857-96 96c-22.857 41.143-34.286 84.571-34.286 132.571 0 45.714 11.429 89.143 34.286 130.286s54.857 73.143 96 96c41.143 22.857 84.571 36.571 132.571 36.571zM512 276.571c45.714 0 86.857 16 121.143 50.286 32 32 50.286 73.143 50.286 121.143 0 45.714-18.286 86.857-50.286 121.143-34.286 32-75.429 50.286-121.143 50.286-48 0-89.143-18.286-121.143-50.286-34.286-34.286-50.286-75.429-50.286-121.143 0-48 16-89.143 50.286-121.143 32-34.286 73.143-50.286 121.143-50.286zM848.004 722.286c0 16-6.861 29.714-18.286 43.429-13.722 11.429-27.429 18.286-43.432 18.286-18.286 0-32-6.857-43.432-18.286-13.711-13.714-18.282-27.429-18.282-43.429 0-18.286 4.571-32 18.282-43.429 11.432-13.714 25.147-18.286 43.432-18.286 16.004 0 29.711 4.571 41.143 18.286 11.432 11.429 18.286 25.143 20.575 43.429zM1021.718 660.571c0-43.429 2.282-114.286 2.282-212.571 0-100.571-2.282-171.429-4.571-214.857-2.289-43.425-9.143-79.996-18.286-112.004-13.714-38.853-36.571-73.143-64-100.571s-61.711-47.996-98.282-61.711c-32.007-11.432-70.861-18.286-114.289-20.575-43.429-2.282-114.286-2.282-212.571-2.282-100.571 0-171.429 0-214.857 2.282-43.429 2.289-80 9.143-112 22.864-38.857 11.425-73.143 31.993-100.571 59.421s-48 61.718-61.714 100.571c-11.429 32.007-18.286 68.579-20.571 112.004-2.286 43.429-2.286 114.286-2.286 214.857 0 98.286 0 169.143 2.286 212.571s9.143 82.286 20.571 114.286c13.714 36.571 34.286 70.857 61.714 98.286s61.714 50.286 100.571 64c32 9.143 68.571 16 112 18.286s114.286 4.571 214.857 4.571c98.286 0 169.143-2.286 212.571-4.571s82.282-9.143 114.289-18.286c36.571-13.714 70.853-36.571 98.282-64s50.286-61.714 64-98.286c9.143-32 15.996-70.857 20.575-114.286zM912.004 146.286c9.143 25.147 13.707 66.282 18.286 123.429 0 32 2.282 80 2.282 141.714v73.143c0 61.714-2.282 109.714-2.282 141.714-4.579 57.143-9.143 98.286-18.286 123.429-18.286 45.714-52.575 80-98.289 98.286-25.147 9.143-66.282 13.714-123.429 18.286-34.286 0-82.286 2.286-141.714 2.286h-73.143c-61.714 0-109.714-2.286-141.714-2.286-57.143-4.571-98.286-9.143-123.429-18.286-48-18.286-80-52.571-98.286-98.286-9.143-25.143-16-66.286-18.286-123.429-2.286-34.286-2.286-82.286-2.286-141.714v-73.143c0-61.714 0-109.714 2.286-141.714 2.286-57.147 9.143-98.282 18.286-123.429 18.286-47.996 52.571-80.004 98.286-98.289 25.143-9.143 66.286-15.996 123.429-18.286 32-2.282 80-2.282 141.714-2.282h73.143c61.714 0 109.714 0 141.714 2.282 57.147 2.289 98.282 9.143 123.429 18.286 45.714 18.286 80.004 52.575 98.289 98.289z" />
<glyph unicode="&#xe916;" glyph-name="24" d="M536 946c-206 0-408-136-408-358 0-140 78-220 126-220 20 0 32 54 32 70 0 18-48 58-48 136 0 160 122 274 280 274 138 0 238-78 238-220 0-106-42-304-180-304-50 0-94 36-94 86 0 76 54 150 54 228 0 132-188 108-188-52 0-34 4-70 20-102-28-118-84-296-84-418.003 0-37.997 4-73.997 8-112 6-8 4-8 14-3.994 100 137.997 98 165.997 142 345.997 26-46.003 88-72 140-72 212 0 308 208 308 394 0 198-172 328-360 328z" />
<glyph unicode="&#xe917;" glyph-name="25" d="M46.545 482.909c-19.28 0-34.909-15.629-34.909-34.909s15.629-34.909 34.909-34.909v69.818zM1002.138 423.316c13.633 13.633 13.633 35.736 0 49.369l-222.157 222.16c-13.633 13.633-35.738 13.633-49.371 0s-13.633-35.736 0-49.369l197.474-197.476-197.474-197.474c-13.633-13.633-13.633-35.738 0-49.371s35.738-13.633 49.371 0l222.157 222.16zM46.545 413.091h930.909v69.818h-930.909v-69.818z" />
<glyph unicode="&#xe918;" glyph-name="26" d="M977.455 482.932c19.279 0 34.909-15.629 34.909-34.909s-15.63-34.909-34.909-34.909v69.818zM21.861 423.338c-13.633 13.633-13.633 35.736 0 49.369l222.16 222.16c13.633 13.633 35.736 13.633 49.369 0s13.633-35.736 0-49.369l-197.476-197.476 197.476-197.478c13.633-13.629 13.633-35.733 0-49.366s-35.736-13.633-49.369 0l-222.16 222.16zM977.455 413.114h-930.909v69.818h930.909v-69.818z" />
<glyph unicode="&#xe919;" glyph-name="27" d="M40.88 960c-11.2 0-20.4-9.2-20.4-20.4v-826.401c0-97.599 79.6-177.199 177.2-177.199 68.001 0 127.2 38.4 156.8 94.8 29.8-56.4 89-94.8 156.799-94.8 67.801 0 127.201 38.4 156.801 94.8 29.8-56.4 89-94.8 156.799-94.8 97.8 0 177.201 79.6 177.201 177.199v826.401c0 11.2-9.2 20.4-20.4 20.4h-940.8zM961.88 664.199c0-75.198-61.2-136.399-136.401-136.399-75.198 0-136.399 61.2-136.399 136.399v255.001h273v-255.001h-0.201zM375.081 388.801v162.4c32.598-39.201 81.598-64.201 136.399-64.201s103.999 25 136.401 64.201v-163.6c0-75.201-61.2-136.401-136.401-136.401s-136.399 61.2-136.399 136.401v1.2zM648.079 664.199c0-75.198-61.2-136.399-136.399-136.399-75.201 0-136.401 61.2-136.401 136.399v255.001h273l-0.201-255.001zM61.28 919.2h273.001v-255.001c0-75.198-61.2-136.399-136.401-136.399s-136.4 61.2-136.4 136.399l-0.2 255.001zM197.68 486.799c54.8 0 104.001 25 136.4 64.201v-163.6c0-75.201-61.2-136.399-136.4-136.399s-136.4 61.198-136.4 136.399v163.6c32.6-39 81.6-64.201 136.4-64.201zM197.68-23.2c-75.2 0-136.4 61.2-136.4 136.399v161.2c32.6-39.199 81.6-64.199 136.4-64.199s104.001 25 136.4 64.199v-161.2c0.201-75.198-61-136.399-136.4-136.399zM511.48-23.2c-75.201 0-136.399 61.2-136.399 136.399v161.2c32.598-39.199 81.598-64.199 136.399-64.199s103.999 25 136.401 64.199v-161.2c0.199-75.198-61.002-136.399-136.401-136.399zM961.88 113.199c0-75.198-61.2-136.399-136.401-136.399-75.198 0-136.399 61.2-136.399 136.399v161.2c32.6-39.199 81.601-64.199 136.399-64.199 54.8 0 104.002 25 136.401 64.199v-161.2zM961.88 388.801v-1.2c0-75.201-61.2-136.401-136.401-136.401-75.198 0-136.399 61.2-136.399 136.401v163.6c32.6-39.201 81.601-64.201 136.399-64.201 54.8 0 104.002 25 136.401 64.201v-162.4zM923.681 762c11.198 0 20.4 9.2 20.4 20.4v93.8c0 11.2-9.202 20.4-20.4 20.4-11.201 0-20.4-9.2-20.4-20.4v-93.8c0-11.2 8.999-20.4 20.4-20.4zM923.681 680.401c11.198 0 20.4 9.2 20.4 20.398v20.4c0 11.201-9.202 20.4-20.4 20.4-11.201 0-20.4-9.2-20.4-20.4v-20.4c0-11.198 8.999-20.398 20.4-20.398z" />
<glyph unicode="&#xe91a;" glyph-name="28" d="M909.583 688c10.4 0 21.2 2.4 31 7.6 28.201 14.601 66.601 85.6 74.001 99.8 5.2 9.8-1.2 22-12.201 23.4-15.799 2-96 11-124.199-3.8-16-8.4-27.6-22.4-33-39.6-5.2-16.8-3.801-34.4 4-50.2l-43.401-37.2v88.001c29.401 7.199 51.4 33.799 51.4 65.399 0 31.8-45.199 98.6-54.2 111.8-6.199 9-20.2 9-26.399 0-9.001-13-54.2-80-54.2-111.8 0-31.6 21.799-58.2 51.4-65.399v-106.801h-69.4c-8.8 0-16-7.199-16-16v-81l-156 120.001c-19.601 15-47 15-66.401 0l-281.6-216.4c-6.999-5.4-8.399-15.399-2.999-22.4s15.399-8.4 22.4-3l281.399 216.6c8.001 6.2 19.401 6.2 27.401 0l181.801-139.8c10.399-7.999 25.8-0.399 25.8 12.8v97.601h138.999v-229.2c0-5.001 2.4-9.6 6.2-12.8l91.8-70.6c9.8-7.6 11.6-21.601 4.2-31.401-7.4-9.6-21.801-11.6-31.401-4.2l-421.199 324c-5.801 4.4-13.8 4.4-19.601 0l-421.2-324.2c-9.8-7.4-24-5.6-31.4 4.2s-5.6 24.001 4.2 31.399l104.6 80.401c7 5.4 8.4 15.399 3 22.4-5.4 6.999-15.4 8.4-22.4 3l-104.6-80.401c-23.6-18.2-28.2-52.799-10-76.399 18.4-23.801 52.6-28.401 76.4-10.001l411.401 316.6 411.399-316.6c23.6-18.2 58.4-13.599 76.401 10.001 18.4 23.799 13.8 58.199-9.999 76.399l-85.601 65.801v237.401c0 8.8-7.199 16-16 16h-42.199l36.799 31.599c11.6-8.4 25.4-13 39.6-13zM875.785 766c2.799 9.001 8.999 16.401 17.399 20.801 6.2 3.199 21.2 4.599 39.799 4.599 12.8 0 27.401-0.6 41.6-1.8-17.599-30.4-38.4-59.8-48.799-65.2-9.801-5.001-20.801-5.2-30.201-1.2l24.201 20.801c6.799 5.799 7.6 15.799 1.801 22.6-5.801 6.799-15.8 7.6-22.601 1.799l-23.999-20.599c-1.2 5.799-1 12 0.8 18.2zM754.584 841.4c0 11.6 16.601 43.8 35.2 73.4 18.801-29.8 35.2-61.8 35.2-73.4 0-13.6-7.799-25.6-19.2-31.4v31.4c0 8.8-7.2 16-16 16s-16-7.2-16-16v-31.4c-11.401 6-19.2 17.8-19.2 31.4zM499 412.8c-131.4 0-238.401-106.999-238.401-238.399s107.001-238.401 238.401-238.401 238.399 106.999 238.399 238.401c0 131.4-106.999 238.399-238.399 238.399zM623.601 338.801l-67.401-67.401c-2.999-2.999-4.599-6.999-4.599-11.399v-49.401l-6.2-24.399-14.8 29.599c-1.2 2.401-3.2 4.601-5.4 6.2l-46.8 31.2-15.399 46.001c-1.599 4.799-5.4 8.6-10.201 10.199l-45.599 15.2-15.601 25.801c31.401 19.2 68.2 30.199 107.401 30.199 46.8 0.2 89.999-15.601 124.6-41.8zM292.799 174.401c0 9.399 0.601 18.599 1.801 27.599l10.8 4.401 44.001-58.6c2.4-3.2 5.799-5.402 9.6-6.2l80.799-16.2 40.801-40.801-12.401-37.4-67.599-53.999c-64.201 34.799-107.802 102.999-107.802 181.2zM499-32c-22.801 0-44.6 3.801-65.2 10.6l57.999 46.399c2.4 2 4.2 4.601 5.2 7.4l17.2 51.401c2 5.799 0.399 12.199-3.801 16.399l-51.4 51.4c-2.2 2.2-4.999 3.801-8.199 4.4l-79.601 16-47.601 63.601c-4.4 5.799-12 7.999-18.799 5.2l-1.601-0.601c12.001 36 33.801 67.4 62.201 91.6l17.2-28.6c2-3.2 4.999-5.799 8.6-6.999l43.8-14.601 14.599-43.8c1.201-3.4 3.401-6.2 6.4-8.201l47.8-31.8 32.401-64.599c3-6.001 9.8-9.6 16.399-8.8 6.4 0.799 12 5.6 13.6 12l17.2 68.4c0.399 1.2 0.399 2.599 0.399 3.801v44.599l64.2 64.201c22.4-23.4 39.4-52 49-83.801l-46.799-9.4c-6.4-1.2-11.401-6.2-12.6-12.6l-17.2-85.6c-0.8-4.2 0-8.6 2.4-12l34.2-51.4c0.2-0.201 0.399-0.401 0.599-0.8l7.601-10.201c-37.801-50.599-98.2-83.599-166.2-83.599zM682.999 81.2l-30.199 45.201 13.8 68.599 36.799 7.4c1.201-9.201 2-18.4 2-28 0-33.601-7.999-65.201-22.4-93.201z" />
<glyph unicode="&#xe91b;" glyph-name="29" d="M749.947 185.297c-50.584 0-86.527 40.466-86.527 90.062 38.657 27.882 74.518 63.168 100.016 103.633h85.456c35.202 0 63.908 28.706 63.908 63.826v138.095c0 35.204-28.706 63.908-63.908 63.908h-49.431v44.086c0 148.541-120.083 271.092-268.379 271.092h-44.414c-148.214 0-268.297-122.551-268.297-271.174v-44.086h-49.431c-35.203 0-63.908-28.706-63.908-63.908v-138.013c0-35.202 28.705-63.826 63.908-63.826h73.367c26.565-45.812 67.691-84.634 111.775-113.585-3.29-44.661-40.878-80.11-86.279-80.11-147.801 0-267.802-38.987-267.802-218.371 0-17.108 13.818-30.926 30.926-30.926 17.025 0 30.926 13.818 30.926 30.926 0 143.935 95.409 156.602 206.035 156.602 19.411 0 37.998 3.783 54.942 10.61l157.26-113.832c11.268-8.144 26.154-7.649 36.765 0.328l164.991 119.508c20.398-10.61 43.593-16.614 68.103-16.614 110.624 0 206.033-12.667 206.033-156.602 0-17.108 13.818-30.926 30.926-30.926 17.107 0 30.925 13.818 30.925 30.926 0 179.384-120.001 218.371-267.884 218.371zM799.46 582.971h49.431c1.069 0 2.057-0.987 2.057-2.057v-138.013c0-1.069-0.987-2.057-2.057-2.057h-49.431v142.127zM218.371 440.762h-49.431c-1.069 0-2.057 0.987-2.057 2.057v138.095c0 1.069 0.987 2.057 2.057 2.057h49.431v-142.209zM737.116 703.301c-67.034-10.61-135.136 6.498-189.008 46.965 30.925 36.928 53.543 81.426 64.483 130.94 69.582-30.432 119.097-98.369 124.526-177.905zM486.668 898.149h44.414c7.402 0 14.64-0.411 21.878-1.152-26.484-124.607-144.511-209.981-272.327-195.095 6.663 108.734 95.903 196.247 206.035 196.247zM498.182 83.308l-121.482 87.924c16.203 17.519 28.211 38.905 34.545 62.591 35.942-16.366 69.746-25.25 93.845-25.25 24.428 0 61.029 11.105 100.016 31.090 4.852-21.795 14.475-41.782 27.8-58.807l-134.725-97.548zM505.091 270.342c-31.83 0-90.062 23.77-141.303 63.99-37.588 29.528-70.159 67.362-83.648 110.297v195.341c83.071-7.897 162.36 18.012 223.389 66.787 65.717-52.723 150.104-76.409 233.999-65.635v-200.359c-36.93 0-105.279 0-146.321 0-9.377 12.502-24.346 20.645-41.207 20.645-28.458 0-51.488-23.030-51.488-51.488s23.030-51.488 51.488-51.488c16.861 0 31.83 8.060 41.207 20.645h95.573c-9.048-10.364-18.836-20.152-29.033-29.282-54.86-49.266-120.33-79.452-152.655-79.452z" />
<glyph unicode="&#xe91c;" glyph-name="30" d="M816.2 833.2c-81.8 81.8-190.6 126.8-306.199 126.8s-224.601-45-306.401-126.8c-81.8-81.8-126.8-190.599-126.8-306.201 0-233.999 221.2-428.598 340.201-533.199 16.599-14.6 30.799-27 42.199-37.599 14.2-13.402 32.599-20.001 50.801-20.001 18.199 0 36.6 6.6 50.798 20.001 11.402 10.598 25.6 23.199 42.202 37.599 118.799 104.602 340.201 299.2 340.201 533.199-0.202 115.602-45.202 224.401-127.002 306.201zM563.2 38.6c-16.799-14.799-31.401-27.599-43.4-38.999-5.601-5.202-14.2-5.202-19.599 0-12.001 11.2-26.601 24-43.4 38.999-112 98.401-320.001 281.4-320.001 488.399 0 205.601 167.4 373.001 373.201 373.001 205.798 0 373.199-167.4 373.199-373.201-0.2-206.799-208.2-389.798-320-488.2zM510.001 734.2c-105.201 0-190.801-85.601-190.801-190.799 0-105.201 85.6-190.802 190.801-190.802s190.799 85.402 190.799 190.602c0 105.198-85.599 190.999-190.799 190.999zM510.001 412.401c-72.2 0-130.801 58.801-130.801 130.801s58.801 130.798 130.801 130.798c72 0 130.798-58.798 130.798-130.798s-58.798-130.801-130.798-130.801z" />
<glyph unicode="&#xe91d;" glyph-name="31" d="M1005.149 280.202l-488.727 488.728c-6.245 6.245-16.562 6.245-23.079 0l-488.727-488.728c-2.987-2.987-4.616-7.059-4.616-11.404v-65.164c0-8.96 7.331-16.291 16.291-16.291h32.582v-48.873c0-8.96 7.331-16.291 16.291-16.291h879.709c8.96 0 16.291 7.331 16.291 16.291v48.873h32.582c8.96 0 16.291 7.331 16.291 16.291v65.164c0 4.344-1.629 8.417-4.887 11.404zM693.721 447.998l-139.83-139.83v279.661l139.83-139.83zM488.727 666.569l-381.479-381.479h-51.588l433.067 433.067v-51.588zM456.145 587.829v-279.661l-139.83 139.83 139.83 139.83zM244.364 376.047l90.958-90.958h-181.915l90.958 90.958zM381.479 285.089l-114.036 114.036 25.794 25.794 139.83-139.83h-51.588zM488.727 620.411l16.291 16.291 16.291-16.291v-335.322h-32.582v335.322zM716.8 424.92l25.794-25.794-114.036-114.036h-51.588l139.83 139.83zM765.673 376.047l90.958-90.958h-181.915l90.958 90.958zM902.788 285.089l-381.479 381.479v51.588l433.067-433.067h-51.588zM928.582 154.762h-847.127v32.582h847.127v-32.582zM977.455 219.926h-944.873v32.582h944.873v-32.582z" />
<glyph unicode="&#xe91e;" glyph-name="32" d="M741.517 491.843h-17.655c-9.71 0-17.655 7.945-17.655 17.655v70.621c0 9.71 7.945 17.655 17.655 17.655h176.552c9.71 0 17.655-7.945 17.655-17.655v-70.621c0-9.71-7.945-17.655-17.655-17.655h-17.655v-137.71l133.884-94.748c4.709-3.238 7.357-8.828 7.357-14.419v-107.109c0-6.472-3.826-12.652-9.71-15.595-5.884-3.236-12.947-2.648-18.243 1.178l-42.667 30.307v-50.317c0-9.71-7.945-17.655-17.655-17.655h-847.448c-9.71 0-17.655 7.945-17.655 17.655v226.869l-42.667-30.602c-5.297-3.826-12.359-4.119-18.244-1.178-6.179 2.943-9.71 9.122-9.71 15.597v107.107c0 5.591 2.648 11.183 7.356 14.419l547.311 388.708c3.824 2.648 8.533 3.825 13.241 2.943 4.707-0.589 8.828-3.237 11.476-7.062l50.61-71.209c5.591-7.945 3.826-19.127-4.119-24.717l-96.221-68.267v-51.201l211.862-150.362v37.369zM494.345 631.026l-388.414-275.716v-234.226h812.138v57.674l-416.367 295.429c-4.709 3.238-7.357 8.828-7.357 14.419v142.419zM529.655 561.581v-63.852l459.034-325.738v63.559l-459.034 326.031zM560.847 785.214l-525.536-373.112v-63.559l555.55 394.298-30.014 42.372zM776.828 429.462l70.621-50.022v112.698h-70.621v-62.676zM882.759 562.464h-141.241v-35.31h141.241v35.31z" />
<glyph unicode="&#xe91f;" glyph-name="33" d="M1008.075 78.772l-117.855 457.026c-2.167 8.672-10.050 14.782-19.117 14.782h-90.656v100.904c37.052 8.869 64.643 42.176 64.643 81.985 0 38.825-26.213 71.343-61.884 81.197 0 1.577 0.197 3.153 0.197 4.73-0.197 56.562-46.313 102.678-102.874 102.678-17.935 0-35.673-4.73-51.439-13.796-9.459-5.518-12.612-17.54-7.291-27 5.518-9.46 17.539-12.613 26.999-7.292 9.658 5.518 20.497 8.475 31.731 8.475 34.882 0 63.262-28.379 63.262-63.263 0-1.182 0-2.365-0.197-3.547-8.869-1.774-17.344-4.927-25.226-9.46-9.461-5.518-12.614-17.54-7.293-27 5.518-9.46 17.541-12.613 27.001-7.292 6.897 3.942 14.583 5.912 22.467 5.912 24.83 0 44.933-20.102 44.933-44.934 0-24.634-20.103-44.934-44.737-44.934h-103.663c-37.641 0-68.189 30.745-68.189 68.189 0 5.912 0.787 12.022 2.365 17.737 2.759 10.445-3.351 21.284-13.993 24.241-10.445 2.759-21.284-3.35-24.24-13.993-2.365-9.066-3.745-18.525-3.745-27.985 0-0.197 0-0.394 0-0.591-7.488-5.124-16.16-7.883-25.424-7.883-24.832 0-44.933 20.102-44.933 44.934 0 3.942 0.59 7.883 1.576 11.628 2.759 10.445-3.351 21.284-13.993 24.044-10.445 2.759-21.284-3.35-24.043-13.993-1.97-7.095-2.956-14.387-2.956-21.876 0-46.511 37.839-84.349 84.349-84.349 11.825 0 23.059 2.365 33.701 6.897 13.204-31.729 40.992-55.774 74.89-63.657v-101.495h-494.472c-9.066 0-16.752-6.11-19.117-14.782l-118.248-458.208c-1.577-5.913-0.197-12.22 3.547-16.949s9.46-7.686 15.569-7.686h33.898v-59.125c0-10.839 8.868-19.708 19.708-19.708h862.222c10.839 0 19.708 8.869 19.708 19.708v59.125h34.094c10.841 0 19.708 8.867 19.708 19.706 0 2.759-0.394 4.928-0.984 6.899zM855.732 510.967l20.3-78.831h-95.585v78.831h75.285zM741.033 530.675v-133.029h-68.978v251.276h68.978v-118.247zM153.145 510.967h479.494v-78.831h-380.56c-10.839 0-19.708-8.869-19.708-19.708s8.869-19.708 19.708-19.708h380.56v-14.782c0-10.839 8.869-19.706 19.708-19.706h108.392c10.841 0 19.708 8.867 19.708 19.706v14.782h105.832l20.3-78.831h-804.281l50.847 197.078zM915.841 13.342h-822.805v39.415h822.805v-39.415zM935.549 92.173h-890.404l16.555 64.051h758.953c10.839 0 19.708 8.869 19.708 19.708s-8.869 19.708-19.708 19.708h-748.705l20.299 78.831h824.58l47.102-182.299h-28.38zM877.805 195.639h-0.393c-10.841 0-19.708-8.869-19.708-19.708s8.867-19.708 19.708-19.708h0.393c10.839 0 19.708 8.869 19.708 19.708s-8.869 19.708-19.708 19.708zM194.93 392.719h0.394c10.839 0 19.708 8.867 19.708 19.706 0 10.841-8.869 19.708-19.708 19.708h-0.394c-10.839 0-19.708-8.867-19.708-19.708 0-10.839 8.869-19.706 19.708-19.706z" />
<glyph unicode="&#xe920;" glyph-name="34" d="M871.133 744.784l-209.14 209.14c-3.922 3.92-9.213 6.076-14.701 6.076h-439.057c-46.258 0-83.695-37.437-83.695-83.695v-836.363c0-46.063 37.437-83.5 83.695-83.5h585.475c46.061 0 83.694 37.437 83.694 83.697v689.945c-0.196 5.488-2.352 10.781-6.271 14.7zM668.069 888.653l137.794-137.793h-95.849c-23.129 0-41.749 18.817-41.749 41.75v96.044h-0.196zM793.514-1.81h-585.279c-23.129 0-41.75 18.817-41.75 41.752v836.363c0 23.129 18.817 41.75 41.75 41.75h418.084v-125.445c0-46.062 37.437-83.695 83.694-83.695h125.446v-668.973c0-22.935-18.817-41.752-41.945-41.752zM668.085 353.745c-8.43 0-30.972-2.546-60.568-7.448-19.403 15.288-37.83 30.969-49.982 43.121-15.875 15.878-30.183 31.362-42.532 46.061 19.207 59.392 27.637 90.165 27.637 106.432 0 69.388-25.091 83.697-62.724 83.697-28.617 0-62.721-14.898-62.721-85.656 0-31.166 17.054-68.995 50.962-113.097-8.234-25.284-18.033-54.491-29.010-87.419-5.292-15.875-10.976-30.38-17.051-43.905-4.901-2.156-9.606-4.508-14.308-6.664-16.662-8.234-32.342-15.878-47.043-22.738-66.642-31.752-110.744-52.528-110.744-93.887 0-29.989 32.537-48.61 62.722-48.61 38.81 0 97.611 51.942 140.539 139.361 44.491 17.64 99.765 30.579 143.476 38.81 35.084-26.854 73.698-52.725 92.321-52.725 51.745 0 62.721 29.989 62.721 55.077 0 49.589-56.45 49.589-83.694 49.589zM312.722 165.578c-11.956 0-19.993 5.685-20.973 6.664 0 14.898 44.298 35.87 87.028 56.060 2.744 1.37 5.488 2.546 8.232 3.919-31.361-45.67-62.33-66.643-74.287-66.643zM459.139 539.756c0 43.907 13.525 43.907 20.973 43.907 14.701 0 20.973 0 20.973-41.752 0-8.82-5.878-30.969-16.661-65.27-16.661 25.091-25.284 46.847-25.284 63.114zM475.017 315.132c1.373 3.725 2.549 7.254 3.722 10.976 7.841 23.325 14.701 44.101 20.975 62.918 8.624-9.603 18.031-19.403 28.027-29.4 3.922-3.919 13.722-12.742 26.657-23.718-25.677-5.488-53.118-12.543-79.382-20.776zM690.624 290.827c-5.685 1.176-18.817 9.017-35.084 19.993 5.881 0.587 10.193 0.98 12.739 0.98 30.969 0 39.596-2.939 41.752-7.644 0-9.213 0-13.132-19.406-13.329z" />
<glyph unicode="&#xe921;" glyph-name="35" d="M683.098 793.747c-0.198 0-0.397 0-0.397 0h-238.401l55.2 55.921c16.6 16.817 16.6 44.17 0 61.189-16.6 16.817-43.6 16.817-60.4 0l-128-129.672c-1-1.013-2-2.026-2.8-3.242-0.4-0.406-0.8-1.013-1.2-1.621s-1-1.215-1.4-1.823c-0.4-0.608-0.8-1.216-1.2-1.823s-0.8-1.216-1-1.824c-0.4-0.607-0.6-1.215-1-2.026-0.2-0.608-0.6-1.216-0.8-1.824s-0.4-1.215-0.6-2.026c-0.2-0.607-0.6-1.418-0.8-2.026s-0.4-1.216-0.4-2.026c-0.2-0.81-0.4-1.418-0.6-2.229s-0.2-1.418-0.4-2.228c0-0.608-0.2-1.215-0.2-1.823-0.2-1.418-0.2-2.836-0.2-4.255s0-2.836 0.2-4.255c0-0.607 0.2-1.215 0.2-1.823 0.2-0.81 0.2-1.62 0.4-2.228 0.2-0.81 0.4-1.418 0.6-2.229 0.2-0.607 0.4-1.215 0.4-2.026 0.2-0.608 0.4-1.418 0.8-2.026 0.2-0.608 0.4-1.216 0.6-2.026 0.2-0.608 0.6-1.215 0.8-1.823 0.4-0.608 0.6-1.418 1-2.026s0.6-1.216 1-1.823c0.4-0.608 0.8-1.216 1.2-1.823s0.8-1.216 1.4-1.824c0.4-0.607 0.8-1.013 1.2-1.62 0.8-1.013 1.8-2.229 2.8-3.242l128-129.671c16.6-16.817 43.6-16.817 60.4 0 16.6 16.817 16.6 44.169 0 61.188l-55.2 55.921h237.997c0.205 0 0.205 0 0.403 0 141.6 0 256-115.894 256-259.343 0-63.012-24.8-122.175-68.198-166.143-16.602-16.813-16.602-44.166 0-61.19 16.595-16.813 43.597-16.813 60.397 0 59.002 60.384 92.998 141.426 92.998 227.536 0 191.063-152.397 345.656-340.8 345.859zM724.8 151.482c-0.198 0.806-0.198 1.619-0.397 2.227-0.205 0.813-0.403 1.421-0.602 2.227-0.205 0.608-0.403 1.421-0.403 2.029-0.198 0.608-0.397 1.414-0.8 2.022-0.198 0.608-0.397 1.216-0.8 2.029-0.198 0.608-0.595 1.216-0.8 1.824-0.397 0.608-0.595 1.414-0.998 2.022s-0.602 1.216-0.998 1.824c-0.403 0.608-0.8 1.216-1.203 1.824-0.397 0.608-0.8 1.216-1.395 1.824-0.403 0.608-0.8 1.011-1.203 1.619-0.8 1.018-1.798 2.029-2.797 3.040l-128.003 129.674c-16.6 16.817-43.6 16.817-60.4 0-16.6-16.817-16.6-44.17 0-61.187l55.2-55.923h-238c-0.2 0-0.2 0-0.4 0-141.6 0-256 115.894-256 259.344 0 63.012 24.8 122.175 68.2 166.141 16.6 16.817 16.6 44.17 0 61.189-16.6 16.817-43.6 16.817-60.4 0-58.6-59.973-92.6-141.018-92.6-227.331 0-191.062 152.4-345.456 340.8-345.859 0.2 0 0.4 0 0.4 0h238.4l-55.2-55.923c-16.6-16.813-16.6-44.166 0-61.184 16.6-16.819 43.6-16.819 60.4 0l128 129.67c0.998 1.011 1.997 2.022 2.797 3.238 0.403 0.41 0.8 1.018 1.203 1.626s0.998 1.216 1.402 1.824c0.397 0.608 0.8 1.216 1.197 1.824 0.403 0.608 0.8 1.21 1.005 1.818 0.397 0.608 0.595 1.216 0.998 2.029 0.198 0.608 0.595 1.216 0.8 1.824 0.198 0.608 0.397 1.216 0.8 2.029 0.198 0.608 0.595 1.414 0.8 2.022 0.198 0.608 0.397 1.216 0.397 2.029 0.205 0.806 0.403 1.414 0.602 2.227s0.198 1.619 0.403 2.227c0 0.608 0.198 1.216 0.198 1.824 0.198 1.421 0.198 2.835 0.198 4.256s0 2.835-0.198 4.256c-0.403 0.608-0.403 1.216-0.602 1.824z" />
<glyph unicode="&#xe922;" glyph-name="36" d="M950.939 330.17l-148.038 36.876c-48.634 12.025-99.939-5.076-131.204-44.357l-154.718-193.466c-133.076 79.363-244.505 190.525-323.868 323.868l193.466 154.718c39.011 31.264 56.381 82.57 44.357 131.203l-37.142 148.038c-10.691 42.755-49.17 72.95-93.26 72.95h-204.153c-26.722 0-52.375-11.223-70.545-30.73s-27.256-45.427-25.653-71.881c17.102-238.357 119.713-462.818 288.861-631.968 169.148-169.147 393.609-271.758 631.967-288.862 2.139-0.266 4.544-0.266 6.682-0.266 53.175 0.266 96.197 43.289 96.197 96.467v203.884c0 44.36-30.196 82.839-72.95 93.526zM72.597 885.714c6.146 6.68 14.697 10.421 23.782 10.421h203.887c14.696 0 27.522-9.887 30.995-24.317l37.145-148.038c6.147-24.317-2.671-49.97-22.18-65.735l-185.181-148.307c-55.581 109.828-88.449 229.54-96.999 352.46-0.535 8.551 2.405 17.102 8.551 23.515zM959.757 32.759c0-9.087-3.742-17.639-10.421-23.783-6.413-5.881-14.965-9.087-23.783-8.552-122.652 8.552-242.366 41.419-352.192 96.999l148.304 185.183c15.767 19.506 41.419 28.058 65.735 22.177l148.038-37.142c14.163-3.473 24.319-16.299 24.319-30.998v-203.884zM544.066 736.868c141.625-0.267 256.26-114.902 256.53-256.527 0-17.636 14.43-32.066 32.066-32.066s32.066 14.43 32.066 32.066c-0.269 176.897-143.764 320.392-320.661 320.659-17.636 0-32.066-14.43-32.066-32.066s14.163-32.066 32.066-32.066zM544.066 865.14c212.436-0.267 384.524-172.355 384.793-384.793 0-17.636 14.43-32.066 32.066-32.066s32.066 14.43 32.066 32.066c-0.266 247.711-201.213 448.657-448.925 448.925-17.636 0-32.066-14.43-32.066-32.066s14.163-32.066 32.066-32.066z" />
<glyph unicode="&#xe923;" glyph-name="41" d="M1018.748 828.679l-126.683 73.143-402.289-696.78-380.061 219.429-73.143-126.687 506.748-292.569 475.429 823.463z" />
<glyph unicode="&#xe924;" glyph-name="42" d="M707.072 648.738c-14.81 14.811-14.81 38.824 0 53.635s38.825 14.811 53.635 0l214.551-214.543c14.81-14.811 14.81-38.824 0-53.636l-214.543-214.543c-14.81-14.81-38.825-14.81-53.635 0-14.81 14.814-14.81 38.825 0 53.639l149.303 149.302h-818.457c-20.946 0-37.926 16.98-37.926 37.926s16.98 37.926 37.926 37.926h819.439l-150.293 150.293z" />
<glyph unicode="&#xe925;" glyph-name="43" d="M279.294 648.738c14.811 14.811 14.811 38.824 0 53.635s-38.824 14.811-53.635 0l-214.55-214.543c-14.811-14.811-14.811-38.824 0-53.636l214.542-214.543c14.811-14.81 38.824-14.81 53.635 0 14.811 14.814 14.811 38.825 0 53.639l-149.304 149.302h818.458c20.946 0 37.926 16.98 37.926 37.926s-16.979 37.926-37.926 37.926h-819.439l150.293 150.293z" />
<glyph unicode="&#xe926;" glyph-name="44" d="M512 960c-40.395 0-73.143-32.747-73.143-73.143v-365.714h-365.714c-40.396 0-73.143-32.747-73.143-73.143s32.747-73.143 73.143-73.143h365.714v-365.715c0-40.397 32.748-73.143 73.143-73.143s73.143 32.746 73.143 73.143v365.715l365.714 0.001c40.397 0 73.143 32.747 73.143 73.143s-32.746 73.143-73.143 73.143l-365.714-0.001v365.714c0 40.396-32.748 73.143-73.143 73.143z" />
<glyph unicode="&#xe927;" glyph-name="45" d="M690.941 803.472c-26.661 26.66-69.885 26.66-96.545 0s-26.659-69.884 0-96.544l156.531-156.528h-682.66c-37.703 0-68.267-30.564-68.267-68.267s30.564-68.267 68.267-68.267h715.79l-189.65-189.651c-26.659-26.66-26.659-69.884 0-96.543s69.884-26.658 96.541 0l289.635 289.63c26.658 26.66 26.658 69.884 0 96.544-0.3 0.296-0.594 0.588-0.894 0.877l-288.748 288.749z" />
<glyph unicode="&#xe928;" glyph-name="46" d="M722.657 960.033l96.543-96.544-386.177-386.176 386.177-386.177-96.543-96.543-482.719 482.722 482.719 482.718z" />
<glyph unicode="&#xe929;" glyph-name="47" d="M941.866 287.732c-62.666 0-124.265 9.868-182.665 29.068-29.068 9.868-62.134 2.134-81.068-17.066l-115.2-86.935c-133.599 71.201-215.731 153.6-286.131 286.134l84.531 112.268c21.867 21.867 29.601 53.867 20.268 83.733-19.468 58.667-29.068 120.267-29.068 182.934 0 45.333-36.799 82.133-82.132 82.133h-188.268c-45.333 0-82.133-36.8-82.133-82.133 0-519.467 422.4-941.867 941.866-941.867 45.335 0 82.134 36.799 82.134 82.134v187.466c0 45.333-36.799 82.132-82.134 82.132zM967.201 18.134c0-13.868-11.466-25.335-25.335-25.335-487.999 0-885.066 397.068-885.066 885.067 0 13.867 11.467 25.334 25.334 25.334h188c13.866 0 25.332-11.467 25.332-25.334 0-68.8 10.668-136.267 32-200.267 2.935-9.332 0.535-19.2-9.065-29.065l-97.868-129.601c-6.667-8.799-7.467-20.266-2.667-30.134 79.733-156.8 176.799-253.866 334.667-334.666 9.6-5.066 21.332-4.001 30.134 2.667l132.534 100.266c6.665 6.668 16.798 9.067 25.865 6.135 64.268-21.334 132.001-32 200.799-32 13.868 0 25.335-11.466 25.335-25.335v-187.732z" />
<glyph unicode="&#xe92a;" glyph-name="48" d="M970.477 261.131l-103.041 84.415c-67.218 54.967-171.24 49.815-232.572-11.533l-4.166-4.171c-10.305-10.305-26.99-10.305-37.047 0l-198.961 199.009c-10.058 10.061-10.304 26.256-0.49 36.562 0.245 0.246 0.245 0.491 0.49 0.491l-0.49-0.491c0.245 0.246 0.245 0.246 0.49 0.491 60.842 61.592 66.729 166.127 13.493 233.608l-83.656 105.762c-53.972 67.972-147.197 73.371-208.529 12.024l-15.455-15.46c-108.435-108.706-134.195-304.77-52.5-435.071 0 0 48.084-111.407 210.001-273.361s273.295-210.049 273.295-210.049c131.497-79.506 326.284-55.954 434.968 52.758l14.719 14.719c61.084 61.106 56.428 155.33-10.547 210.297zM906.935 124.696l-14.719-14.724c-74.58-74.596-216.382-91.772-306.661-37.053l-6.133 3.681-6.624 2.948c-8.095 3.433-28.456 14.476-59.124 35.085-54.463 36.568-115.795 86.868-181.788 152.878s-116.285 127.111-152.84 181.588c-20.608 30.673-31.648 51.040-35.082 59.138l-3.189 7.361-4.17 6.871c-54.954 87.603-37.045 230.173 38.025 305.507l15.456 15.459c16.928 16.932 37.29 15.95 52.255-2.945l83.657-105.761c20.608-26.011 17.909-71.408-5.888-95.21-50.538-51.286-50.292-133.735 0.49-184.531l198.961-199.010c51.027-51.038 133.949-51.038 185.225 0l4.166 4.171c23.309 23.315 66.732 25.277 92.246 4.419l103.036-84.415c19.138-15.705 20.119-38.034 2.7-55.458z" />
<glyph unicode="&#xe92b;" glyph-name="49" d="M512 35.908c-7.2 0-14.4 2.002-20.8 5.803-339.6 205.801-491.2 380.2-491.2 565 0 161.6 115 296.4 276 296.4 85.2 0 159.8-38 216-109.8 7.4-9.6 14.2-19.2 20-28.4 6 9.2 12.6 18.8 20 28.4 56.203 71.8 130.801 109.8 215.998 109.8 161.001 0 276.002-134.8 276.002-296.4 0-184.8-151.598-359-491.2-565-6.399-3.8-13.6-5.803-20.8-5.803zM276 823.111c-117.4 0-196-100-196-216.4 0-75.6 34.6-150.8 105.6-230.2 70.8-78.999 177.6-162 326.4-253.603 148.599 91.602 255.602 174.802 326.4 253.603 70.997 79.4 105.603 154.6 105.603 230.2 0 116.4-78.603 216.4-196.005 216.4-60.399 0-111.997-26.6-152.798-79-31.4-40.4-44.8-81.4-45-81.8-5.2-16.8-20.6-28-38.2-28s-33 11.4-38.2 28c0 0.4-13.8 42.6-46.4 83.6-40.6 51.2-91.6 77.2-151.4 77.2z" />
<glyph unicode="&#xe92c;" glyph-name="50" d="M438.519 960c-241.795 0-438.519-196.725-438.519-438.519 0-241.792 196.725-438.821 438.519-438.821 103.235 0 198.249 36.238 273.161 96.228l182.716-182.414c19.189-18.267 49.641-17.966 68.215 0.614 18.881 18.876 19.183 49.027 0.916 68.21l-182.721 182.716c59.995 75.218 96.233 170.233 96.233 273.468 0 241.795-197.029 438.519-438.519 438.519zM438.519 862.551c188.806 0 341.069-151.959 341.069-341.071 0-188.806-151.956-341.376-341.069-341.376-188.807 0-341.071 152.57-341.071 341.376 0 189.112 151.959 341.071 341.071 341.071z" />
<glyph unicode="&#xe92d;" glyph-name="51" d="M482.801 951.015l-458.641-325.462c-15.175-10.781-24.16-28.154-24.16-46.721v-572.653c0-31.548 25.558-57.306 57.305-57.306h907.698c31.548 0 57.306 25.559 57.306 57.306v572.653c0 18.567-8.985 35.939-24.161 46.721l-458.641 325.462c-16.972 11.98-39.734 11.98-56.706 0zM313.081 314.868l-253.18-261.968v475.613l253.18-213.644zM359.006 276.132l130.785-110.218c12.379-10.383 30.547-10.383 42.926 0l130.785 110.218 258.373-267.358h-821.242l258.372 267.358zM709.225 314.868l253.183 213.644v-475.613l-253.183 261.968zM943.438 591.012l-419.106-353.815c-7.586-6.39-18.57-6.39-26.156 0l-419.307 353.815 413.315 293.114c11.384 7.987 26.557 7.987 37.938 0l413.316-293.114z" />
<glyph unicode="&#xe92e;" glyph-name="52" d="M512 960c-282.326 0-512-229.674-512-512s229.674-512 512-512 512 229.674 512 512-229.674 512-512 512zM670.166 417.834l-213.334-213.332c-8.32-8.32-19.242-12.502-30.166-12.502-10.922 0-21.846 4.182-30.166 12.502-16.682 16.682-16.682 43.648 0 60.33l183.17 183.168-183.168 183.168c-16.682 16.682-16.682 43.648 0 60.33s43.648 16.682 60.33 0l213.334-213.334c16.682-16.682 16.682-43.646 0-60.33z" />
<glyph unicode="&#xe92f;" glyph-name="53" d="M512 960c-282.764 0-512-229.236-512-512s229.236-512 512-512 512 229.236 512 512-229.236 512-512 512zM512 21.334c-235.636 0-426.666 191.030-426.666 426.666s191.030 426.666 426.666 426.666 426.666-191.030 426.666-426.666-191.030-426.666-426.666-426.666zM456.836 691.504c-16.662 16.662-43.678 16.662-60.34 0s-16.662-43.678 0-60.34l183.164-183.164-183.164-183.164c-16.662-16.662-16.662-43.678 0-60.34s43.678-16.662 60.34 0l213.334 213.334c16.662 16.662 16.662 43.678 0 60.34l-213.334 213.334z" />
<glyph unicode="&#xe930;" glyph-name="54" d="M1024 564.368l-372.078 24.462-140.126 352.032-140.126-352.032-371.67-24.462 285.068-242.052-93.544-367.178 320.272 202.442 320.274-202.442-93.544 367.178z" />
<glyph unicode="&#xe931;" glyph-name="55" d="M1024 564.362l-371.866 24.456-140.134 352.040-140.134-352.042-371.866-24.456 285.316-241.86-93.604-367.358 320.288 202.43 320.288-202.43-93.6 367.342 285.312 241.878zM512 228.552l-224.928-142.16 65.654 257.662-201.068 170.17 261.942 17.206 98.4 247.196 98.4-247.198 262.248-17.204-201.378-170.154 65.658-257.678-224.928 142.16z" />
<glyph unicode="&#xe932;" glyph-name="56" d="M1024 448c0-40.396-32.747-73.143-73.143-73.143h-877.714c-40.396 0-73.143 32.747-73.143 73.143s32.747 73.143 73.143 73.143h877.714c40.396 0 73.143-32.747 73.143-73.143z" />
</font>
</defs>
</svg>
