<?xml version="1.0" standalone="no"?>
<!DOCTYPE svg PUBLIC "-//W3C//DTD SVG 1.1//EN" "http://www.w3.org/Graphics/SVG/1.1/DTD/svg11.dtd" >
<svg xmlns="http://www.w3.org/2000/svg" xmlns:xlink="http://www.w3.org/1999/xlink" version="1.1">
<metadata>
Created by FontForge 20170731 at Sat Oct 22 10:45:09 2022
 By Aleksey,,,
Copyright (c) 2016 by THOMAS GILLETT. All rights reserved.
</metadata>
<defs>
<font id="Gordita-Medium" horiz-adv-x="1206" >
  <font-face 
    font-family="Gordita Medium"
    font-weight="500"
    font-stretch="normal"
    units-per-em="2048"
    panose-1="0 0 0 0 0 0 0 0 0 0"
    ascent="1638"
    descent="-410"
    x-height="1018"
    cap-height="1493"
    bbox="-416 -680 2773 2157"
    underline-thickness="94"
    underline-position="-284"
    unicode-range="U+000D-FB04"
  />
<missing-glyph horiz-adv-x="1523" 
d="M172 0v1493h1258v-1493h-1258zM1346 1409h-1100l1100 -1333v1333z" />
    <glyph glyph-name="ff" unicode="ff" horiz-adv-x="1458" 
d="M1155 817v-817h-227v817h-453v-817h-229v817h-195v201h195v119q0 109 29.5 193t82.5 132q107 94 265 94q86 0 127 -16v-192q-32 8 -82 8q-86 0 -144 -58q-49 -53 -49 -159v-121h453v119q0 227 112 325q104 94 263 94q85 0 129 -16v-192q-36 8 -82 8q-88 0 -144 -58
q-51 -51 -51 -159v-121h268v-201h-268z" />
    <glyph glyph-name="fi" unicode="fi" horiz-adv-x="1306" 
d="M928 817h-455v-817h-227v817h-195v201h195v119q0 109 29.5 193t82.5 132q107 94 265 94q86 0 127 -16v-192q-32 8 -82 8q-61 0 -119 -35q-76 -49 -76 -182v-121h682v-1018h-227v817zM891 1348q0 61 45 106q42 45 104 45t107 -45q43 -43 43 -106q0 -62 -43 -105
q-45 -45 -107 -45q-59 0 -104 45t-45 105z" />
    <glyph glyph-name="fl" unicode="fl" horiz-adv-x="1306" 
d="M473 817v-817h-227v817h-195v201h195v119q0 109 29.5 193t82.5 132q107 94 265 94q86 0 127 -16v-192q-32 8 -82 8q-61 0 -119 -35q-76 -49 -76 -182v-121h455v536h227v-1554h-227v817h-455z" />
    <glyph glyph-name="ffi" unicode="ffi" horiz-adv-x="1986" 
d="M1608 817h-453v-817h-227v817h-453v-817h-229v817h-195v201h195v119q0 109 29.5 193t82.5 132q107 94 265 94q86 0 127 -16v-192q-32 8 -82 8q-86 0 -144 -58q-49 -53 -49 -159v-121h453v119q0 227 112 325q104 94 263 94q85 0 129 -16v-192q-36 8 -82 8q-88 0 -144 -58
q-51 -51 -51 -159v-121h680v-1018h-227v817zM1571 1348q0 61 45 106q42 45 104 45q65 0 107 -45q45 -45 45 -106q0 -60 -45 -105t-107 -45q-59 0 -104 45t-45 105z" />
    <glyph glyph-name="ffl" unicode="ffl" horiz-adv-x="1986" 
d="M1155 817v-817h-227v817h-453v-817h-229v817h-195v201h195v119q0 109 29.5 193t82.5 132q107 94 265 94q86 0 127 -16v-192q-32 8 -82 8q-86 0 -144 -58q-49 -53 -49 -159v-121h453v119q0 227 112 325q104 94 263 94q85 0 129 -16v-192q-36 8 -82 8q-88 0 -144 -58
q-51 -51 -51 -159v-121h453v536h227v-1554h-227v817h-453z" />
    <glyph glyph-name=".notdef" horiz-adv-x="1523" 
d="M172 0v1493h1258v-1493h-1258zM1346 1409h-1100l1100 -1333v1333z" />
    <glyph glyph-name=".null" horiz-adv-x="0" 
 />
    <glyph glyph-name="nonmarkingreturn" horiz-adv-x="634" 
 />
    <glyph glyph-name="NULL" horiz-adv-x="0" 
 />
    <glyph glyph-name="NULL" horiz-adv-x="0" 
 />
    <glyph glyph-name="CR" unicode="&#xd;" horiz-adv-x="503" 
 />
    <glyph glyph-name="space" unicode=" " horiz-adv-x="503" 
 />
    <glyph glyph-name="exclam" unicode="!" horiz-adv-x="593" 
d="M174 1493h246v-227l-21 -805h-204l-21 805v227zM147 135q0 -61 43 -104t107 -43q61 0 104 43q45 45 45 104q0 62 -45 107t-104 45q-62 0 -107 -45q-43 -43 -43 -107z" />
    <glyph glyph-name="quotedbl" unicode="&#x22;" horiz-adv-x="884" 
d="M387 1325q0 -28 -8 -55l-80 -385h-104l-82 385q-7 32 -7 55q0 70 39.5 114t102.5 44q62 0 100.5 -44t38.5 -114zM586 885l-80 385q-8 40 -8 55q0 69 39.5 113.5t101.5 44.5q63 0 101 -43.5t38 -114.5q0 -25 -6 -55l-82 -385h-104z" />
    <glyph glyph-name="numbersign" unicode="#" horiz-adv-x="1579" 
d="M1384 580v-185h-290l-86 -395h-199l88 395h-375l-86 -395h-198l86 395h-250v185h291l79 364h-249v184h290l80 365h199l-80 -365h373l80 365h198l-80 -365h250v-184h-291l-79 -364h249zM938 580l80 364h-377l-80 -364h377z" />
    <glyph glyph-name="dollar" unicode="$" horiz-adv-x="1220" 
d="M1133 422q0 -151 -111 -275q-54 -60 -139.5 -100.5t-186.5 -52.5v-189h-151v189q-105 12 -193.5 53.5t-146.5 102.5q-116 125 -131 272l225 61q22 -110 86.5 -182t161.5 -92v440l-53 10q-182 41 -277 148q-98 107 -98 256q-1 80 32.5 157.5t91.5 136.5t137 98.5t165 47.5
v197h151v-199q197 -24 299 -137q94 -104 115 -219l-217 -70q-18 71 -70 129t-129 82v-428l35 -8q196 -40 300 -151t104 -277zM547 887v403q-78 -14 -137 -76q-54 -60 -54 -129q0 -67 52 -122q50 -59 135 -74zM694 618v-411q87 15 144 69q55 55 55 132q0 80 -52 133t-147 77z
" />
    <glyph glyph-name="percent" unicode="%" horiz-adv-x="1669" 
d="M645 1409q98 -98 98 -238q0 -138 -98 -239q-98 -98 -237 -98t-240 98q-98 101 -98 239q0 140 98 238q101 98 240 98t237 -98zM236 0l972 1493h224l-971 -1493h-225zM510 1069q43 43 43 102q0 60 -43 103t-102 43q-63 0 -103 -43q-43 -43 -43 -103q0 -59 43 -102
q40 -43 103 -43q59 0 102 43zM1597 328q0 -145 -98 -240q-98 -98 -237 -98q-140 0 -238 98q-100 97 -100 240q0 138 100 235q98 101 238 101q139 0 237 -101q98 -95 98 -235zM1407 328q0 56 -43 102q-44 41 -102 41q-59 0 -103 -41q-43 -46 -43 -102q0 -63 43 -103
q40 -43 103 -43q62 0 102 43q43 40 43 103z" />
    <glyph glyph-name="ampersand" unicode="&#x26;" horiz-adv-x="1390" 
d="M1061 0l-123 143q-205 -161 -383 -161q-193 0 -324 96q-66 47 -102.5 123.5t-36.5 173.5q0 118 71.5 213.5t225.5 191.5l-86 101q-52 59 -80 127.5t-28 126.5q0 155 116 268t293 113q163 0 289 -111q123 -111 123 -260q0 -102 -56 -186t-178 -158l-94 -56l266 -307
q109 130 152 258h219q-55 -201 -240 -409l248 -287h-272zM745 1262q-55 55 -137 55t-137 -55q-55 -52 -55 -127q0 -41 14 -75t51 -77l82 -94l139 84q97 57 97 162q0 73 -54 127zM559 190q116 0 248 105l-295 344q-73 -44 -125 -94q-63 -60 -63 -139q0 -143 116 -191
q56 -25 119 -25z" />
    <glyph glyph-name="quotesingle" unicode="'" horiz-adv-x="491" 
d="M195 885l-82 385q-7 35 -7 55q0 69 39.5 113.5t102.5 44.5q62 0 100.5 -44t38.5 -114q0 -28 -8 -55l-80 -385h-104z" />
    <glyph glyph-name="parenleft" unicode="(" horiz-adv-x="761" 
d="M723 -133l-98 -127q-256 146 -392 383q-139 242 -139 551v55q0 309 139 557q142 245 392 385l98 -125q-189 -136 -305 -350q-109 -210 -109 -467v-53q0 -253 107 -458.5t307 -350.5z" />
    <glyph glyph-name="parenright" unicode=")" horiz-adv-x="761" 
d="M137 -260l-96 127q199 145 305.5 350t106.5 459v53q0 257 -109 467q-108 208 -303 350l96 125q253 -141 391 -385q140 -244 140 -557v-55q0 -311 -138 -551q-142 -241 -393 -383z" />
    <glyph glyph-name="asterisk" unicode="*" horiz-adv-x="952" 
d="M643 737l-170 226l-164 -226l-129 94l162 226l-264 88l51 149l262 -86v285h166v-285l264 86l51 -149l-264 -88l162 -226z" />
    <glyph glyph-name="plus" unicode="+" horiz-adv-x="1181" 
d="M696 203h-211v391h-399v207h399v385h211v-385h400v-207h-400v-391z" />
    <glyph glyph-name="comma" unicode="," horiz-adv-x="571" 
d="M141 -311v106q76 15 125 76q48 57 51 137q-25 -14 -57 -14q-62 0 -102 43q-41 41 -41 102q0 65 47 109q44 41 112 41q87 0 132 -60q47 -59 47 -145q3 -147 -83.5 -260.5t-230.5 -134.5z" />
    <glyph glyph-name="hyphen" unicode="-" horiz-adv-x="884" 
d="M752 735v-231h-619v231h619z" />
    <glyph glyph-name="period" unicode="." horiz-adv-x="557" 
d="M113 156q0 71 49 120q53 50 117 50q65 0 118 -50q47 -47 47 -120q0 -70 -47 -117q-49 -49 -118 -49q-66 0 -117 51q-49 46 -49 115z" />
    <glyph glyph-name="slash" unicode="/" horiz-adv-x="1028" 
d="M743 1554h228l-682 -1564h-228z" />
    <glyph glyph-name="zero" unicode="0" horiz-adv-x="1456" 
d="M1055 86q-143 -104 -328 -104q-187 0 -328 102q-147 107 -221 274q-76 174 -76 390q0 157 45 298t127 244q83 105 201.5 164t255.5 59q187 0 328 -100q148 -108 221 -276q76 -171 76 -387q0 -214 -76 -388q-79 -175 -225 -276zM932 1223q-93 75 -205 75q-115 0 -203 -73
q-87 -73 -133.5 -197t-46.5 -278q-2 -148 46 -274.5t138.5 -202.5t202.5 -74q116 0 203 75q85 71 133 197q47 127 47 277q0 151 -47 275t-135 200z" />
    <glyph glyph-name="one" unicode="1" horiz-adv-x="880" 
d="M457 1241l-334 -201l-109 179l455 274h223v-1493h-235v1241z" />
    <glyph glyph-name="two" unicode="2" horiz-adv-x="1267" 
d="M96 0l-2 63q-3 328 357 541l231 135q117 68 171 139.5t54 168.5q0 107 -76 180q-77 71 -200 71q-88 0 -154.5 -39t-99.5 -104q-28 -58 -31 -160l-237 31q-3 101 43 203t137 176q62 51 152.5 81t193.5 30q116 0 215.5 -39t165.5 -105q133 -136 133 -321q0 -136 -74 -252
q-72 -118 -205 -195l-272 -160q-11 -7 -29 -19t-24 -15q-35 -25 -60 -45q-76 -64 -98 -152h776v-213h-1067z" />
    <glyph glyph-name="three" unicode="3" horiz-adv-x="1280" 
d="M627 -16q-115 0 -215.5 36t-169.5 99q-142 127 -164 315l227 41q9 -121 96 -199q87 -81 226 -81q169 0 256 122q47 62 47 152q0 112 -82 182q-84 66 -203 66q-85 0 -145 -31l-111 174l440 422h-704v211h1012v-197l-410 -387q203 -10 327.5 -134.5t121.5 -301.5
q0 -113 -44.5 -206.5t-121.5 -155.5q-155 -127 -383 -127z" />
    <glyph glyph-name="four" unicode="4" horiz-adv-x="1357" 
d="M827 0v330h-768v262l711 901h287v-950h223v-213h-223v-330h-230zM827 543v690l-546 -690h546z" />
    <glyph glyph-name="five" unicode="5" horiz-adv-x="1243" 
d="M608 -16q-72 0 -141 14.5t-135.5 47.5t-119.5 81t-90.5 119t-49.5 157l225 50q7 -68 41.5 -122t83.5 -83q95 -53 190 -53q109 0 199 69q45 35 72.5 92.5t27.5 124.5q0 134 -88 213q-88 76 -211 76q-170 0 -278 -123l-213 82l174 764h792v-211h-626l-92 -401q71 62 176 82
q61 10 123 10q221 0 356 -135q131 -134 131 -351q0 -115 -43.5 -211.5t-120.5 -160.5q-75 -63 -174.5 -97t-208.5 -34z" />
    <glyph glyph-name="six" unicode="6" horiz-adv-x="1306" 
d="M809 1307q-100 0 -189 -43t-151 -117q-123 -151 -139 -359h4q64 90 170 142q107 49 219 49q110 0 205.5 -39t161.5 -111q129 -138 129 -337q0 -146 -76 -267q-73 -115 -201 -182q-122 -61 -272 -61q-137 0 -248 56t-180 155q-140 201 -140 471q-2 199 63 377.5t189 297.5
q83 83 201.5 130t255.5 47q218 0 367 -82l-78 -203q-125 76 -291 76zM672 774q-128 0 -219 -82q-95 -83 -95 -207q0 -129 91 -211q88 -79 223 -79q133 0 219 77q86 80 86 209q0 133 -86 213t-219 80z" />
    <glyph glyph-name="seven" unicode="7" horiz-adv-x="1173" 
d="M852 1280h-797v213h1067v-193l-686 -1300h-270z" />
    <glyph glyph-name="eight" unicode="8" horiz-adv-x="1294" 
d="M647 -16q-212 0 -371 104q-79 52 -125.5 136.5t-46.5 183.5q0 117 74 217q73 102 205 145q-108 37 -178 131q-68 92 -68 203q0 90 44.5 169.5t119.5 131.5q72 53 163 82t183 29q129 0 244 -50q116 -49 192 -143q74 -95 74 -219q0 -105 -67 -199q-62 -91 -179 -135
q134 -43 207 -145q72 -97 72 -217q0 -118 -66 -210.5t-174 -144.5q-135 -69 -303 -69zM369 1085q0 -92 82 -159q82 -64 196 -64q122 0 201 64q76 61 76 159t-82 162q-79 64 -197 64q-122 0 -199 -62q-77 -65 -77 -164zM338 430q0 -99 90 -174q88 -70 219 -70q132 0 221 68
q88 69 88 176q0 102 -90 174q-95 70 -221 70q-132 0 -217 -70q-90 -69 -90 -174z" />
    <glyph glyph-name="nine" unicode="9" horiz-adv-x="1302" 
d="M502 188q101 0 190 43.5t150 118.5q125 153 137 363h-4q-65 -96 -172 -146q-105 -51 -225 -51q-133 -2 -246 61t-179.5 176.5t-64.5 250.5q0 113 43.5 209.5t120.5 162.5q75 66 175 103t208 37q163 0 284.5 -80t190.5 -217q92 -171 92 -394q2 -198 -61 -374.5
t-183 -296.5q-84 -81 -200 -126.5t-252 -45.5q-235 0 -375 79l76 203q130 -76 295 -76zM627 721q129 0 223 82q92 83 92 207q0 132 -90 213q-89 80 -225 80q-129 0 -215 -80q-84 -78 -84 -209q0 -134 82 -213q86 -80 217 -80z" />
    <glyph glyph-name="colon" unicode=":" horiz-adv-x="598" 
d="M133 866q0 70 49 119t117 49q70 0 119 -49q47 -47 47 -119q0 -69 -47 -116q-50 -50 -119 -50q-67 0 -117 50q-49 49 -49 116zM133 156q0 71 49 120q53 50 117 50q66 0 119 -50q47 -47 47 -120q0 -70 -47 -117q-49 -49 -119 -49q-66 0 -117 51q-49 46 -49 115z" />
    <glyph glyph-name="semicolon" unicode=";" horiz-adv-x="614" 
d="M139 866q0 70 49 119t117 49q70 0 119 -49q47 -47 47 -119q0 -69 -47 -116q-50 -50 -119 -50q-67 0 -117 50q-49 49 -49 116zM164 -311v106q77 16 123 76q51 60 51 137q-21 -14 -55 -14q-65 0 -105 43q-39 39 -39 102q0 67 45 109q44 41 113 41q85 0 133 -60
q45 -57 45 -145q2 -95 -34.5 -179.5t-109 -143t-167.5 -72.5z" />
    <glyph glyph-name="less" unicode="&#x3c;" horiz-adv-x="1263" 
d="M1116 1184v-221l-754 -332l754 -332v-225l-1044 473v168z" />
    <glyph glyph-name="equal" unicode="=" horiz-adv-x="1196" 
d="M1059 1069v-211h-922v211h922zM1059 537v-211h-922v211h922z" />
    <glyph glyph-name="greater" unicode="&#x3e;" horiz-adv-x="1263" 
d="M901 631l-754 332v221l1045 -469v-168l-1045 -473v225z" />
    <glyph glyph-name="question" unicode="?" horiz-adv-x="1095" 
d="M315 999l-239 9q-4 62 -4 79q0 128 67 226q64 96 176 151q113 52 232 52q84 0 168.5 -29t152.5 -80q69 -51 110.5 -128t41.5 -163q0 -210 -201 -356q-84 -59 -131 -113q-65 -77 -65 -186h-213q-13 50 -13 90q0 121 74 209q40 45 154 137q71 50 110 100t39 113
q0 80 -69 137q-68 53 -156 53q-102 0 -170 -71t-68 -174q0 -16 4 -56zM412 242q-43 -43 -43 -107q0 -61 43 -104t104 -43q64 0 107 43t43 104q0 64 -43 107q-45 45 -107 45q-59 0 -104 -45z" />
    <glyph glyph-name="at" unicode="@" horiz-adv-x="1652" 
d="M1188 225q-57 0 -125 33q-65 38 -88 86q-41 -56 -105 -86q-64 -31 -120 -31q-87 0 -160 49q-74 49 -111 121q-39 68 -39 150q-3 174 111.5 305.5t275.5 130.5q69 0 129 -45q33 -21 54 -68l20 105h209l-80 -475q-18 -115 68 -115q79 0 155 98q72 101 72 238
q0 109 -42 206.5t-118 168.5q-75 70 -184 110.5t-233 40.5q-133 0 -250 -51q-126 -55 -207 -139q-90 -87 -141 -207q-54 -127 -54 -254q0 -125 44 -238t124 -200q84 -90 206 -140.5t267 -50.5q102 0 207 33.5t193 99.5l65 -104q-76 -67 -213 -111q-133 -43 -252 -43
q-224 0 -399 99q-172 100 -272 274q-95 170 -95 379q0 160 62 305q65 142 168 248q107 104 248 164q140 61 299 61q192 0 358 -84q161 -84 254 -231q92 -151 92 -334q0 -108 -32 -202.5t-87 -160.5q-54 -64 -126 -99.5t-148 -35.5zM848 784q-80 0 -135 -67q-56 -65 -56 -148
q3 -57 39 -102q39 -45 103 -45q74 0 129 67q53 68 53 154q0 62 -36.5 101.5t-96.5 39.5z" />
    <glyph glyph-name="A" unicode="A" horiz-adv-x="1492" 
d="M379 350l-139 -350h-240l608 1493h277l604 -1493h-244l-137 350h-729zM461 559h567l-285 709z" />
    <glyph glyph-name="B" unicode="B" horiz-adv-x="1400" 
d="M190 1493h572q217 0 348 -104q131 -107 131 -289q0 -77 -41 -160q-49 -105 -174 -162q159 -51 227 -164q56 -101 56 -196q0 -186 -135 -303q-136 -115 -396 -115h-588v1493zM422 860h295q146 0 217 62q74 62 74 153q0 96 -70.5 151.5t-208.5 55.5h-307v-422zM424 211h358
q140 0 216.5 61t76.5 164q0 101 -78.5 160t-228.5 59h-344v-444z" />
    <glyph glyph-name="C" unicode="C" horiz-adv-x="1607" 
d="M842 -18q-170 -2 -329 73.5t-265 210.5q-73 91 -114.5 214.5t-41.5 260.5q0 164 62 312q62 145 165 245q105 99 244 158q142 60 289 60q117 0 224.5 -30.5t187.5 -82.5q81 -58 135 -117q105 -119 143 -260l-231 -80q-17 79 -74 162q-39 54 -86 90q-50 42 -130 69t-171 27
q-201 0 -354 -147q-73 -71 -115.5 -175t-42.5 -222q0 -119 42 -224.5t114 -175.5q71 -70 163 -108.5t191 -38.5q84 0 160 25.5t129 66.5q56 46 90 90q64 86 88 172l231 -80q-53 -185 -205 -315q-132 -113 -297 -156q-99 -24 -202 -24z" />
    <glyph glyph-name="D" unicode="D" horiz-adv-x="1550" 
d="M1460 745q3 -160 -68 -315.5t-206 -265.5q-94 -76 -228.5 -120t-289.5 -44h-478v1493h474q238 0 409 -92q164 -91 256 -232q131 -199 131 -424zM1214 745q3 108 -46 219.5t-142 192.5q-65 55 -160.5 87t-206.5 32h-235v-1059h233q111 0 206.5 31t160.5 84q62 53 109 121
q81 131 81 292z" />
    <glyph glyph-name="E" unicode="E" horiz-adv-x="1263" 
d="M190 1493h957v-213h-723v-414h657v-213h-657v-440h729v-213h-963v1493z" />
    <glyph glyph-name="F" unicode="F" horiz-adv-x="1222" 
d="M424 844h661v-217h-661v-627h-234v1493h953v-217h-719v-432z" />
    <glyph glyph-name="G" unicode="G" horiz-adv-x="1626" 
d="M1516 1061l-230 -72q-29 109 -131 201q-54 49 -134 77.5t-171 28.5q-145 0 -262 -69q-118 -74 -185 -199t-67 -280q-3 -149 63 -275.5t185.5 -201t263.5 -72.5q186 0 303 94t141 242h-534v213h788v-82q0 -139 -48.5 -263.5t-135.5 -218.5q-89 -95 -221.5 -147.5
t-290.5 -52.5q-222 0 -393 98q-179 104 -271 272q-94 175 -94 389q0 162 60 310q56 142 157 243q103 103 244.5 161.5t298.5 58.5q131 0 245.5 -37.5t197 -101t139 -144.5t82.5 -172z" />
    <glyph glyph-name="H" unicode="H" horiz-adv-x="1587" 
d="M424 645v-645h-234v1493h234v-627h739v627h236v-1493h-236v645h-739z" />
    <glyph glyph-name="I" unicode="I" horiz-adv-x="614" 
d="M424 1493v-1493h-234v1493h234z" />
    <glyph glyph-name="J" unicode="J" horiz-adv-x="1202" 
d="M555 -16q-224 0 -354 127q-133 127 -133 340v157h229v-145q0 -123 74 -191q72 -69 172 -69q109 0 178 69q70 70 70 179v1042h235v-1042q0 -204 -133 -334q-133 -133 -338 -133z" />
    <glyph glyph-name="K" unicode="K" horiz-adv-x="1355" 
d="M424 0h-234v1493h234v-645l596 645h311l-667 -715l706 -778h-317l-629 705v-705z" />
    <glyph glyph-name="L" unicode="L" horiz-adv-x="1128" 
d="M190 1493h234v-1276h674v-217h-908v1493z" />
    <glyph glyph-name="M" unicode="M" horiz-adv-x="1984" 
d="M1794 0h-233v1118h-5l-466 -1118h-199l-465 1114h-6v-1114h-230v1493h318l483 -1155h2l475 1155h326v-1493z" />
    <glyph glyph-name="N" unicode="N" horiz-adv-x="1638" 
d="M1450 0h-262l-766 1143v-1143h-232v1493h271l758 -1137v1137h231v-1493z" />
    <glyph glyph-name="O" unicode="O" horiz-adv-x="1716" 
d="M92 743q0 162 62 304q58 143 163 245q100 103 246 162q139 62 297 62q206 0 385 -101q176 -99 277 -276q102 -175 102 -389q0 -163 -61 -306t-164 -243q-104 -101 -246 -160q-145 -59 -299 -59q-155 0 -297 59q-140 55 -244 156q-100 100 -161 243q-60 142 -60 303z
M338 748q-2 -109 38.5 -210.5t110.5 -176t167.5 -118.5t203.5 -42q105 0 202 42.5t169 116.5q70 74 109.5 176.5t39.5 211.5q0 151 -67 276q-70 125 -191 199q-119 73 -262 73q-142 3 -263 -71.5t-190.5 -202t-66.5 -274.5z" />
    <glyph glyph-name="P" unicode="P" horiz-adv-x="1300" 
d="M1241 1028q0 -198 -139 -334q-68 -67 -175 -104t-237 -37h-266v-553h-234v1493h529q161 0 272.5 -53.5t173.5 -147.5q76 -118 76 -264zM1004 1024q0 47 -14 88t-46 79.5t-95 61.5t-151 23h-274v-508h274q164 0 238 84q68 77 68 172z" />
    <glyph glyph-name="Q" unicode="Q" horiz-adv-x="1720" 
d="M1493 -31l-182 160q-203 -147 -457 -147q-155 0 -297 59q-140 55 -244 156q-100 100 -161 243q-60 142 -60 303q0 162 62 304q58 143 163 245q100 103 246 162q139 62 297 62q155 0 297 -60q144 -60 244 -160q103 -103 164 -243q59 -145 59 -303q0 -261 -154 -465
l170 -146zM338 748q0 -148 68 -275q67 -125 188 -199q119 -73 264 -73q150 0 277 80l-277 237l150 172l282 -250q88 137 88 308q0 151 -67 276q-70 125 -191 199q-119 73 -262 73q-142 3 -263 -71.5t-190.5 -202t-66.5 -274.5z" />
    <glyph glyph-name="R" unicode="R" horiz-adv-x="1372" 
d="M735 567h-311v-567h-234v1493h562q132 0 233.5 -38t161.5 -105q113 -130 113 -318q0 -148 -76 -258t-219 -160l331 -614h-260zM424 778h303q81 0 140.5 22t92 59t47.5 78.5t15 88.5q0 48 -12.5 88.5t-43 79t-91.5 60.5t-148 22h-303v-498z" />
    <glyph glyph-name="S" unicode="S" horiz-adv-x="1241" 
d="M633 -16q-123 0 -227.5 37.5t-172.5 101.5q-138 128 -153 297l227 61q24 -131 111 -209q86 -77 219 -77q112 0 192 59q78 60 78 149q0 85 -59 141.5t-162 78.5l-184 36q-178 37 -277 148q-100 109 -100 258q-3 118 65 223.5t182.5 167.5t243.5 60q282 -3 414 -170
q74 -89 96 -199l-219 -68q-22 89 -98 156q-77 68 -186 68q-110 0 -183 -64q-75 -63 -75 -152q0 -67 51 -124q53 -56 137 -74l188 -37q197 -40 302.5 -152t105.5 -280q0 -169 -133 -299q-66 -63 -166 -100t-217 -37z" />
    <glyph glyph-name="T" unicode="T" horiz-adv-x="1257" 
d="M512 0v1276h-475v217h1184v-217h-476v-1276h-233z" />
    <glyph glyph-name="U" unicode="U" horiz-adv-x="1507" 
d="M1335 1493v-913q0 -268 -147 -430q-145 -168 -436 -168q-143 0 -256 44.5t-183 125.5q-139 160 -139 417v924h234v-915q0 -171 96 -275q97 -100 252 -100q165 0 254 102q90 104 90 264v924h235z" />
    <glyph glyph-name="V" unicode="V" horiz-adv-x="1474" 
d="M37 1493h260l444 -1223l449 1223h248l-566 -1493h-268z" />
    <glyph glyph-name="W" unicode="W" horiz-adv-x="2238" 
d="M45 1493h250l336 -1161l358 1161h260l363 -1161l342 1161h244l-457 -1493h-266l-357 1167h-2l-358 -1167h-264z" />
    <glyph glyph-name="X" unicode="X" horiz-adv-x="1396" 
d="M696 586l-420 -586h-272l555 768l-522 725h280l383 -545l383 545h277l-520 -723l551 -770h-279z" />
    <glyph glyph-name="Y" unicode="Y" horiz-adv-x="1431" 
d="M598 0v596l-561 897h270l410 -670l411 670h269l-563 -891v-602h-236z" />
    <glyph glyph-name="Z" unicode="Z" horiz-adv-x="1267" 
d="M887 1282h-785v211h1069v-201l-815 -1081h832v-211h-1116v203z" />
    <glyph glyph-name="bracketleft" unicode="[" horiz-adv-x="817" 
d="M748 1653v-180h-353v-1530h353v-183h-566v1893h566z" />
    <glyph glyph-name="backslash" unicode="\" horiz-adv-x="1028" 
d="M967 -10h-228l-682 1564h230z" />
    <glyph glyph-name="bracketright" unicode="]" horiz-adv-x="817" 
d="M420 -57v1530h-350v180h565v-1893h-565v183h350z" />
    <glyph glyph-name="asciicircum" unicode="^" horiz-adv-x="1179" 
d="M328 860h-238l412 633h176l414 -633h-236l-266 416z" />
    <glyph glyph-name="underscore" unicode="_" horiz-adv-x="1026" 
d="M1026 -133v-203h-1026v203h1026z" />
    <glyph glyph-name="grave" unicode="`" horiz-adv-x="559" 
d="M516 1192h-197l-276 328h276z" />
    <glyph glyph-name="a" unicode="a" horiz-adv-x="1095" 
d="M963 0h-222q-10 48 -10 139q-51 -83 -131 -121q-79 -36 -168 -36q-151 0 -246 86q-96 84 -96 215v10q1 101 54.5 168.5t142.5 101.5q103 41 225 41h127q94 0 94 86q0 66 -51 111q-54 45 -150 45q-90 0 -149.5 -46.5t-71.5 -123.5l-207 47q9 73 70 154q62 80 160 122
q82 39 207 39q286 0 381 -209q34 -72 34 -180v-485q0 -92 7 -164zM731 412v32h-219q-74 0 -133 -36q-62 -41 -62 -105q0 -63 45 -101t117 -38q118 0 185 67t67 181z" />
    <glyph glyph-name="b" unicode="b" horiz-adv-x="1298" 
d="M1214 512q0 -139 -61 -258q-66 -124 -180 -195q-122 -75 -264 -75q-84 0 -187 47q-99 45 -149 125v-156h-221v1552h227v-684q49 79 147 125q96 45 189 45q111 0 207 -45.5t161 -122.5q131 -160 131 -358zM375 510q0 -132 86 -227q87 -93 219 -93q134 0 221 93
q84 93 84 227q0 136 -84 229q-86 92 -221 92q-133 0 -219 -92q-86 -95 -86 -229z" />
    <glyph glyph-name="c" unicode="c" horiz-adv-x="1161" 
d="M614 -18q-109 -1 -208 40t-170.5 112.5t-112.5 170t-39 207.5q0 142 70 264q69 122 192 193q120 69 270 69q185 0 310 -96q125 -92 161 -231l-204 -68q-18 65 -78 125q-69 66 -189 66q-124 0 -213 -89q-86 -89 -86 -231q0 -140 84 -233q87 -93 217 -93q195 0 269 195
l207 -68q-35 -124 -152 -223q-126 -110 -328 -110z" />
    <glyph glyph-name="d" unicode="d" horiz-adv-x="1298" 
d="M82 510q0 98 35 191t98 169q66 77 164 122.5t211 45.5q85 0 178 -43q100 -41 152 -123v680h227v-1552h-223v160q-38 -62 -105 -105q-69 -40 -129 -55q-62 -16 -106 -16q-142 0 -258 75q-115 72 -181 195q-63 123 -63 256zM922 510q0 136 -84 229q-86 92 -222 92
q-133 0 -219 -92q-86 -95 -86 -229q0 -132 86 -227q87 -93 219 -93q135 0 222 93q84 93 84 227z" />
    <glyph glyph-name="e" unicode="e" horiz-adv-x="1173" 
d="M1090 442h-775q3 -111 94.5 -189.5t204.5 -76.5q101 0 171.5 43t99.5 129l190 -59q-27 -92 -97.5 -164.5t-164.5 -108.5q-93 -34 -197 -34q-108 -2 -207.5 39t-171 112t-113.5 170t-40 207q0 141 66 264q69 125 184 193q118 71 262 71q235 0 365 -145q133 -145 133 -381
q0 -30 -4 -70zM598 844q-107 0 -180 -64q-75 -63 -90 -166h534q-6 103 -80 168q-77 62 -184 62z" />
    <glyph glyph-name="f" unicode="f" horiz-adv-x="778" 
d="M475 817v-817h-229v817h-195v201h195v119q0 109 29.5 193t82.5 132q107 94 265 94q86 0 127 -16v-192q-32 8 -82 8q-86 0 -144 -58q-49 -53 -49 -159v-121h266v-201h-266z" />
    <glyph glyph-name="g" unicode="g" horiz-adv-x="1290" 
d="M578 -8q-104 0 -198.5 42.5t-158.5 115.5q-65 73 -102 167.5t-37 194.5q0 95 35 186.5t98 167.5q63 77 160.5 122.5t208.5 45.5q87 0 180 -41q102 -48 154 -131v156h221v-1012q0 -155 -74 -276q-78 -124 -197 -179q-122 -61 -280 -61q-250 0 -402 152q-79 79 -100 192
l213 62q18 -83 98 -142q79 -61 183 -61q65 0 123 18t105.5 53.5t75 95t27.5 136.5v168q-37 -61 -104 -103q-67 -40 -125 -55q-65 -14 -104 -14zM915 516q0 135 -84 225q-81 90 -219 90q-137 0 -221 -90t-84 -225t86 -227q85 -94 219 -94t219 94q84 93 84 227z" />
    <glyph glyph-name="h" unicode="h" 
d="M840 0v569q0 118 -58 186t-168 68q-109 0 -172 -69t-63 -187v-567h-227v1552h227v-663q44 56 104 94q66 37 109 45q52 10 92 10q189 0 285 -114q96 -111 96 -297v-627h-225z" />
    <glyph glyph-name="i" unicode="i" horiz-adv-x="530" 
d="M160 1243q-45 45 -45 105q0 61 45 106q42 45 104 45q65 0 107 -45q43 -43 43 -106q0 -62 -43 -105q-45 -45 -107 -45q-59 0 -104 45zM152 0v1018h227v-1018h-227z" />
    <glyph glyph-name="j" unicode="j" horiz-adv-x="544" 
d="M131 1348q0 63 43 106q45 45 105 45q63 0 108 -45q43 -43 43 -106q0 -62 -43 -105q-48 -45 -108 -45t-105 45q-43 43 -43 105zM166 -143v1161h227v-1174q0 -181 -73.5 -264.5t-227.5 -83.5q-71 0 -145 19v192q49 -6 73 -6q146 0 146 156z" />
    <glyph glyph-name="k" unicode="k" horiz-adv-x="1105" 
d="M379 498v-498h-227v1552h227v-936h2l395 402h309l-460 -461l485 -557h-301l-424 498h-6z" />
    <glyph glyph-name="l" unicode="l" horiz-adv-x="530" 
d="M379 1552v-1552h-227v1552h227z" />
    <glyph glyph-name="m" unicode="m" horiz-adv-x="1857" 
d="M821 0v571q0 119 -55 186.5t-162 67.5t-164 -69q-61 -73 -61 -189v-567h-227v1018h221v-137q47 62 106 98q62 40 105 51q52 10 94 10q219 0 313 -166q72 81 160 127q79 39 195 39q188 0 282 -118q88 -113 88 -293v-629h-227v573q0 119 -54 185.5t-163 66.5
q-107 0 -164 -69q-61 -70 -61 -187v-569h-226z" />
    <glyph glyph-name="n" unicode="n" 
d="M840 0v569q0 118 -58 186t-168 68q-109 0 -172 -69t-63 -187v-567h-227v1018h221v-137q45 60 108 98q61 37 109 49q52 10 94 10q189 0 285 -114q96 -111 96 -297v-627h-225z" />
    <glyph glyph-name="o" unicode="o" horiz-adv-x="1239" 
d="M82 510q0 146 74 270q78 128 196 191q122 67 271 67q144 0 266 -67q121 -66 196 -189q72 -126 72 -268q3 -144 -70 -268.5t-198 -195.5t-268 -68q-143 0 -269 69q-118 63 -196 191q-74 124 -74 268zM315 514q0 -134 86 -229q88 -97 222 -97q133 0 219 95q84 93 84 227
q0 137 -86 229q-83 95 -219 95q-135 0 -222 -93q-84 -90 -84 -227z" />
    <glyph glyph-name="p" unicode="p" horiz-adv-x="1298" 
d="M1214 512q0 -139 -61 -258q-66 -124 -180 -195q-122 -75 -264 -75q-108 0 -226 67q-66 40 -104 99v-652h-227v1520h221v-158q61 98 170 141q93 37 172 37q111 0 207 -45.5t161 -122.5q131 -160 131 -358zM375 510q0 -132 86 -227q87 -93 219 -93q134 0 221 93
q84 93 84 227q0 136 -84 229q-86 92 -221 92q-133 0 -219 -92q-86 -95 -86 -229z" />
    <glyph glyph-name="q" unicode="q" horiz-adv-x="1298" 
d="M82 510q0 98 35 191t98 169q66 77 164 122.5t211 45.5q117 0 231 -71q67 -42 103 -101v152h223v-1520h-227v654q-41 -60 -107 -99q-67 -40 -125 -55q-65 -14 -104 -14q-142 0 -258 75q-115 72 -181 195q-63 123 -63 256zM922 510q0 136 -84 229q-86 92 -222 92
q-133 0 -219 -92q-86 -95 -86 -229q0 -132 86 -227q87 -93 219 -93q135 0 222 93q84 93 84 227z" />
    <glyph glyph-name="r" unicode="r" horiz-adv-x="749" 
d="M709 1022v-234q-31 7 -64 7q-128 0 -197 -72t-69 -205v-518h-227v1018h223v-158q43 80 117.5 123t160.5 43q24 0 56 -4z" />
    <glyph glyph-name="s" unicode="s" horiz-adv-x="944" 
d="M483 -18q-116 1 -200.5 40.5t-132.5 102.5q-62 79 -68 154l194 51q16 -73 69.5 -117.5t135.5 -44.5q68 0 106 32t38 87q0 84 -121 112l-129 31q-132 30 -201.5 107.5t-69.5 183.5q0 130 105 225q105 94 256 94q215 -3 313 -135q52 -69 62 -137l-191 -53q-15 63 -61 102
t-123 39q-56 0 -98 -33q-41 -28 -41 -82q0 -42 27.5 -69.5t74.5 -36.5l139 -29q137 -31 213 -112q76 -85 76 -195q0 -60 -23 -115.5t-67.5 -101t-117.5 -73t-165 -27.5z" />
    <glyph glyph-name="t" unicode="t" horiz-adv-x="811" 
d="M727 1018v-205h-258v-485q0 -68 36.5 -99.5t119.5 -31.5q40 0 92 8v-195q-75 -20 -162 -20q-160 0 -236 73q-77 74 -77 252v498h-197v205h197v315h227v-315h258z" />
    <glyph glyph-name="u" unicode="u" 
d="M369 1018v-569q0 -119 56.5 -186.5t166.5 -67.5q109 0 172 69t63 187v567h228v-1018h-221v137q-46 -61 -107 -98q-53 -35 -111 -49q-39 -10 -94 -10q-121 0 -209.5 54t-130.5 148q-41 86 -41 209v627h228z" />
    <glyph glyph-name="v" unicode="v" horiz-adv-x="1150" 
d="M690 0h-227l-430 1018h246l299 -754l299 754h239z" />
    <glyph glyph-name="w" unicode="w" horiz-adv-x="1677" 
d="M1186 297h2l215 721h233l-327 -1018h-234l-235 715h-4l-238 -715h-231l-326 1018h235l216 -719h2l231 719h227z" />
    <glyph glyph-name="x" unicode="x" horiz-adv-x="1087" 
d="M543 354l-256 -354h-260l387 514l-373 504h260l244 -338l246 338h256l-373 -500l385 -518h-260z" />
    <glyph glyph-name="y" unicode="y" horiz-adv-x="1167" 
d="M483 115l-452 903h258l317 -668l293 668h246l-699 -1520h-241z" />
    <glyph glyph-name="z" unicode="z" horiz-adv-x="1007" 
d="M635 819h-539v199h824v-180l-562 -641h564v-197h-840v188z" />
    <glyph glyph-name="braceleft" unicode="{" horiz-adv-x="858" 
d="M252 184l31 209q18 131 -54 178q-62 41 -176 41h-14v185h14q111 0 176 43q72 48 54 178l-31 211q-41 241 86 338q116 86 346 86h102v-180h-90q-104 -1 -156 -26.5t-67 -78.5q-10 -52 -8 -96q8 -84 14 -125l23 -152q2 -30 2 -63.5t-15 -69t-38.5 -66t-68.5 -54.5t-106 -35
q60 -11 105.5 -36t69 -55.5t38.5 -66t15 -68t-2 -61.5l-23 -154q-12 -91 -14 -139q-2 -53 16 -100q19 -43 70 -64t145 -22h90v-181h-102q-66 0 -119.5 5.5t-104 19t-86.5 36t-66 55t-44 76.5t-19.5 102t7.5 130z" />
    <glyph glyph-name="bar" unicode="|" horiz-adv-x="579" 
d="M397 1700v-1921h-215v1921h215z" />
    <glyph glyph-name="braceright" unicode="}" horiz-adv-x="858" 
d="M575 393l31 -209q13 -72 7 -130t-19.5 -102t-44 -76.5t-66.5 -55t-86 -36t-103.5 -19t-119.5 -5.5h-102v181h92q97 0 158 28q44 17 65 82q12 36 4 131q-3 34 -12 84l-25 154q-6 39 0.5 79t28.5 83.5t73 77t126 47.5q-61 11 -106 35t-68.5 54.5t-38.5 66t-15 69t2 63.5
l23 152q6 41 14 125q3 32 0 51q-9 62 -24 82q-55 68 -205 68h-92v180h102q66 0 120.5 -6t104 -19.5t86 -36.5t65.5 -56t43.5 -77.5t19.5 -101t-7 -127.5l-31 -211q-18 -129 56 -178q62 -43 174 -43h14v-185h-14q-114 0 -174 -41q-74 -49 -56 -178z" />
    <glyph glyph-name="asciitilde" unicode="~" horiz-adv-x="1210" 
d="M805 393q-50 0 -111 25q-49 20 -102 53q-50 35 -96 53q-55 25 -93 25q-86 0 -147 -88l-131 123q105 182 278 182q54 0 121 -25q53 -21 105 -53q53 -36 92 -53q52 -25 84 -25q82 0 147 86l131 -123q-106 -180 -278 -180z" />
    <glyph glyph-name="uni00A0" unicode="&#xa0;" horiz-adv-x="503" 
 />
    <glyph glyph-name="exclamdown" unicode="&#xa1;" horiz-adv-x="563" 
d="M131 891q0 61 43 104q46 43 107 43q63 0 106 -43t43 -104q0 -64 -43 -107q-45 -45 -106 -45q-60 0 -105 45q-45 42 -45 107zM403 -467h-243v227l18 803l207 2l18 -805v-227z" />
    <glyph glyph-name="cent" unicode="&#xa2;" horiz-adv-x="1181" 
d="M895 383l207 -68q-36 -116 -133 -206q-114 -105 -281 -123v-181h-143v183q-198 27 -324 174q-129 144 -129 350q0 196 129 346q128 146 324 176v180h143v-180q155 -15 268 -108q110 -90 140 -215l-205 -68q-17 61 -68 115t-137 69v-632q144 24 209 188zM387 717
q-61 -82 -61 -203q0 -118 61 -203q60 -85 160 -112v624q-96 -23 -160 -106z" />
    <glyph glyph-name="sterling" unicode="&#xa3;" horiz-adv-x="1306" 
d="M1008 422l225 -21q0 -175 -107 -288t-280 -113h-733v203q99 49 170 139q69 90 69 197q0 34 -10 96h-221v194h155q-59 160 -59 254t39 177t102 137q132 116 324 116q194 3 327 -109.5t132 -287.5l-230 -39q0 94 -61 158q-66 63 -164 63q-99 0 -162 -63q-63 -60 -63 -158
q0 -47 10 -86q12 -48 21 -76q6 -13 32 -86h414v-194h-350q6 -29 6 -74q0 -214 -182 -350h393q96 0 149 65q54 63 54 146z" />
    <glyph glyph-name="currency" unicode="&#xa4;" horiz-adv-x="1280" 
d="M184 516q0 127 74 242l-162 166l140 139l167 -172q112 65 238 65q125 0 236 -63l167 170l140 -141l-162 -164q74 -109 74 -242q0 -62 -17 -116t-55 -121l-4 -7l166 -163l-139 -140l-168 172q-133 -65 -238 -65q-108 0 -238 65l-167 -172l-140 142l164 163
q-76 110 -76 242zM813 688q-71 68 -174 68t-174 -68q-70 -70 -70 -174q0 -100 70 -170q68 -68 174 -68t174 68t68 170q0 106 -68 174z" />
    <glyph glyph-name="yen" unicode="&#xa5;" horiz-adv-x="1443" 
d="M1290 748v-175h-450v-151h450v-174h-450v-248h-238v248h-448v174h448v151h-448v175h368l-452 745h270l383 -662l383 662h268l-456 -745h372z" />
    <glyph glyph-name="brokenbar" unicode="&#xa6;" horiz-adv-x="575" 
d="M395 954h-215v746h215v-746zM180 -221v743h215v-743h-215z" />
    <glyph glyph-name="section" unicode="&#xa7;" horiz-adv-x="1269" 
d="M651 170q90 0 144 49q30 27 30 70t-45.5 72.5t-136.5 52.5l-203 51q-143 35 -235 96q-113 69 -113 184q0 97 60.5 161t166.5 91q-54 34 -85 86t-31 111q0 75 38 138t103 102q135 82 291 82q105 0 196.5 -28t155.5 -75q118 -90 154 -221l-193 -68q-29 89 -102 142
q-76 55 -211 55q-38 0 -78.5 -10t-75.5 -37.5t-35 -67.5q0 -44 49 -75.5t148 -55.5l191 -47q346 -82 346 -278q0 -191 -228 -252q53 -30 86 -84t33 -113q0 -64 -24.5 -118t-65.5 -91.5t-95 -64.5t-113 -39.5t-120 -12.5q-210 0 -352 97q-141 99 -178 241l192 64
q24 -70 78.5 -118.5t122.5 -68.5q59 -20 135 -20zM485 901q-70 0 -115.5 -33t-45.5 -84q0 -47 56 -81t189 -68q156 -39 219 -39q70 0 117 35q45 29 45 82q0 47 -56 81t-189 68q-159 39 -220 39z" />
    <glyph glyph-name="dieresis" unicode="&#xa8;" horiz-adv-x="800" 
d="M188 1184q-59 0 -100 41q-41 44 -41 102q0 56 41 100q41 41 100 41q60 0 101 -41q43 -43 43 -100q0 -59 -43 -102q-41 -41 -101 -41zM612 1184q-59 0 -100 41q-43 43 -43 102q0 56 41 100q41 41 102 41q60 0 101 -41q41 -44 41 -100q0 -58 -41 -102q-44 -41 -101 -41z
" />
    <glyph glyph-name="copyright" unicode="&#xa9;" horiz-adv-x="1708" 
d="M852 -18q-153 0 -293 61q-137 57 -242 162q-101 101 -161 246q-62 139 -62 297q0 154 62 296q60 145 161 246q104 104 242 164q142 59 293 59q156 0 295 -59q136 -60 244 -164q97 -100 161 -246q60 -145 60 -296q0 -155 -60 -297q-64 -146 -161 -246q-109 -106 -244 -162
q-137 -61 -295 -61zM852 1393q-130 0 -246 -52q-120 -54 -200 -137q-85 -88 -134 -207t-49 -249q0 -133 49 -252q50 -118 134 -205q85 -88 201 -137.5t245 -49.5q132 0 248 52q113 48 200 135t134 205q51 124 51 252q0 125 -51 249q-46 119 -134 207q-80 83 -200 137
q-116 52 -248 52zM1110 633l184 -60q-32 -114 -135 -198q-52 -46 -129 -72.5t-164 -26.5q-200 0 -336 136q-137 137 -137 336q0 128 64 235q65 114 170 172q110 64 243 64q158 0 277 -84q113 -87 143 -209l-184 -60q-8 30 -24.5 57t-44 53.5t-71 42t-96.5 15.5
q-117 0 -192 -78q-76 -79 -76 -204q0 -127 76 -209q79 -82 192 -82q173 0 240 172z" />
    <glyph glyph-name="ordfeminine" unicode="&#xaa;" horiz-adv-x="1062" 
d="M719 737v92q-35 -49 -105 -77q-67 -25 -116 -25q-154 0 -254 109q-103 112 -103 258q0 67 25 132.5t70 118t114.5 85t151.5 32.5q54 0 116 -24q61 -27 101 -76v86h178v-711h-178zM522 1298q-90 0 -143 -59q-55 -58 -55 -145q0 -88 55 -146q56 -59 143 -59q88 0 144 59
q55 61 55 146q0 87 -55 145q-53 59 -144 59zM152 551h745v-162h-745v162z" />
    <glyph glyph-name="guillemotleft" unicode="&#xab;" horiz-adv-x="1210" 
d="M627 866l-297 -293l297 -290l-131 -129l-428 419l428 422zM1104 866l-297 -293l299 -290l-133 -129l-428 419l428 422z" />
    <glyph glyph-name="logicalnot" unicode="&#xac;" horiz-adv-x="1325" 
d="M94 854v211h1086v-610h-215v399h-871z" />
    <glyph glyph-name="uni00AD" unicode="&#xad;" horiz-adv-x="884" 
d="M752 735v-231h-619v231h619z" />
    <glyph glyph-name="registered" unicode="&#xae;" horiz-adv-x="1236" 
d="M874 561q-120 -69 -256 -69t-256 69q-115 66 -186 187q-67 116 -67 256q0 137 67 256q73 121 186 186q121 70 256 70t256 -70q115 -66 187 -186q67 -119 67 -256q0 -140 -67 -256q-70 -120 -187 -187zM618 1417q-170 0 -288 -121q-119 -119 -119 -292q0 -174 119 -293
q118 -121 288 -121q173 0 291 121q117 120 117 293q0 172 -117 292q-118 121 -291 121zM625 922h-84v-211h-119v585h217q104 0 154 -53q49 -55 49 -133q0 -118 -101 -164l121 -235h-131zM723 1108q0 78 -94 78h-88v-156h88q47 0 70.5 22.5t23.5 55.5z" />
    <glyph glyph-name="degree" unicode="&#xb0;" horiz-adv-x="864" 
d="M430 821q-139 0 -240 101q-100 100 -100 243q0 140 100 240q97 100 240 100q144 0 244 -100t100 -240q0 -143 -100 -243q-101 -101 -244 -101zM430 1321q-66 0 -111 -45q-43 -46 -43 -111q0 -64 43 -110q47 -47 111 -47q66 0 113 47q45 45 45 110q0 62 -47 109t-111 47z
" />
    <glyph glyph-name="plusminus" unicode="&#xb1;" horiz-adv-x="1296" 
d="M756 360h-215v345h-408v206h408v340h215v-340h405v-206h-405v-345zM1159 250v-203h-1024v203h1024z" />
    <glyph glyph-name="uni00B2" unicode="&#xb2;" horiz-adv-x="886" 
d="M440 1700q140 0 230 -84q88 -85 88 -201q0 -78 -48.5 -151t-131.5 -123l-136 -82q-68 -38 -86 -78h406v-170h-645v53q0 204 219 332l119 70q114 64 114 147q0 48 -36.5 81.5t-96.5 33.5q-58 0 -96 -41q-37 -40 -37 -96l-180 26q3 116 92 199q87 84 225 84z" />
    <glyph glyph-name="uni00B3" unicode="&#xb3;" horiz-adv-x="854" 
d="M748 1083q0 -131 -99 -211q-101 -81 -229 -81q-123 0 -223 77q-97 79 -103 203l187 29q0 -58 41 -96q39 -39 98 -39q58 0 96.5 33t38.5 89q0 51 -39 80q-42 31 -92 31q-40 0 -62 -10l-83 131l231 194h-393v166h620v-157l-211 -181h4q97 -12 156 -86q62 -74 62 -172z" />
    <glyph glyph-name="acute" unicode="&#xb4;" horiz-adv-x="542" 
d="M227 1520h279l-277 -328h-196z" />
    <glyph glyph-name="uni00B5" unicode="&#xb5;" horiz-adv-x="1259" 
d="M399 1018v-569q0 -119 57.5 -186.5t168.5 -67.5q107 0 170 69q65 71 65 187v567h225v-1018h-221v137q-114 -153 -301 -153q-43 0 -91 13.5t-79 33.5v-344h-221v1331h227z" />
    <glyph glyph-name="paragraph" unicode="&#xb6;" horiz-adv-x="1032" 
d="M594 686h-98q-177 0 -301 121q-127 118 -127 285q-2 107 56.5 201t158 148t213.5 52h333v-1493h-235v686z" />
    <glyph glyph-name="middot" unicode="&#xb7;" horiz-adv-x="575" 
d="M121 614q0 72 49 121t117 49q70 0 119 -49t49 -121q0 -65 -49 -114t-119 -49q-68 0 -117 49t-49 114z" />
    <glyph glyph-name="uni00B9" unicode="&#xb9;" horiz-adv-x="661" 
d="M319 1481l-196 -119l-86 143l289 174h190v-868h-197v670z" />
    <glyph glyph-name="ordmasculine" unicode="&#xba;" horiz-adv-x="1042" 
d="M522 727q-158 0 -268 104q-113 107 -113 265q0 155 113 262q110 104 268 104q159 0 266 -104q113 -107 113 -260q0 -157 -110 -264t-269 -107zM522 1298q-92 0 -143 -57q-57 -57 -57 -143q0 -88 57 -148q59 -59 143 -59q91 0 144 59t53 146q0 84 -53 143q-56 59 -144 59z
M152 551h739v-162h-739v162z" />
    <glyph glyph-name="guillemotright" unicode="&#xbb;" horiz-adv-x="1210" 
d="M406 573l-297 293l131 129l426 -422l-426 -419l-134 129zM883 573l-297 293l131 129l428 -422l-428 -419l-133 129z" />
    <glyph glyph-name="onequarter" unicode="&#xbc;" horiz-adv-x="1835" 
d="M346 1292l-199 -116l-86 143l291 174h191v-868h-197v667zM295 0l973 1493h223l-969 -1493h-227zM1415 0v176h-438v209l389 481h240v-522h147v-168h-147v-176h-191zM1415 344v326l-262 -326h262z" />
    <glyph glyph-name="onehalf" unicode="&#xbd;" horiz-adv-x="1847" 
d="M346 1292l-199 -116l-86 143l289 174h193v-868h-197v667zM295 0l973 1493h223l-971 -1493h-225zM1421 887q145 0 230 -82q88 -85 88 -201q0 -79 -48 -151.5t-132 -122.5l-136 -82q-71 -46 -84 -78h404v-170h-645v51q0 204 219 332l119 70q114 67 114 147q0 49 -35.5 83
t-95.5 34q-61 0 -96 -41q-39 -42 -39 -98l-180 28q3 116 92 199q85 82 225 82z" />
    <glyph glyph-name="threequarters" unicode="&#xbe;" horiz-adv-x="1880" 
d="M735 897q0 -132 -98 -211q-98 -82 -229 -82q-128 0 -224 78q-99 76 -102 201l184 30q0 -58 41 -96q39 -39 99 -39q59 0 98 33.5t39 89.5q0 52 -41 80q-42 31 -92 31q-29 0 -62 -11l-82 132l230 192h-394v168h623v-160l-213 -178h4q94 -11 158 -88q61 -73 61 -170zM352 0
l973 1493h223l-970 -1493h-226zM1473 0v176h-439v209l389 481h240v-522h147v-168h-147v-176h-190zM1473 344v326l-265 -326h265z" />
    <glyph glyph-name="questiondown" unicode="&#xbf;" horiz-adv-x="1073" 
d="M670 995q43 -43 43 -104q0 -64 -43 -107q-45 -45 -105 -45q-61 0 -106 45t-45 107q0 59 45 104q43 43 106 43q62 0 105 -43zM766 27l240 -11q1 -18 2 -36.5t1.5 -28t0.5 -12.5q0 -126 -68 -226q-64 -96 -176 -151q-111 -51 -231 -51q-118 0 -222 49q-104 45 -180 139
q-72 97 -72 211q0 111 50.5 196t152.5 160q84 62 127 113q68 77 68 186h213q14 -58 14 -90q0 -123 -76 -209q-52 -59 -153 -137q-71 -51 -110.5 -100.5t-39.5 -112.5q0 -82 70 -137q68 -53 155 -53q102 0 170 71t68 172q0 22 -4 58z" />
    <glyph glyph-name="Agrave" unicode="&#xc0;" horiz-adv-x="1492" 
d="M850 1630h-197l-276 328h278zM379 350l-139 -350h-240l608 1493h277l604 -1493h-244l-137 350h-729zM461 559h567l-285 709z" />
    <glyph glyph-name="Aacute" unicode="&#xc1;" horiz-adv-x="1492" 
d="M842 1956h278l-276 -328h-197zM379 350l-139 -350h-240l608 1493h277l604 -1493h-244l-137 350h-729zM461 559h567l-285 709z" />
    <glyph glyph-name="Acircumflex" unicode="&#xc2;" horiz-adv-x="1492" 
d="M387 1628l262 328h178l275 -328h-217l-142 176l-131 -176h-225zM379 350l-139 -350h-240l608 1493h277l604 -1493h-244l-137 350h-729zM461 559h567l-285 709z" />
    <glyph glyph-name="Atilde" unicode="&#xc3;" horiz-adv-x="1492" 
d="M1085 1929v-20q0 -254 -196 -254q-42 -2 -94 22t-99 48.5t-75 23.5q-58 0 -64 -92h-158v22q0 254 201 254q46 1 144.5 -46.5t127.5 -45.5q61 0 70 88h143zM379 350l-139 -350h-240l608 1493h277l604 -1493h-244l-137 350h-729zM461 559h567l-285 709z" />
    <glyph glyph-name="Adieresis" unicode="&#xc4;" horiz-adv-x="1492" 
d="M528 1618q-60 0 -100 43q-41 41 -41 100q0 62 41 103q38 41 100 41q63 0 101 -41q43 -43 43 -103q0 -57 -43 -100q-40 -43 -101 -43zM1071 1661q-40 -43 -100 -43q-61 0 -101 43q-41 38 -41 100t41 103q38 41 101 41q62 0 100 -41q43 -43 43 -103q0 -57 -43 -100z
M379 350l-139 -350h-240l608 1493h277l604 -1493h-244l-137 350h-729zM461 559h567l-285 709z" />
    <glyph glyph-name="Aring" unicode="&#xc5;" horiz-adv-x="1490" 
d="M1245 0l-137 350h-729l-139 -350h-240l571 1401q-48 37 -75 91.5t-27 115.5q0 110 82 186q81 78 194 78t197 -78q80 -77 80 -186q0 -130 -100 -205l567 -1403h-244zM745 1731q-56 0 -94 -35q-37 -37 -37 -88q0 -52 39 -88q37 -37 92 -37q56 0 93 37q36 36 36 88
q0 51 -38 86q-40 37 -91 37zM743 1268l-282 -709h567z" />
    <glyph glyph-name="AE" unicode="&#xc6;" horiz-adv-x="2007" 
d="M233 0h-256l811 1493h1102v-213h-712v-414h647v-213h-647v-440h718v-213h-952v350h-522zM532 559h412v723h-22z" />
    <glyph glyph-name="Ccedilla" unicode="&#xc7;" horiz-adv-x="1607" 
d="M936 -12q43 -67 43 -152q0 -100 -51 -166q-54 -73 -129 -102q-73 -33 -170 -33q-84 0 -148 23v151q55 -14 127 -14q92 0 146.5 45.5t54.5 130.5q0 52 -29 115q-162 12 -306 90.5t-241 210.5q-67 87 -104 204.5t-37 249.5q0 164 62 312q62 145 165 245q105 99 244 158
q142 60 289 60q117 0 224.5 -30.5t187.5 -82.5q81 -58 135 -117q105 -119 143 -260l-231 -80q-17 79 -74 162q-39 54 -86 90q-50 42 -130 69t-171 27q-201 0 -354 -147q-73 -71 -115.5 -175t-42.5 -222q0 -119 42 -224.5t114 -175.5q71 -70 163 -108.5t191 -38.5
q84 0 160 25.5t129 66.5q56 46 90 90q64 86 88 172l231 -80q-30 -119 -125 -233q-54 -63 -121 -115q-151 -120 -364 -141z" />
    <glyph glyph-name="Egrave" unicode="&#xc8;" horiz-adv-x="1265" 
d="M844 1630h-197l-278 328h280zM1081 653h-657v-440h731v-213h-965v1493h957v-213h-723v-414h657v-213z" />
    <glyph glyph-name="Eacute" unicode="&#xc9;" horiz-adv-x="1265" 
d="M754 1956h276l-276 -328h-199zM190 1493h957v-213h-723v-414h657v-213h-657v-440h731v-213h-965v1493z" />
    <glyph glyph-name="Ecircumflex" unicode="&#xca;" horiz-adv-x="1265" 
d="M541 1628h-228l267 328h178l272 -328h-217l-139 176zM1081 653h-657v-440h731v-213h-965v1493h957v-213h-723v-414h657v-213z" />
    <glyph glyph-name="Edieresis" unicode="&#xcb;" horiz-adv-x="1263" 
d="M453 1618q-61 0 -101 43q-43 43 -43 100q0 59 41 103q41 41 103 41q59 0 100 -41t41 -103q0 -59 -41 -100q-43 -43 -100 -43zM995 1661q-43 -43 -102 -43q-60 0 -100 43q-41 41 -41 100t41 103q38 41 100 41q61 0 102 -41t41 -103q0 -59 -41 -100zM190 1493h957v-213
h-723v-414h657v-213h-657v-440h729v-213h-963v1493z" />
    <glyph glyph-name="Igrave" unicode="&#xcc;" horiz-adv-x="614" 
d="M408 1630h-197l-277 328h277zM190 0v1493h234v-1493h-234z" />
    <glyph glyph-name="Iacute" unicode="&#xcd;" horiz-adv-x="614" 
d="M406 1956h276l-276 -328h-199zM424 1493v-1493h-234v1493h234z" />
    <glyph glyph-name="Icircumflex" unicode="&#xce;" horiz-adv-x="614" 
d="M176 1628h-227l266 328h176l275 -328h-217l-142 176zM190 0v1493h234v-1493h-234z" />
    <glyph glyph-name="Idieresis" unicode="&#xcf;" horiz-adv-x="614" 
d="M98 1618q-60 0 -100 43q-41 41 -41 100q0 62 41 103q38 41 100 41t103 -41q41 -44 41 -103q0 -56 -41 -100q-43 -43 -103 -43zM512 1618q-58 0 -98 43q-43 43 -43 100q0 59 41 103q41 41 100 41q61 0 102 -41t41 -103q0 -59 -41 -100q-43 -43 -102 -43zM424 1493v-1493
h-234v1493h234z" />
    <glyph glyph-name="Eth" unicode="&#xd0;" horiz-adv-x="1591" 
d="M229 653h-200v213h200v627h476q136 0 256 -33t206 -92q78 -51 152 -131q91 -106 135 -235t47 -257q2 -161 -69 -316.5t-205 -264.5q-94 -76 -229 -120t-291 -44h-478v653zM465 866h332v-213h-332v-436h231q224 0 369 115q62 53 106 121q84 131 84 292q2 109 -47.5 220.5
t-142.5 191.5q-63 55 -159 87t-208 32h-233v-410z" />
    <glyph glyph-name="Ntilde" unicode="&#xd1;" horiz-adv-x="1638" 
d="M1163 1929v-20q0 -254 -198 -254q-42 -2 -94 22t-99.5 48.5t-75.5 23.5q-58 0 -61 -92h-160v22q0 254 201 254q48 1 146 -46.5t126 -45.5q61 0 70 88h145zM1450 0h-262l-766 1143v-1143h-232v1493h271l758 -1137v1137h231v-1493z" />
    <glyph glyph-name="Ograve" unicode="&#xd2;" horiz-adv-x="1716" 
d="M971 1630h-197l-276 328h278zM92 743q0 162 62 304q58 143 163 245q100 103 246 162q139 62 297 62q206 0 385 -101q176 -99 277 -276q102 -175 102 -389q0 -163 -61 -306t-164 -243q-104 -101 -246 -160q-145 -59 -299 -59q-155 0 -297 59q-140 55 -244 156
q-100 100 -161 243q-60 142 -60 303zM338 748q-2 -109 38.5 -210.5t110.5 -176t167.5 -118.5t203.5 -42q105 0 202 42.5t169 116.5q70 74 109.5 176.5t39.5 211.5q0 151 -67 276q-70 125 -191 199q-119 73 -262 73q-142 3 -263 -71.5t-190.5 -202t-66.5 -274.5z" />
    <glyph glyph-name="Oacute" unicode="&#xd3;" horiz-adv-x="1716" 
d="M952 1956h277l-277 -328h-196zM92 743q0 162 62 304q58 143 163 245q100 103 246 162q139 62 297 62q206 0 385 -101q176 -99 277 -276q102 -175 102 -389q0 -163 -61 -306t-164 -243q-104 -101 -246 -160q-145 -59 -299 -59q-155 0 -297 59q-140 55 -244 156
q-100 100 -161 243q-60 142 -60 303zM338 748q-2 -109 38.5 -210.5t110.5 -176t167.5 -118.5t203.5 -42q105 0 202 42.5t169 116.5q70 74 109.5 176.5t39.5 211.5q0 151 -67 276q-70 125 -191 199q-119 73 -262 73q-142 3 -263 -71.5t-190.5 -202t-66.5 -274.5z" />
    <glyph glyph-name="Ocircumflex" unicode="&#xd4;" horiz-adv-x="1716" 
d="M725 1628h-225l264 328h178l272 -328h-217l-139 176zM92 743q0 162 62 304q58 143 163 245q100 103 246 162q139 62 297 62q206 0 385 -101q176 -99 277 -276q102 -175 102 -389q0 -163 -61 -306t-164 -243q-104 -101 -246 -160q-145 -59 -299 -59q-155 0 -297 59
q-140 55 -244 156q-100 100 -161 243q-60 142 -60 303zM338 748q-2 -109 38.5 -210.5t110.5 -176t167.5 -118.5t203.5 -42q105 0 202 42.5t169 116.5q70 74 109.5 176.5t39.5 211.5q0 151 -67 276q-70 125 -191 199q-119 73 -262 73q-142 3 -263 -71.5t-190.5 -202
t-66.5 -274.5z" />
    <glyph glyph-name="Otilde" unicode="&#xd5;" horiz-adv-x="1716" 
d="M1202 1929v-20q0 -254 -196 -254q-42 -2 -94 22t-99.5 48.5t-75.5 23.5q-60 0 -63 -92h-158v22q0 254 201 254q47 1 144 -46.5t128 -45.5q61 0 70 88h143zM92 743q0 162 62 304q58 143 163 245q100 103 246 162q139 62 297 62q206 0 385 -101q176 -99 277 -276
q102 -175 102 -389q0 -163 -61 -306t-164 -243q-104 -101 -246 -160q-145 -59 -299 -59q-155 0 -297 59q-140 55 -244 156q-100 100 -161 243q-60 142 -60 303zM338 748q-2 -109 38.5 -210.5t110.5 -176t167.5 -118.5t203.5 -42q105 0 202 42.5t169 116.5q70 74 109.5 176.5
t39.5 211.5q0 151 -67 276q-70 125 -191 199q-119 73 -262 73q-142 3 -263 -71.5t-190.5 -202t-66.5 -274.5z" />
    <glyph glyph-name="Odieresis" unicode="&#xd6;" horiz-adv-x="1716" 
d="M641 1618q-60 0 -100 43q-43 43 -43 100q0 59 41 103q38 41 102 41q59 0 100 -41q41 -44 41 -103q0 -56 -41 -100q-43 -43 -100 -43zM1184 1661q-43 -43 -103 -43t-100 43q-41 41 -41 100t41 103q38 41 100 41t103 -41q41 -44 41 -103q0 -56 -41 -100zM92 743
q0 162 62 304q58 143 163 245q100 103 246 162q139 62 297 62q206 0 385 -101q176 -99 277 -276q102 -175 102 -389q0 -163 -61 -306t-164 -243q-104 -101 -246 -160q-145 -59 -299 -59q-155 0 -297 59q-140 55 -244 156q-100 100 -161 243q-60 142 -60 303zM338 748
q-2 -109 38.5 -210.5t110.5 -176t167.5 -118.5t203.5 -42q105 0 202 42.5t169 116.5q70 74 109.5 176.5t39.5 211.5q0 151 -67 276q-70 125 -191 199q-119 73 -262 73q-142 3 -263 -71.5t-190.5 -202t-66.5 -274.5z" />
    <glyph glyph-name="multiply" unicode="&#xd7;" horiz-adv-x="1288" 
d="M258 121l-145 149l385 385l-385 387l145 150l387 -391l385 391l148 -150l-387 -387l387 -385l-148 -149l-385 389z" />
    <glyph glyph-name="Oslash" unicode="&#xd8;" horiz-adv-x="1726" 
d="M1638 1442l-186 -197q178 -210 178 -495q0 -163 -61 -306q-62 -145 -166 -243q-104 -101 -246 -160t-297 -59q-263 0 -461 149l-176 -180l-131 121l174 184q-170 203 -170 487q0 162 62 304q60 141 164 245q103 103 245 162q142 62 299 62q250 0 455 -148l186 197z
M342 748q0 -177 92 -316l729 766q-131 98 -301 98q-141 3 -262 -71.5t-190.5 -202t-67.5 -274.5zM1382 748q0 186 -96 323l-731 -768q135 -102 307 -102q106 0 203 42.5t168 116.5q70 74 109.5 176.5t39.5 211.5z" />
    <glyph glyph-name="Ugrave" unicode="&#xd9;" horiz-adv-x="1507" 
d="M872 1630h-196l-277 328h279zM1100 569v924h235v-913q0 -268 -147 -430q-145 -168 -436 -168q-143 0 -256 44.5t-183 125.5q-139 160 -139 417v924h234v-915q0 -171 96 -275q97 -100 252 -100q165 0 254 102q90 104 90 264z" />
    <glyph glyph-name="Uacute" unicode="&#xda;" horiz-adv-x="1509" 
d="M831 1956h279l-276 -328h-197zM1337 1493v-913q0 -268 -147 -430q-70 -82 -182.5 -125t-253.5 -43q-143 0 -256 44.5t-183 125.5q-141 159 -141 417v924h236v-915q0 -171 96 -275q97 -100 252 -100q165 0 254 102q90 104 90 264v924h235z" />
    <glyph glyph-name="Ucircumflex" unicode="&#xdb;" horiz-adv-x="1509" 
d="M623 1628h-226l265 328h178l272 -328h-217l-139 176zM1102 569v924h235v-913q0 -268 -147 -430q-70 -82 -182.5 -125t-253.5 -43q-143 0 -256 44.5t-183 125.5q-141 159 -141 417v924h236v-915q0 -171 96 -275q97 -100 252 -100q165 0 254 102q90 104 90 264z" />
    <glyph glyph-name="Udieresis" unicode="&#xdc;" horiz-adv-x="1507" 
d="M532 1618q-57 0 -100 43q-41 44 -41 100q0 59 41 103q38 41 100 41t103 -41q41 -44 41 -103q0 -56 -41 -100q-43 -43 -103 -43zM1075 1661q-40 -43 -100 -43q-61 0 -101 43q-40 40 -40 100t40 103q38 41 101 41q62 0 100 -41q43 -43 43 -103q0 -57 -43 -100zM1335 1493
v-913q0 -268 -147 -430q-145 -168 -436 -168q-143 0 -256 44.5t-183 125.5q-139 160 -139 417v924h234v-915q0 -171 96 -275q97 -100 252 -100q165 0 254 102q90 104 90 264v924h235z" />
    <glyph glyph-name="Yacute" unicode="&#xdd;" horiz-adv-x="1433" 
d="M797 1956h276l-276 -328h-197zM598 0v596l-561 897h272l410 -670l411 670h269l-563 -891v-602h-238z" />
    <glyph glyph-name="Thorn" unicode="&#xde;" horiz-adv-x="1300" 
d="M424 1229h293q320 -3 446 -203q76 -111 76 -264q0 -198 -137 -332q-69 -67 -176 -105t-236 -38h-266v-287h-234v1495h234v-266zM424 502h272q80 0 143 22.5t97 61.5q65 74 65 172q0 37 -8 70t-29 67.5t-54 59.5t-88 41t-126 16h-272v-510z" />
    <glyph glyph-name="germandbls" unicode="&#xdf;" horiz-adv-x="1251" 
d="M1188 301q0 -118 -80 -213q-41 -49 -113.5 -77.5t-165.5 -28.5q-153 0 -254 81q-99 83 -102 213l197 39q0 -69 47 -110q46 -37 110 -37q73 0 107 37q37 37 37 86q0 86 -117 133l-74 31q-217 88 -217 264q0 162 144 254l47 31q66 42 93 78t27 85q0 82 -63 136
q-64 49 -170 49q-122 0 -190 -86q-72 -87 -72 -236v-1030h-227v1044q0 125 37.5 224.5t105.5 163.5q136 124 346 124q84 0 163 -22.5t146.5 -66.5t108.5 -119.5t41 -171.5q0 -126 -68 -207q-56 -67 -129 -111l-43 -27q-37 -23 -52 -42.5t-15 -49.5t20.5 -50.5t73.5 -41.5
l78 -33q96 -39 161 -122q62 -80 62 -191z" />
    <glyph glyph-name="agrave" unicode="&#xe0;" horiz-adv-x="1095" 
d="M651 1192h-196l-277 328h279zM432 -18q-151 0 -246 86q-96 84 -96 215v10q1 101 54.5 168.5t142.5 101.5q103 41 225 41h127q94 0 94 86q0 66 -51 111q-54 45 -150 45q-90 0 -149.5 -46.5t-71.5 -123.5l-207 47q9 73 70 154q62 80 160 122q82 39 207 39q286 0 381 -209
q34 -72 34 -180v-485q0 -92 7 -164h-222q-10 48 -10 139q-51 -83 -131 -121q-79 -36 -168 -36zM731 444h-219q-74 0 -133 -36q-62 -41 -62 -105q0 -63 45 -101t117 -38q118 0 185 67t67 181v32z" />
    <glyph glyph-name="aacute" unicode="&#xe1;" horiz-adv-x="1095" 
d="M623 1520h278l-276 -328h-197zM432 -18q-151 0 -246 86q-96 84 -96 215v10q1 101 54.5 168.5t142.5 101.5q103 41 225 41h127q94 0 94 86q0 66 -51 111q-54 45 -150 45q-90 0 -149.5 -46.5t-71.5 -123.5l-207 47q9 73 70 154q62 80 160 122q82 39 207 39q286 0 381 -209
q34 -72 34 -180v-485q0 -92 7 -164h-222q-10 48 -10 139q-51 -83 -131 -121q-79 -36 -168 -36zM731 444h-219q-74 0 -133 -36q-62 -41 -62 -105q0 -63 45 -101t117 -38q118 0 185 67t67 181v32z" />
    <glyph glyph-name="acircumflex" unicode="&#xe2;" horiz-adv-x="1095" 
d="M403 1190h-225l264 330h179l272 -330h-217l-139 176zM432 -18q-151 0 -246 86q-96 84 -96 215v10q1 101 54.5 168.5t142.5 101.5q103 41 225 41h127q94 0 94 86q0 66 -51 111q-54 45 -150 45q-90 0 -149.5 -46.5t-71.5 -123.5l-207 47q9 73 70 154q62 80 160 122
q82 39 207 39q286 0 381 -209q34 -72 34 -180v-485q0 -92 7 -164h-222q-10 48 -10 139q-51 -83 -131 -121q-79 -36 -168 -36zM731 444h-219q-74 0 -133 -36q-62 -41 -62 -105q0 -63 45 -101t117 -38q118 0 185 67t67 181v32z" />
    <glyph glyph-name="atilde" unicode="&#xe3;" horiz-adv-x="1095" 
d="M879 1483v-21q0 -254 -197 -254q-52 -2 -145 46t-125 46q-59 0 -62 -90h-157v21q0 254 200 254q47 2 144.5 -45t128.5 -45q57 0 69 88h144zM432 -18q-151 0 -246 86q-96 84 -96 215v10q1 101 54.5 168.5t142.5 101.5q103 41 225 41h127q94 0 94 86q0 66 -51 111
q-54 45 -150 45q-90 0 -149.5 -46.5t-71.5 -123.5l-207 47q9 73 70 154q62 80 160 122q82 39 207 39q286 0 381 -209q34 -72 34 -180v-485q0 -92 7 -164h-222q-10 48 -10 139q-51 -83 -131 -121q-79 -36 -168 -36zM731 444h-219q-74 0 -133 -36q-62 -41 -62 -105
q0 -63 45 -101t117 -38q118 0 185 67t67 181v32z" />
    <glyph glyph-name="adieresis" unicode="&#xe4;" horiz-adv-x="1095" 
d="M328 1184q-60 0 -101 41q-43 43 -43 102q0 56 41 100q44 41 103 41q56 0 100 -41q43 -43 43 -100q0 -59 -43 -102q-44 -41 -100 -41zM750 1184q-60 0 -101 41q-41 44 -41 102q0 56 41 100q41 41 101 41q58 0 102 -41q41 -44 41 -100q0 -59 -43 -102q-41 -41 -100 -41z
M432 -18q-151 0 -246 86q-96 84 -96 215v10q1 101 54.5 168.5t142.5 101.5q103 41 225 41h127q94 0 94 86q0 66 -51 111q-54 45 -150 45q-90 0 -149.5 -46.5t-71.5 -123.5l-207 47q9 73 70 154q62 80 160 122q82 39 207 39q286 0 381 -209q34 -72 34 -180v-485q0 -92 7 -164
h-222q-10 48 -10 139q-51 -83 -131 -121q-79 -36 -168 -36zM731 412v32h-219q-74 0 -133 -36q-62 -41 -62 -105q0 -63 45 -101t117 -38q118 0 185 67t67 181z" />
    <glyph glyph-name="aring" unicode="&#xe5;" horiz-adv-x="1095" 
d="M956 649v-485q0 -72 9 -164h-224q-8 39 -8 139q-52 -84 -133 -121q-79 -36 -166 -36q-148 0 -248 86q-96 84 -96 215v10q1 100 55.5 167.5t143.5 102.5q101 41 225 41h125q96 0 96 86q0 64 -53 111q-54 45 -147 45q-91 0 -150.5 -46t-73.5 -124l-205 47q10 97 103 190
q51 51 110 80q-57 72 -57 164q0 108 82 184q84 78 195 78q116 0 198 -76q80 -77 80 -186q0 -93 -57 -162q113 -54 162 -166q34 -67 34 -180zM541 1272q-52 0 -86.5 -33.5t-34.5 -81.5q0 -50 35 -82q32 -35 86 -35q53 0 88 35t35 82q0 46 -37 80q-38 35 -86 35zM733 444h-221
q-74 0 -133 -36q-62 -41 -62 -105q0 -63 45 -101t117 -38q117 0 187 67q67 67 67 181v32z" />
    <glyph glyph-name="ae" unicode="&#xe6;" horiz-adv-x="1812" 
d="M1733 512q0 -45 -2 -70h-779q3 -111 95 -188q93 -78 208 -78q210 0 269 170l194 -57q-45 -145 -172 -226q-134 -81 -289 -81q-122 0 -228.5 48.5t-180.5 135.5q-156 -184 -406 -184h-4q-147 0 -250 86q-98 82 -98 215v10q1 101 54.5 168.5t142.5 101.5q103 41 225 41h145
q84 0 84 86q0 67 -53.5 111t-146.5 45q-96 0 -158 -47q-64 -46 -76 -121l-203 45q9 70 72 151q65 80 166 127q84 37 203 37q238 0 336 -145q66 69 160 107t200 38q233 0 363 -145q129 -144 129 -381zM963 614h542q-6 106 -80 168t-186 62q-108 0 -184 -64q-77 -62 -92 -166z
M737 444h-225q-74 0 -133 -36q-62 -41 -62 -105q0 -63 45 -101t117 -38q118 0 189 65q69 66 69 183v32z" />
    <glyph glyph-name="ccedilla" unicode="&#xe7;" horiz-adv-x="1161" 
d="M549 -14q-201 24 -334 172q-131 146 -131 354q0 142 70 264q69 122 192 193q120 69 270 69q185 0 310 -96q125 -92 161 -231l-204 -68q-18 65 -78 125q-69 66 -189 66q-124 0 -213 -89q-86 -89 -86 -231q0 -140 84 -233q87 -93 217 -93q195 0 269 195l207 -68
q-49 -162 -201 -256q-82 -53 -191 -69q46 -71 46 -154q0 -95 -52 -166q-54 -73 -129 -102q-76 -33 -172 -33q-84 0 -145 23v151q52 -14 125 -14q93 0 146.5 45t53.5 131q0 52 -26 115z" />
    <glyph glyph-name="egrave" unicode="&#xe8;" horiz-adv-x="1173" 
d="M707 1192h-197l-277 328h277zM1090 442h-775q3 -111 94.5 -189.5t204.5 -76.5q101 0 171.5 43t99.5 129l190 -59q-27 -92 -97.5 -164.5t-164.5 -108.5q-93 -34 -197 -34q-108 -2 -207.5 39t-171 112t-113.5 170t-40 207q0 141 66 264q69 125 184 193q118 71 262 71
q235 0 365 -145q133 -145 133 -381q0 -30 -4 -70zM598 844q-107 0 -180 -64q-75 -63 -90 -166h534q-6 103 -80 168q-77 62 -184 62z" />
    <glyph glyph-name="eacute" unicode="&#xe9;" horiz-adv-x="1173" 
d="M688 1520h279l-277 -328h-196zM1090 442h-775q3 -111 94.5 -189.5t204.5 -76.5q101 0 171.5 43t99.5 129l190 -59q-27 -92 -97.5 -164.5t-164.5 -108.5q-93 -34 -197 -34q-108 -2 -207.5 39t-171 112t-113.5 170t-40 207q0 141 66 264q69 125 184 193q118 71 262 71
q235 0 365 -145q133 -145 133 -381q0 -30 -4 -70zM598 844q-107 0 -180 -64q-75 -63 -90 -166h534q-6 103 -80 168q-77 62 -184 62z" />
    <glyph glyph-name="ecircumflex" unicode="&#xea;" horiz-adv-x="1173" 
d="M459 1190h-226l263 330h178l274 -330h-217l-141 176zM1090 442h-775q3 -111 94.5 -189.5t204.5 -76.5q101 0 171.5 43t99.5 129l190 -59q-27 -92 -97.5 -164.5t-164.5 -108.5q-93 -34 -197 -34q-108 -2 -207.5 39t-171 112t-113.5 170t-40 207q0 141 66 264
q69 125 184 193q118 71 262 71q235 0 365 -145q133 -145 133 -381q0 -30 -4 -70zM598 844q-107 0 -180 -64q-75 -63 -90 -166h534q-6 103 -80 168q-77 62 -184 62z" />
    <glyph glyph-name="edieresis" unicode="&#xeb;" horiz-adv-x="1173" 
d="M381 1184q-59 0 -100 41q-41 44 -41 102q0 56 41 100q41 41 100 41t100 -41q43 -43 43 -100q0 -59 -43 -102q-41 -41 -100 -41zM805 1184q-59 0 -100 41q-43 43 -43 102q0 57 40 100q41 41 103 41q59 0 100 -41q41 -44 41 -100q0 -58 -41 -102q-44 -41 -100 -41z
M1094 512q0 -30 -4 -70h-775q3 -111 94.5 -189.5t204.5 -76.5q101 0 171.5 43t99.5 129l190 -59q-27 -92 -97.5 -164.5t-164.5 -108.5q-93 -34 -197 -34q-108 -2 -207.5 39t-171 112t-113.5 170t-40 207q0 141 66 264q69 125 184 193q118 71 262 71q235 0 365 -145
q133 -145 133 -381zM328 614h534q-6 103 -80 168q-77 62 -184 62t-180 -64q-75 -63 -90 -166z" />
    <glyph glyph-name="igrave" unicode="&#xec;" horiz-adv-x="532" 
d="M362 1184h-196l-277 327h279zM152 0v1018h227v-1018h-227z" />
    <glyph glyph-name="iacute" unicode="&#xed;" horiz-adv-x="532" 
d="M365 1520h278l-276 -328h-199zM379 1018v-1018h-227v1018h227z" />
    <glyph glyph-name="icircumflex" unicode="&#xee;" horiz-adv-x="532" 
d="M133 1190h-225l264 330h176l277 -330h-217l-142 176zM152 0v1018h227v-1018h-227z" />
    <glyph glyph-name="idieresis" unicode="&#xef;" horiz-adv-x="530" 
d="M49 1184q-59 0 -100 41t-41 102q0 59 41 100t100 41q60 0 101 -41q43 -43 43 -100q0 -59 -43 -102q-41 -41 -101 -41zM471 1184q-56 0 -100 41q-41 44 -41 102q0 56 41 100q41 41 100 41q58 0 102 -41q41 -44 41 -100q0 -58 -41 -102q-44 -41 -102 -41zM379 1018v-1018
h-227v1018h227z" />
    <glyph glyph-name="eth" unicode="&#xf0;" horiz-adv-x="1249" 
d="M1051 1343l-172 -75q131 -134 200.5 -310t69.5 -380q0 -166 -64 -299.5t-188 -215.5q-128 -81 -291 -81q-145 0 -262 69q-120 67 -190 187q-70 124 -70 264q-2 130 65 242.5t181 177t245 61.5q88 0 168 -35q89 -38 146 -92h2q-71 205 -205 324l-293 -131l-59 139l213 92
q-102 58 -266 106l77 170q223 -54 396 -180l235 109zM616 184q134 0 220 92q86 89 86 220q0 125 -91 213q-86 86 -223 86q-135 0 -213 -84q-82 -85 -82 -217q0 -126 86 -218t217 -92z" />
    <glyph glyph-name="ntilde" unicode="&#xf1;" 
d="M952 1483v-21q0 -254 -196 -254q-53 -2 -146 46t-125 46q-58 0 -61 -90h-158v21q0 254 201 254q47 2 144.5 -45t125.5 -45q60 0 72 88h143zM840 0v569q0 118 -58 186t-168 68q-109 0 -172 -69t-63 -187v-567h-227v1018h221v-137q45 60 108 98q61 37 109 49q52 10 94 10
q189 0 285 -114q96 -111 96 -297v-627h-225z" />
    <glyph glyph-name="ograve" unicode="&#xf2;" horiz-adv-x="1239" 
d="M727 1192h-195l-276 328h276zM82 510q0 146 74 270q77 126 196 191q125 67 271 67t268 -67q119 -67 194 -189q72 -126 72 -268q0 -145 -72 -268q-72 -125 -194 -195q-126 -69 -270 -69q-143 0 -269 69q-118 63 -196 191q-74 124 -74 268zM315 514q0 -134 86 -229
q88 -97 222 -97q133 0 219 95q84 93 84 227q0 137 -86 229q-83 95 -219 95q-135 0 -222 -93q-84 -90 -84 -227z" />
    <glyph glyph-name="oacute" unicode="&#xf3;" horiz-adv-x="1239" 
d="M707 1520h278l-276 -328h-197zM82 510q0 146 74 270q77 126 196 191q125 67 271 67t268 -67q118 -65 194 -189q72 -126 72 -268q2 -108 -40.5 -208t-115 -171.5t-172.5 -113t-208 -39.5q-143 0 -269 69q-118 63 -196 191q-74 124 -74 268zM315 514q0 -134 86 -229
q88 -97 222 -97q136 0 219 95q84 93 84 227q0 137 -86 229q-83 95 -219 95q-135 0 -222 -93q-84 -93 -84 -227z" />
    <glyph glyph-name="ocircumflex" unicode="&#xf4;" horiz-adv-x="1239" 
d="M487 1190h-225l264 330h179l272 -330h-217l-139 176zM82 510q0 146 74 270q77 126 196 191q125 67 271 67t268 -67q118 -65 194 -189q72 -126 72 -268q2 -108 -40.5 -208t-115 -171.5t-172.5 -113t-208 -39.5q-143 0 -269 69q-118 63 -196 191q-74 124 -74 268zM315 514
q0 -134 86 -229q88 -97 222 -97q136 0 219 95q84 93 84 227q0 137 -86 229q-83 95 -219 95q-135 0 -222 -93q-84 -93 -84 -227z" />
    <glyph glyph-name="otilde" unicode="&#xf5;" horiz-adv-x="1239" 
d="M963 1483v-21q0 -254 -197 -254q-52 -2 -144 46t-124 46q-58 0 -64 -90h-158v21q0 254 201 254q47 2 145.5 -45t127.5 -45q60 0 69 88h144zM82 510q0 146 74 270q77 126 196 191q125 67 271 67t268 -67q118 -65 194 -189q72 -126 72 -268q2 -108 -40.5 -208t-115 -171.5
t-172.5 -113t-208 -39.5q-143 0 -269 69q-118 63 -196 191q-74 124 -74 268zM315 514q0 -134 86 -229q88 -97 222 -97q133 0 219 95q84 93 84 227q0 137 -86 229q-83 95 -219 95q-135 0 -222 -93q-84 -90 -84 -227z" />
    <glyph glyph-name="odieresis" unicode="&#xf6;" horiz-adv-x="1239" 
d="M408 1184q-60 0 -101 41t-41 102q0 59 41 100t101 41q59 0 100 -41q43 -43 43 -100q0 -59 -43 -102q-41 -41 -100 -41zM829 1184q-56 0 -100 41q-41 44 -41 102q0 56 41 100q41 41 100 41t103 -41q41 -44 41 -100q0 -58 -41 -102q-44 -41 -103 -41zM82 510q0 146 74 270
q78 128 196 191q122 67 271 67q144 0 266 -67q121 -66 196 -189q72 -126 72 -268q3 -144 -70 -268.5t-198 -195.5t-268 -68q-143 0 -269 69q-118 63 -196 191q-74 124 -74 268zM315 514q0 -134 86 -229q88 -97 222 -97q133 0 219 95q84 93 84 227q0 137 -86 229
q-83 95 -219 95q-135 0 -222 -93q-84 -90 -84 -227z" />
    <glyph glyph-name="divide" unicode="&#xf7;" horiz-adv-x="1138" 
d="M467 1038q-43 43 -43 103q0 59 43 102q44 41 102 41q59 0 103 -41q41 -44 41 -102q0 -62 -41 -103q-43 -43 -103 -43q-59 0 -102 43zM1032 809v-211h-926v211h926zM467 166q-43 43 -43 100q0 60 43 103t102 43q60 0 103 -43q41 -41 41 -103q0 -58 -41 -102
q-44 -41 -103 -41t-102 43z" />
    <glyph glyph-name="oslash" unicode="&#xf8;" horiz-adv-x="1249" 
d="M1163 942l-110 -111q108 -141 108 -321q0 -144 -71 -268q-73 -124 -195 -191q-126 -69 -270 -69q-172 0 -312 96l-112 -113l-115 111l109 112q-107 140 -107 322q0 145 72 268q70 122 194 193q122 67 271 67q173 0 313 -96l111 113zM317 510q0 -89 37 -162l434 440
q-73 43 -163 43q-136 0 -222 -92q-86 -99 -86 -229zM930 510q0 90 -37 160l-432 -439q70 -43 164 -43q136 0 219 95q86 92 86 227z" />
    <glyph glyph-name="ugrave" unicode="&#xf9;" 
d="M713 1192h-197l-276 328h278zM369 1018v-569q0 -119 56.5 -186.5t166.5 -67.5q109 0 172 69t63 187v567h228v-1018h-221v137q-46 -61 -107 -98q-53 -35 -111 -49q-39 -10 -94 -10q-121 0 -209.5 54t-130.5 148q-41 86 -41 209v627h228z" />
    <glyph glyph-name="uacute" unicode="&#xfa;" 
d="M678 1520h276l-276 -328h-197zM369 1018v-569q0 -119 56.5 -186.5t166.5 -67.5q109 0 172 69t63 187v567h228v-1018h-221v137q-46 -61 -107 -98q-53 -35 -111 -49q-39 -10 -94 -10q-121 0 -209.5 54t-130.5 148q-41 86 -41 209v627h228z" />
    <glyph glyph-name="ucircumflex" unicode="&#xfb;" 
d="M465 1190h-225l264 330h178l272 -330h-217l-139 176zM369 1018v-569q0 -119 56.5 -186.5t166.5 -67.5q109 0 172 69t63 187v567h228v-1018h-221v137q-46 -61 -107 -98q-53 -35 -111 -49q-39 -10 -94 -10q-121 0 -209.5 54t-130.5 148q-41 86 -41 209v627h228z" />
    <glyph glyph-name="udieresis" unicode="&#xfc;" 
d="M381 1184q-59 0 -100 41q-41 44 -41 102q0 56 41 100q41 41 100 41t100 -41q43 -43 43 -100q0 -59 -43 -102q-41 -41 -100 -41zM805 1184q-59 0 -100 41q-43 43 -43 102q0 57 40 100q41 41 103 41q59 0 100 -41q41 -44 41 -100q0 -58 -41 -102q-44 -41 -100 -41z
M369 1018v-569q0 -119 56.5 -186.5t166.5 -67.5q109 0 172 69t63 187v567h228v-1018h-221v137q-46 -61 -107 -98q-53 -35 -111 -49q-39 -10 -94 -10q-121 0 -209.5 54t-130.5 148q-41 86 -41 209v627h228z" />
    <glyph glyph-name="yacute" unicode="&#xfd;" horiz-adv-x="1167" 
d="M678 1520h276l-276 -328h-197zM485 115l-454 903h260l315 -668l295 668h246l-698 -1520h-244z" />
    <glyph glyph-name="thorn" unicode="&#xfe;" horiz-adv-x="1263" 
d="M1178 512q0 -84 -20 -161.5t-60.5 -144.5t-98.5 -117t-139 -78.5t-176 -28.5q-205 0 -305 143v-543h-227v1970h227v-669q39 58 96 90q56 36 113 49q55 12 104 12q116 0 211 -45t154 -119.5t90.5 -166.5t30.5 -191zM948 510q0 142 -84 229q-82 88 -209 88q-125 0 -209 -90
q-79 -91 -79 -227q0 -132 84 -225q83 -92 204 -92t207 92t86 225z" />
    <glyph glyph-name="ydieresis" unicode="&#xff;" horiz-adv-x="1167" 
d="M381 1184q-59 0 -100 41q-41 44 -41 102q0 56 41 100q41 41 100 41t100 -41q43 -43 43 -100q0 -59 -43 -102q-41 -41 -100 -41zM805 1184q-59 0 -100 41q-43 43 -43 102q0 57 40 100q41 41 103 41q59 0 100 -41q41 -44 41 -100q0 -58 -41 -102q-44 -41 -100 -41zM483 115
l-452 903h258l317 -668l293 668h246l-699 -1520h-241z" />
    <glyph glyph-name="Amacron" unicode="&#x100;" horiz-adv-x="1492" 
d="M1075 1696h-659v180h659v-180zM379 350l-139 -350h-240l608 1493h277l604 -1493h-244l-137 350h-729zM461 559h567l-285 709z" />
    <glyph glyph-name="amacron" unicode="&#x101;" horiz-adv-x="1095" 
d="M858 1210h-661v183h661v-183zM432 -18q-151 0 -246 86q-96 84 -96 215v10q1 101 54.5 168.5t142.5 101.5q103 41 225 41h127q94 0 94 86q0 66 -51 111q-54 45 -150 45q-90 0 -149.5 -46.5t-71.5 -123.5l-207 47q9 73 70 154q62 80 160 122q82 39 207 39q286 0 381 -209
q34 -72 34 -180v-485q0 -92 7 -164h-222q-10 48 -10 139q-51 -83 -131 -121q-79 -36 -168 -36zM731 444h-219q-74 0 -133 -36q-62 -41 -62 -105q0 -63 45 -101t117 -38q118 0 185 67t67 181v32z" />
    <glyph glyph-name="Abreve" unicode="&#x102;" horiz-adv-x="1492" 
d="M748 1626q-138 -3 -237 83.5t-112 242.5h195q4 -78 44.5 -120t109.5 -42t109 41t46 121h191q-12 -154 -107 -240t-239 -86zM379 350l-139 -350h-240l608 1493h277l604 -1493h-244l-137 350h-729zM461 559h567l-285 709z" />
    <glyph glyph-name="abreve" unicode="&#x103;" horiz-adv-x="1095" 
d="M530 1188q-138 -5 -237.5 82t-112.5 243h195q6 -78 46 -119.5t109 -41.5t109.5 40.5t46.5 120.5h191q-12 -150 -107 -239q-95 -86 -240 -86zM432 -18q-151 0 -246 86q-96 84 -96 215v10q1 101 54.5 168.5t142.5 101.5q103 41 225 41h127q94 0 94 86q0 66 -51 111
q-54 45 -150 45q-90 0 -149.5 -46.5t-71.5 -123.5l-207 47q9 73 70 154q62 80 160 122q82 39 207 39q286 0 381 -209q34 -72 34 -180v-485q0 -92 7 -164h-222q-10 48 -10 139q-51 -83 -131 -121q-79 -36 -168 -36zM731 444h-219q-74 0 -133 -36q-62 -41 -62 -105
q0 -63 45 -101t117 -38q118 0 185 67t67 181v32z" />
    <glyph glyph-name="Aogonek" unicode="&#x104;" horiz-adv-x="1492" 
d="M1481 -305v-156q-46 -4 -70 -4q-118 0 -197 55q-79 52 -79 154q0 118 178 256h-68l-137 350h-729l-139 -350h-240l608 1493h277l604 -1493q-63 -50 -72 -59q-28 -22 -57 -66q-29 -47 -29 -78q0 -102 148 -102h2zM461 559h567l-285 709z" />
    <glyph glyph-name="aogonek" unicode="&#x105;" horiz-adv-x="1095" 
d="M805 -203q0 -102 147 -102h2v-156q-46 -4 -69 -4q-118 0 -197 55q-80 53 -80 154q0 118 178 256h-45q-10 48 -10 139q-51 -83 -131 -121q-79 -36 -168 -36q-151 0 -246 86q-96 84 -96 215v10q1 101 54.5 168.5t142.5 101.5q103 41 225 41h127q94 0 94 86q0 66 -51 111
q-54 45 -150 45q-90 0 -149.5 -46.5t-71.5 -123.5l-207 47q9 73 70 154q62 80 160 122q82 39 207 39q286 0 381 -209q34 -72 34 -180v-485q0 -92 7 -164q-54 -43 -72 -59q-28 -22 -57 -66q-29 -47 -29 -78zM731 444h-219q-74 0 -133 -36q-62 -41 -62 -105q0 -63 45 -101
t117 -38q118 0 185 67t67 181v32z" />
    <glyph glyph-name="Cacute" unicode="&#x106;" horiz-adv-x="1607" 
d="M952 1956h277l-277 -328h-196zM842 -18q-170 -2 -329 73.5t-265 210.5q-73 91 -114.5 214.5t-41.5 260.5q0 164 62 312q62 145 165 245q105 99 244 158q142 60 289 60q117 0 224.5 -30.5t187.5 -82.5q81 -58 135 -117q105 -119 143 -260l-231 -80q-17 79 -74 162
q-39 54 -86 90q-50 42 -130 69t-171 27q-201 0 -354 -147q-73 -71 -115.5 -175t-42.5 -222q0 -119 42 -224.5t114 -175.5q71 -70 163 -108.5t191 -38.5q84 0 160 25.5t129 66.5q56 46 90 90q64 86 88 172l231 -80q-53 -185 -205 -315q-132 -113 -297 -156q-99 -24 -202 -24z
" />
    <glyph glyph-name="cacute" unicode="&#x107;" horiz-adv-x="1163" 
d="M696 1520h279l-277 -328h-196zM614 -18q-109 -1 -208 40t-170.5 112.5t-113 170t-40.5 207.5q0 138 72 264q69 122 192 193q120 69 272 69q185 0 310 -96q124 -93 162 -231l-207 -68q-18 65 -78 125q-69 66 -189 66q-124 0 -213 -89q-86 -89 -86 -231q0 -141 86 -233
q87 -93 215 -93q195 0 269 195l209 -68q-38 -125 -154 -223q-126 -110 -328 -110z" />
    <glyph glyph-name="Ccircumflex" unicode="&#x108;" horiz-adv-x="1607" 
d="M719 1628h-225l264 328h178l272 -328h-215l-141 176zM842 -18q-170 -2 -329 73.5t-265 210.5q-73 91 -114.5 214.5t-41.5 260.5q0 164 62 312q62 145 165 245q105 99 244 158q142 60 289 60q117 0 224.5 -30.5t187.5 -82.5q81 -58 135 -117q105 -119 143 -260l-231 -80
q-17 79 -74 162q-39 54 -86 90q-50 42 -130 69t-171 27q-201 0 -354 -147q-73 -71 -115.5 -175t-42.5 -222q0 -119 42 -224.5t114 -175.5q71 -70 163 -108.5t191 -38.5q84 0 160 25.5t129 66.5q56 46 90 90q64 86 88 172l231 -80q-53 -185 -205 -315q-132 -113 -297 -156
q-99 -24 -202 -24z" />
    <glyph glyph-name="ccircumflex" unicode="&#x109;" horiz-adv-x="1163" 
d="M489 1190h-225l262 330h179l274 -330h-217l-141 176zM614 -18q-109 -1 -208 40t-170.5 112.5t-113 170t-40.5 207.5q0 138 72 264q69 122 192 193q120 69 272 69q185 0 310 -96q124 -93 162 -231l-207 -68q-18 65 -78 125q-69 66 -189 66q-124 0 -213 -89
q-86 -89 -86 -231q0 -141 86 -233q87 -93 215 -93q195 0 269 195l209 -68q-38 -125 -154 -223q-126 -110 -328 -110z" />
    <glyph glyph-name="Cdotaccent" unicode="&#x10a;" horiz-adv-x="1607" 
d="M956 1663q-45 -45 -106 -45q-60 0 -105 45t-45 106t43 107q43 43 107 43q63 0 106 -43q45 -48 45 -107q0 -61 -45 -106zM842 -18q-170 -2 -329 73.5t-265 210.5q-73 91 -114.5 214.5t-41.5 260.5q0 164 62 312q62 145 165 245q105 99 244 158q142 60 289 60
q117 0 224.5 -30.5t187.5 -82.5q81 -58 135 -117q105 -119 143 -260l-231 -80q-17 79 -74 162q-39 54 -86 90q-50 42 -130 69t-171 27q-201 0 -354 -147q-73 -71 -115.5 -175t-42.5 -222q0 -119 42 -224.5t114 -175.5q71 -70 163 -108.5t191 -38.5q84 0 160 25.5t129 66.5
q56 46 90 90q64 86 88 172l231 -80q-53 -185 -205 -315q-132 -113 -297 -156q-99 -24 -202 -24z" />
    <glyph glyph-name="cdotaccent" unicode="&#x10b;" horiz-adv-x="1161" 
d="M725 1229q-45 -45 -109 -45q-62 0 -104 45q-43 43 -43 104q0 66 43 109t104 43q66 0 109 -43q43 -46 43 -109q0 -61 -43 -104zM614 -18q-109 -1 -208 40t-170.5 112.5t-112.5 170t-39 207.5q0 142 70 264q69 122 192 193q120 69 270 69q185 0 310 -96q125 -92 161 -231
l-204 -68q-18 65 -78 125q-69 66 -189 66q-124 0 -213 -89q-86 -89 -86 -231q0 -140 84 -233q87 -93 217 -93q195 0 269 195l207 -68q-35 -124 -152 -223q-126 -110 -328 -110z" />
    <glyph glyph-name="Ccaron" unicode="&#x10c;" horiz-adv-x="1607" 
d="M762 1630l-264 328h225l133 -176l139 176h217l-272 -328h-178zM842 -18q-170 -2 -329 73.5t-265 210.5q-73 91 -114.5 214.5t-41.5 260.5q0 164 62 312q62 145 165 245q105 99 244 158q142 60 289 60q117 0 224.5 -30.5t187.5 -82.5q81 -58 135 -117q105 -119 143 -260
l-231 -80q-17 79 -74 162q-39 54 -86 90q-50 42 -130 69t-171 27q-201 0 -354 -147q-73 -71 -115.5 -175t-42.5 -222q0 -119 42 -224.5t114 -175.5q71 -70 163 -108.5t191 -38.5q84 0 160 25.5t129 66.5q56 46 90 90q64 86 88 172l231 -80q-53 -185 -205 -315
q-132 -113 -297 -156q-99 -24 -202 -24z" />
    <glyph glyph-name="ccaron" unicode="&#x10d;" horiz-adv-x="1163" 
d="M524 1190l-262 330h225l131 -177l142 177h217l-275 -330h-178zM614 -18q-109 -1 -208 40t-170.5 112.5t-113 170t-40.5 207.5q0 138 72 264q69 122 192 193q120 69 272 69q185 0 310 -96q124 -93 162 -231l-207 -68q-18 65 -78 125q-69 66 -189 66q-124 0 -213 -89
q-86 -89 -86 -231q0 -141 86 -233q87 -93 215 -93q195 0 269 195l209 -68q-38 -125 -154 -223q-126 -110 -328 -110z" />
    <glyph glyph-name="Dcaron" unicode="&#x10e;" horiz-adv-x="1554" 
d="M582 1630l-265 328h226l133 -176l139 176h217l-274 -328h-176zM1464 745q2 -160 -70 -315.5t-206 -265.5q-94 -76 -228.5 -120t-289.5 -44h-480v1493h476q241 0 409 -92q164 -91 256 -232q133 -202 133 -424zM1223 745q2 108 -47.5 219.5t-141.5 192.5q-65 55 -160 87
t-208 32h-236v-1059h236q221 0 366 115q65 55 107 121q84 131 84 292z" />
    <glyph glyph-name="dcaron" unicode="&#x10f;" horiz-adv-x="1335" 
d="M1300 1554h254l-110 -446h-172zM82 510q0 98 35 191t98 169q66 77 164 122.5t211 45.5q85 0 178 -43q100 -41 152 -123v680h227v-1552h-223v160q-38 -62 -105 -105q-69 -40 -129 -55q-62 -16 -106 -16q-142 0 -258 75q-115 72 -181 195q-63 123 -63 256zM922 510
q0 136 -84 229q-86 92 -222 92q-133 0 -219 -92q-86 -95 -86 -229q0 -132 86 -227q87 -93 219 -93q135 0 222 93q84 93 84 227z" />
    <glyph glyph-name="Dcroat" unicode="&#x110;" horiz-adv-x="1591" 
d="M229 653h-200v213h200v627h476q136 0 256 -33t206 -92q78 -51 152 -131q91 -106 135 -235t47 -257q2 -161 -69 -316.5t-205 -264.5q-94 -76 -229 -120t-291 -44h-478v653zM465 866h332v-213h-332v-436h231q224 0 369 115q62 53 106 121q84 131 84 292q2 109 -47.5 220.5
t-142.5 191.5q-63 55 -159 87t-208 32h-233v-410z" />
    <glyph glyph-name="dslash" unicode="&#x111;" horiz-adv-x="1298" 
d="M1147 1198v-1198h-223v160q-38 -62 -105 -105q-69 -40 -129 -55q-66 -16 -106 -16q-142 0 -258 75q-115 72 -181 195q-63 123 -63 256q0 98 35 191t98 169q66 77 164 122.5t211 45.5q80 0 178 -43q100 -41 152 -123v326h-318v166h318v188h227v-188h133v-166h-133z
M922 510q0 136 -84 229q-86 92 -222 92t-219 -92q-86 -95 -86 -229q0 -135 86 -227q87 -93 219 -93q135 0 222 93q84 93 84 227z" />
    <glyph glyph-name="Emacron" unicode="&#x112;" horiz-adv-x="1265" 
d="M1004 1696h-662v180h662v-180zM190 1497h957v-213h-721v-414h655v-213h-655v-440h729v-213h-965v1493z" />
    <glyph glyph-name="emacron" unicode="&#x113;" horiz-adv-x="1173" 
d="M928 1210h-662v183h662v-183zM1090 442h-775q3 -111 94.5 -189.5t204.5 -76.5q101 0 171.5 43t99.5 129l190 -59q-27 -92 -97.5 -164.5t-164.5 -108.5q-93 -34 -197 -34q-108 -2 -207.5 39t-171 112t-113.5 170t-40 207q0 141 66 264q69 125 184 193q118 71 262 71
q235 0 365 -145q133 -145 133 -381q0 -30 -4 -70zM598 844q-107 0 -180 -64q-75 -63 -90 -166h534q-6 103 -80 168q-77 62 -184 62z" />
    <glyph glyph-name="Edotaccent" unicode="&#x116;" horiz-adv-x="1265" 
d="M788 1663q-48 -45 -108 -45t-105 45q-43 43 -43 106t41 107q46 43 107 43q62 0 108 -43q43 -46 43 -107q0 -63 -43 -106zM190 1493h957v-213h-721v-414h655v-213h-655v-440h729v-213h-965v1493z" />
    <glyph glyph-name="edotaccent" unicode="&#x117;" horiz-adv-x="1173" 
d="M707 1229q-42 -45 -107 -45q-64 0 -106 45q-43 43 -43 104q0 63 43 109q43 43 106 43q64 0 107 -43q45 -45 45 -109q0 -62 -45 -104zM1090 442h-775q3 -111 94.5 -189.5t204.5 -76.5q101 0 171.5 43t99.5 129l190 -59q-27 -92 -97.5 -164.5t-164.5 -108.5
q-93 -34 -197 -34q-108 -2 -207.5 39t-171 112t-113.5 170t-40 207q0 141 66 264q69 125 184 193q118 71 262 71q235 0 365 -145q133 -145 133 -381q0 -30 -4 -70zM598 844q-107 0 -180 -64q-75 -63 -90 -166h534q-6 103 -80 168q-77 62 -184 62z" />
    <glyph glyph-name="Eogonek" unicode="&#x118;" horiz-adv-x="1263" 
d="M1147 -305v-156q-46 -4 -72 -4q-117 0 -196 55q-80 53 -80 154q0 118 178 256h-787v1493h957v-213h-723v-414h657v-213h-657v-440h729v-213h2q-71 -56 -74 -59q-24 -21 -57 -66q-29 -47 -29 -78q0 -102 148 -102h4z" />
    <glyph glyph-name="eogonek" unicode="&#x119;" horiz-adv-x="1173" 
d="M627 -18h-11q-108 -2 -207.5 39t-171 112t-113.5 170t-40 207q0 141 66 264q69 125 184 193q118 71 262 71q235 0 365 -145q133 -145 133 -381q0 -30 -4 -70h-775q3 -111 94.5 -189.5t204.5 -76.5q101 0 171.5 43t99.5 129l190 -59q-30 -116 -149 -209l-109 -88
q-79 -65 -114 -109t-35 -86q0 -102 147 -102h4v-156q-46 -4 -71 -4q-118 0 -197 55q-80 53 -80 154q0 112 156 238zM598 844q-107 0 -180 -64q-75 -63 -90 -166h534q-6 103 -80 168q-77 62 -184 62z" />
    <glyph glyph-name="Ecaron" unicode="&#x11a;" horiz-adv-x="1265" 
d="M588 1630l-264 328h225l133 -176l139 176h217l-272 -328h-178zM190 1493h957v-213h-721v-414h655v-213h-655v-440h729v-213h-965v1493z" />
    <glyph glyph-name="ecaron" unicode="&#x11b;" horiz-adv-x="1173" 
d="M504 1190l-262 330h225l131 -177l141 177h217l-274 -330h-178zM1090 442h-775q3 -111 94.5 -189.5t204.5 -76.5q101 0 171.5 43t99.5 129l190 -59q-27 -92 -97.5 -164.5t-164.5 -108.5q-93 -34 -197 -34q-108 -2 -207.5 39t-171 112t-113.5 170t-40 207q0 141 66 264
q69 125 184 193q118 71 262 71q235 0 365 -145q133 -145 133 -381q0 -30 -4 -70zM598 844q-107 0 -180 -64q-75 -63 -90 -166h534q-6 103 -80 168q-77 62 -184 62z" />
    <glyph glyph-name="Gcircumflex" unicode="&#x11c;" horiz-adv-x="1628" 
d="M725 1628h-225l264 328h178l272 -328h-217l-139 176zM1518 1061l-230 -72q-29 109 -131 201q-54 49 -134 77.5t-171 28.5q-222 0 -367 -157q-149 -155 -149 -391q0 -153 65 -277q65 -127 183 -199q119 -73 266 -73q186 0 303 94q117 97 141 242h-536v213h788v-82
q0 -140 -48 -264.5t-136 -217.5q-87 -95 -219.5 -147.5t-290.5 -52.5q-221 0 -395 98q-176 102 -269 272q-96 170 -96 389q0 162 60 310q60 144 159 243q102 102 242 160q145 60 301 60q131 0 245.5 -37.5t197 -101t139 -144.5t82.5 -172z" />
    <glyph glyph-name="gcircumflex" unicode="&#x11d;" horiz-adv-x="1290" 
d="M479 1190h-227l264 330h178l275 -330h-217l-142 176zM578 -8q-104 0 -198.5 42.5t-158.5 115.5q-65 73 -102 167.5t-37 194.5q0 95 35 186.5t98 167.5q63 77 160.5 122.5t208.5 45.5q87 0 180 -41q102 -48 154 -131v156h221v-1012q0 -155 -74 -276q-78 -124 -197 -179
q-122 -61 -280 -61q-250 0 -402 152q-79 79 -100 192l213 62q18 -83 98 -142q79 -61 183 -61q65 0 123 18t105.5 53.5t75 95t27.5 136.5v168q-37 -61 -104 -103q-67 -40 -125 -55q-65 -14 -104 -14zM915 516q0 135 -84 225q-81 90 -219 90q-137 0 -221 -90t-84 -225t86 -227
q85 -94 219 -94t219 94q84 93 84 227z" />
    <glyph glyph-name="Gbreve" unicode="&#x11e;" horiz-adv-x="1628" 
d="M858 1626q-138 -3 -236.5 83.5t-111.5 242.5h195q4 -78 44 -120t109 -42t109.5 41t46.5 121h190q-12 -155 -106 -240q-95 -86 -240 -86zM1518 1061l-230 -72q-29 109 -131 201q-54 49 -134 77.5t-171 28.5q-222 0 -367 -157q-149 -155 -149 -391q0 -153 65 -277
q65 -127 183 -199q119 -73 266 -73q186 0 303 94q117 97 141 242h-536v213h788v-82q0 -140 -48 -264.5t-136 -217.5q-87 -95 -219.5 -147.5t-290.5 -52.5q-221 0 -395 98q-176 102 -269 272q-96 170 -96 389q0 162 60 310q60 144 159 243q102 102 242 160q145 60 301 60
q131 0 245.5 -37.5t197 -101t139 -144.5t82.5 -172z" />
    <glyph glyph-name="gbreve" unicode="&#x11f;" horiz-adv-x="1290" 
d="M612 1188q-139 -5 -238 82t-112 243h195q6 -78 46 -119.5t109 -41.5t109.5 40.5t46.5 120.5h190q-12 -151 -106 -239q-95 -86 -240 -86zM578 -8q-104 0 -198.5 42.5t-158.5 115.5q-65 73 -102 167.5t-37 194.5q0 95 35 186.5t98 167.5q63 77 160.5 122.5t208.5 45.5
q87 0 180 -41q102 -48 154 -131v156h221v-1012q0 -155 -74 -276q-78 -124 -197 -179q-122 -61 -280 -61q-250 0 -402 152q-79 79 -100 192l213 62q18 -83 98 -142q79 -61 183 -61q65 0 123 18t105.5 53.5t75 95t27.5 136.5v168q-37 -61 -104 -103q-67 -40 -125 -55
q-65 -14 -104 -14zM915 516q0 135 -84 225q-81 90 -219 90q-137 0 -221 -90t-84 -225t86 -227q85 -94 219 -94t219 94q84 93 84 227z" />
    <glyph glyph-name="Gdotaccent" unicode="&#x120;" horiz-adv-x="1626" 
d="M963 1663q-48 -45 -109 -45q-59 0 -104 45q-43 43 -43 106t41 107q46 43 106 43q63 0 109 -43q43 -46 43 -107q0 -63 -43 -106zM1516 1061l-230 -72q-29 109 -131 201q-54 49 -134 77.5t-171 28.5q-145 0 -262 -69q-118 -74 -185 -199t-67 -280q-3 -149 63 -275.5
t185.5 -201t263.5 -72.5q186 0 303 94t141 242h-534v213h788v-82q0 -139 -48.5 -263.5t-135.5 -218.5q-89 -95 -221.5 -147.5t-290.5 -52.5q-222 0 -393 98q-179 104 -271 272q-94 175 -94 389q0 162 60 310q56 142 157 243q103 103 244.5 161.5t298.5 58.5
q131 0 245.5 -37.5t197 -101t139 -144.5t82.5 -172z" />
    <glyph glyph-name="gdotaccent" unicode="&#x121;" horiz-adv-x="1290" 
d="M717 1229q-45 -45 -107 -45q-64 0 -106 45q-43 43 -43 104q0 63 43 109q43 43 106 43q64 0 107 -43q43 -46 43 -109q0 -61 -43 -104zM578 -8q-104 0 -198.5 42.5t-158.5 115.5q-65 73 -102 167.5t-37 194.5q0 95 35 186.5t98 167.5q63 77 160.5 122.5t208.5 45.5
q87 0 180 -41q102 -48 154 -131v156h221v-1012q0 -155 -74 -276q-78 -124 -197 -179q-122 -61 -280 -61q-250 0 -402 152q-79 79 -100 192l213 62q18 -83 98 -142q79 -61 183 -61q65 0 123 18t105.5 53.5t75 95t27.5 136.5v168q-37 -61 -104 -103q-67 -40 -125 -55
q-65 -14 -104 -14zM915 516q0 135 -84 225q-81 90 -219 90q-137 0 -221 -90t-84 -225t86 -227q85 -94 219 -94t219 94q84 93 84 227z" />
    <glyph glyph-name="Gcommaaccent" unicode="&#x122;" horiz-adv-x="1626" 
d="M1516 1061l-230 -72q-29 109 -131 201q-54 49 -134 77.5t-171 28.5q-145 0 -262 -69q-118 -74 -185 -199t-67 -280q-3 -149 63 -275.5t185.5 -201t263.5 -72.5q186 0 303 94t141 242h-534v213h788v-82q0 -139 -48.5 -263.5t-135.5 -218.5q-89 -95 -221.5 -147.5
t-290.5 -52.5q-222 0 -393 98q-179 104 -271 272q-94 175 -94 389q0 162 60 310q56 142 157 243q103 103 244.5 161.5t298.5 58.5q131 0 245.5 -37.5t197 -101t139 -144.5t82.5 -172zM711 -680v90q73 10 117 56t46 114q-24 -18 -63 -18q-52 0 -86.5 35.5t-34.5 89.5t39 90
q40 37 96 37q72 0 113 -50q39 -51 39 -124q0 -131 -70 -215.5t-196 -104.5z" />
    <glyph glyph-name="gcommaaccent" unicode="&#x123;" horiz-adv-x="1290" 
d="M737 1663v-90q-75 -10 -119.5 -56t-44.5 -112q22 16 62 16q54 0 88.5 -34.5t34.5 -88.5q0 -57 -41 -92q-37 -37 -94 -37q-72 0 -111 52q-41 49 -41 125q0 131 70 214.5t196 102.5zM578 -8q-104 0 -198.5 42.5t-158.5 115.5q-65 73 -102 167.5t-37 194.5q0 95 35 186.5
t98 167.5q63 77 160.5 122.5t208.5 45.5q87 0 180 -41q102 -48 154 -131v156h221v-1012q0 -155 -74 -276q-78 -124 -197 -179q-122 -61 -280 -61q-250 0 -402 152q-79 79 -100 192l213 62q18 -83 98 -142q79 -61 183 -61q65 0 123 18t105.5 53.5t75 95t27.5 136.5v168
q-37 -61 -104 -103q-67 -40 -125 -55q-65 -14 -104 -14zM915 516q0 135 -84 225q-81 90 -219 90q-137 0 -221 -90t-84 -225t86 -227q85 -94 219 -94t219 94q84 93 84 227z" />
    <glyph glyph-name="Hbar" unicode="&#x126;" horiz-adv-x="1603" 
d="M432 645v-645h-235v1100h-146v180h146v213h235v-213h739v213h234v-213h151v-180h-151v-1100h-234v645h-739zM1171 866v234h-739v-234h739z" />
    <glyph glyph-name="hbar" unicode="&#x127;" 
d="M152 1552h227v-188h317v-166h-317v-309q44 56 104 94q66 37 109 45q52 10 92 10q189 0 285 -114q96 -111 96 -297v-627h-225v569q0 118 -58 186t-168 68q-109 0 -172 -69t-63 -187v-567h-227v1198h-134v166h134v188z" />
    <glyph glyph-name="Itilde" unicode="&#x128;" horiz-adv-x="614" 
d="M651 1929v-20q0 -254 -198 -254q-42 -2 -94 22t-99.5 48.5t-75.5 23.5q-58 0 -61 -92h-160v22q0 254 201 254q48 1 145.5 -46.5t126.5 -45.5q61 0 70 88h145zM424 1493v-1493h-234v1493h234z" />
    <glyph glyph-name="itilde" unicode="&#x129;" horiz-adv-x="530" 
d="M608 1483v-21q0 -254 -198 -254q-52 -2 -144.5 46t-124.5 46q-58 0 -61 -90h-160v21q0 254 203 254q47 2 144 -45t126 -45q61 0 70 88h145zM379 1018v-1018h-227v1018h227z" />
    <glyph glyph-name="Imacron" unicode="&#x12a;" horiz-adv-x="616" 
d="M610 1696h-604v180h604v-180zM426 1493v-1493h-236v1493h236z" />
    <glyph glyph-name="imacron" unicode="&#x12b;" horiz-adv-x="530" 
d="M563 1210h-596v183h596v-183zM379 1018v-1018h-227v1018h227z" />
    <glyph glyph-name="Ibreve" unicode="&#x12c;" horiz-adv-x="614" 
d="M307 1626q-88 -2 -162.5 34t-125 112t-60.5 180h195q6 -78 45 -120t108 -42q70 0 111 41t45 121h192q-15 -155 -106 -240q-95 -86 -242 -86zM424 1493v-1493h-234v1493h234z" />
    <glyph glyph-name="ibreve" unicode="&#x12d;" horiz-adv-x="530" 
d="M266 1188q-137 -5 -236 82t-112 243h195q4 -78 44 -119.5t109 -41.5t109.5 40.5t46.5 120.5h190q-12 -154 -106 -239q-95 -86 -240 -86zM379 1018v-1018h-227v1018h227z" />
    <glyph glyph-name="Iogonek" unicode="&#x12e;" horiz-adv-x="614" 
d="M266 -203q0 -102 148 -102h4v-156q-46 -4 -72 -4q-117 0 -196 55q-80 53 -80 154q0 118 178 256h-58v1493h234v-1493h2q-50 -36 -104 -90q-56 -59 -56 -113z" />
    <glyph glyph-name="iogonek" unicode="&#x12f;" horiz-adv-x="530" 
d="M264 1198q-59 0 -104 45t-45 105q0 61 45 106q42 45 104 45q65 0 107 -45q43 -43 43 -106q0 -62 -43 -105q-45 -45 -107 -45zM379 0q-63 -47 -103 -90q-55 -58 -55 -113q0 -102 148 -102h2v-156q-46 -4 -70 -4q-120 0 -199 55q-79 54 -79 154q0 119 180 256h-51v1018h227
v-1018z" />
    <glyph glyph-name="Idot" unicode="&#x130;" horiz-adv-x="614" 
d="M414 1663q-48 -45 -107 -45q-61 0 -106 45q-43 43 -43 106q0 61 43 107q43 43 106 43q64 0 107 -43q43 -46 43 -107q0 -63 -43 -106zM424 1493v-1493h-234v1493h234z" />
    <glyph glyph-name="dotlessi" unicode="&#x131;" horiz-adv-x="530" 
d="M379 1018v-1018h-227v1018h227z" />
    <glyph glyph-name="IJ" unicode="&#x132;" horiz-adv-x="1312" 
d="M664 -16q-224 0 -357 127q-133 124 -133 340v84h236v-72q0 -125 71 -193q73 -67 172 -67q109 0 178 69q70 70 70 179v1042h236v-1042q0 -201 -133 -334t-340 -133zM410 1493h-236v-739h236v739z" />
    <glyph glyph-name="Kcommaaccent" unicode="&#x136;" horiz-adv-x="1355" 
d="M424 0h-234v1493h234v-645l596 645h311l-667 -715l706 -778h-317l-629 705v-705zM578 -680v90q75 10 119 56t44 114q-21 -18 -61 -18q-54 0 -87.5 35.5t-33.5 89.5q0 57 39 90q40 37 94 37q72 0 113 -50q39 -51 39 -124q0 -131 -69.5 -215.5t-196.5 -104.5z" />
    <glyph glyph-name="kcommaaccent" unicode="&#x137;" horiz-adv-x="1105" 
d="M379 498v-498h-227v1552h227v-936h2l395 402h309l-460 -461l485 -557h-301l-424 498h-6zM446 -680v90q75 11 119.5 57t44.5 113q-24 -18 -61 -18q-54 0 -87.5 35.5t-33.5 89.5q0 57 39 90q37 37 94 37q69 0 113 -50q39 -51 39 -124q0 -131 -70.5 -215.5t-196.5 -104.5z
" />
    <glyph glyph-name="Lacute" unicode="&#x139;" horiz-adv-x="1128" 
d="M418 1956h276l-276 -328h-197zM190 1493h234v-1276h674v-217h-908v1493z" />
    <glyph glyph-name="lacute" unicode="&#x13a;" horiz-adv-x="530" 
d="M365 2011h276l-276 -328h-197zM379 1552v-1552h-227v1552h227z" />
    <glyph glyph-name="Lcommaaccent" unicode="&#x13b;" horiz-adv-x="1128" 
d="M190 1493h234v-1276h674v-217h-908v1493zM508 -680v90q75 11 119.5 57t44.5 113q-24 -18 -62 -18q-54 0 -87.5 35.5t-33.5 89.5q0 57 39 90q37 37 95 37q68 0 112 -50q39 -51 39 -124q0 -131 -70 -215.5t-196 -104.5z" />
    <glyph glyph-name="lcommaaccent" unicode="&#x13c;" horiz-adv-x="530" 
d="M379 1552v-1552h-227v1552h227zM135 -680v90q75 11 119.5 57t44.5 113q-21 -18 -61 -18q-54 0 -87.5 35.5t-33.5 89.5q0 57 39 90q40 37 96 37q69 0 110 -50q41 -53 41 -124q0 -131 -70.5 -215.5t-197.5 -104.5z" />
    <glyph glyph-name="Lcaron" unicode="&#x13d;" horiz-adv-x="1157" 
d="M844 1536h254l-111 -446h-172zM190 1493h234v-1276h674v-217h-908v1493z" />
    <glyph glyph-name="lcaron" unicode="&#x13e;" horiz-adv-x="567" 
d="M532 1554h254l-110 -446h-172zM379 1552v-1552h-227v1552h227z" />
    <glyph glyph-name="Ldot" unicode="&#x13f;" horiz-adv-x="1155" 
d="M190 1493h234v-1276h674v-217h-908v1493zM842 635q-43 43 -43 104q0 63 43 109q43 43 106 43q61 0 107 -43q43 -46 43 -109q0 -61 -43 -104q-46 -43 -107 -43q-63 0 -106 43z" />
    <glyph glyph-name="ldot" unicode="&#x140;" horiz-adv-x="802" 
d="M379 1552v-1552h-227v1552h227zM557 616q-43 43 -43 105t43 108q43 43 107 43q61 0 104 -43q45 -45 45 -108t-45 -105q-43 -43 -104 -43q-64 0 -107 43z" />
    <glyph glyph-name="Lslash" unicode="&#x141;" horiz-adv-x="1179" 
d="M238 594l-197 -88v225l197 88v674h235v-567l424 190v-225l-424 -191v-483h674v-217h-909v594z" />
    <glyph glyph-name="lslash" unicode="&#x142;" horiz-adv-x="757" 
d="M76 399v232l194 112v809h228v-678l194 115v-231l-194 -111v-647h-228v512z" />
    <glyph glyph-name="Nacute" unicode="&#x143;" horiz-adv-x="1640" 
d="M918 1956h276l-276 -328h-197zM1450 0h-262l-766 1143v-1143h-232v1493h271l758 -1137v1137h231v-1493z" />
    <glyph glyph-name="nacute" unicode="&#x144;" horiz-adv-x="1208" 
d="M709 1520h276l-276 -328h-197zM840 0v569q0 119 -57.5 186.5t-168.5 67.5q-110 0 -170 -69q-65 -71 -65 -187v-567h-227v1018h223v-137q47 62 106 98t109 49q55 10 96 10q187 0 283 -114q98 -113 98 -297v-627h-227z" />
    <glyph glyph-name="Ncommaaccent" unicode="&#x145;" horiz-adv-x="1638" 
d="M1450 0h-262l-766 1143v-1143h-232v1493h271l758 -1137v1137h231v-1493zM709 -680v90q75 10 118 56t45 114q-24 -18 -61 -18q-54 0 -88.5 35.5t-34.5 89.5q0 55 41 90q40 37 94 37q72 0 113 -50q39 -51 39 -124q0 -131 -70 -215.5t-196 -104.5z" />
    <glyph glyph-name="ncommaaccent" unicode="&#x146;" 
d="M840 0v569q0 118 -58 186t-168 68q-109 0 -172 -69t-63 -187v-567h-227v1018h221v-137q45 60 108 98q61 37 109 49q52 10 94 10q189 0 285 -114q96 -111 96 -297v-627h-225zM483 -680v90q75 11 119.5 57t44.5 113q-21 -18 -61 -18q-54 0 -87.5 35.5t-33.5 89.5
q0 57 39 90q40 37 94 37q72 0 113 -50q39 -51 39 -124q0 -131 -70 -215.5t-197 -104.5z" />
    <glyph glyph-name="Ncaron" unicode="&#x147;" horiz-adv-x="1640" 
d="M727 1630l-264 328h225l131 -176l142 176h217l-275 -328h-176zM1450 0h-262l-766 1143v-1143h-232v1493h271l758 -1137v1137h231v-1493z" />
    <glyph glyph-name="ncaron" unicode="&#x148;" horiz-adv-x="1208" 
d="M524 1190l-262 330h225l131 -177l142 177h217l-275 -330h-178zM840 0v569q0 119 -57.5 186.5t-168.5 67.5q-110 0 -170 -69q-65 -71 -65 -187v-567h-227v1018h223v-137q47 62 106 98t109 49q55 10 96 10q94 0 167.5 -31.5t119.5 -87.5t70 -130t24 -162v-627h-227z" />
    <glyph glyph-name="Eng" unicode="&#x14a;" horiz-adv-x="1638" 
d="M1450 1493v-1647q0 -181 -75 -265.5t-232 -84.5q-72 0 -146 19v192q50 -6 74 -6q79 0 113.5 40t34.5 118v135l-797 1155v-1149h-232v1493h271l758 -1104v1104h231z" />
    <glyph glyph-name="eng" unicode="&#x14b;" 
d="M840 -143v712q0 118 -58 186t-168 68q-109 0 -172 -69t-63 -187v-567h-227v1018h221v-137q45 60 108 98q61 37 109 49q52 10 94 10q189 0 285 -114q96 -111 96 -297v-783q0 -181 -73.5 -264.5t-227.5 -83.5q-72 0 -146 19v192q50 -6 74 -6q72 0 110 40t38 116z" />
    <glyph glyph-name="Omacron" unicode="&#x14c;" horiz-adv-x="1716" 
d="M1188 1696h-660v180h660v-180zM92 743q0 162 62 304q58 143 163 245q100 103 246 162q139 62 297 62q206 0 385 -101q176 -99 277 -276q102 -175 102 -389q0 -163 -61 -306t-164 -243q-104 -101 -246 -160q-145 -59 -299 -59q-155 0 -297 59q-140 55 -244 156
q-100 100 -161 243q-60 142 -60 303zM338 748q-2 -109 38.5 -210.5t110.5 -176t167.5 -118.5t203.5 -42q105 0 202 42.5t169 116.5q70 74 109.5 176.5t39.5 211.5q0 151 -67 276q-70 125 -191 199q-119 73 -262 73q-142 3 -263 -71.5t-190.5 -202t-66.5 -274.5z" />
    <glyph glyph-name="omacron" unicode="&#x14d;" horiz-adv-x="1239" 
d="M950 1210h-661v183h661v-183zM82 510q0 146 74 270q77 126 196 191q125 67 271 67t268 -67q118 -65 194 -189q72 -126 72 -268q2 -108 -40.5 -208t-115 -171.5t-172.5 -113t-208 -39.5q-143 0 -269 69q-118 63 -196 191q-74 124 -74 268zM315 514q0 -134 86 -229
q88 -97 222 -97q136 0 219 95q84 93 84 227q0 137 -86 229q-83 95 -219 95q-135 0 -222 -93q-84 -93 -84 -227z" />
    <glyph glyph-name="Ohungarumlaut" unicode="&#x150;" horiz-adv-x="1716" 
d="M770 1956h268l-268 -328h-186zM1145 1956h268l-266 -328h-186zM92 743q0 162 62 304q58 143 163 245q100 103 246 162q139 62 297 62q206 0 385 -101q176 -99 277 -276q102 -175 102 -389q0 -163 -61 -306t-164 -243q-104 -101 -246 -160q-145 -59 -299 -59
q-155 0 -297 59q-140 55 -244 156q-100 100 -161 243q-60 142 -60 303zM338 748q-2 -109 38.5 -210.5t110.5 -176t167.5 -118.5t203.5 -42q105 0 202 42.5t169 116.5q70 74 109.5 176.5t39.5 211.5q0 151 -67 276q-70 125 -191 199q-119 73 -262 73q-142 3 -263 -71.5
t-190.5 -202t-66.5 -274.5z" />
    <glyph glyph-name="ohungarumlaut" unicode="&#x151;" horiz-adv-x="1239" 
d="M516 1520h268l-268 -328h-186zM891 1520h268l-266 -328h-186zM82 510q0 146 74 270q78 128 196 191q122 67 271 67q144 0 266 -67q121 -66 196 -189q72 -126 72 -268q3 -144 -70 -268.5t-198 -195.5t-268 -68q-143 0 -269 69q-118 63 -196 191q-74 124 -74 268zM315 514
q0 -134 86 -229q88 -97 222 -97q133 0 219 95q84 93 84 227q0 137 -86 229q-83 95 -219 95q-135 0 -222 -93q-84 -90 -84 -227z" />
    <glyph glyph-name="OE" unicode="&#x152;" horiz-adv-x="2447" 
d="M1376 221h-4q-88 -114 -231 -176q-141 -63 -299 -63q-152 0 -291 59q-135 54 -240 156q-102 102 -159 243q-60 142 -60 303q0 162 62 304q63 148 163 245q100 103 242 162q142 62 293 62q144 0 291 -64q139 -65 227 -178h6v219h953v-213h-723v-414h657v-213h-657v-440
h729v-213h-959v221zM338 748q0 -148 68 -275t186 -199q119 -73 264 -73q105 0 204 43t169 116q72 75 112.5 176t40.5 212q0 149 -71 276q-67 125 -191 199q-119 73 -264 73q-107 0 -203.5 -42.5t-165.5 -116.5q-70 -74 -109.5 -176t-39.5 -213z" />
    <glyph glyph-name="oe" unicode="&#x153;" horiz-adv-x="2011" 
d="M1927 442h-774q3 -112 94.5 -190t206.5 -76q100 0 170.5 43.5t97.5 128.5l193 -59q-27 -93 -98 -165t-166 -108q-90 -34 -195 -34q-128 0 -236.5 53t-181.5 149q-74 -96 -183.5 -149t-236.5 -53q-144 0 -270 69q-116 64 -194 191q-72 126 -72 268q0 147 74 268
q70 122 194 193q122 67 268 67q127 0 235.5 -52t182.5 -146q68 94 171 146t227 52q233 0 366 -145q131 -146 131 -381q0 -20 -4 -70zM1436 844q-108 0 -181 -64q-75 -63 -90 -166h535q-3 100 -80 168q-77 62 -184 62zM313 510q0 -135 86 -227q86 -95 219 -95q136 0 222 95
q84 90 84 227q0 136 -84 229q-86 92 -222 92t-219 -92q-86 -95 -86 -229z" />
    <glyph glyph-name="Racute" unicode="&#x154;" horiz-adv-x="1372" 
d="M750 1956h276l-276 -328h-197zM735 567h-311v-567h-234v1493h562q132 0 233.5 -38t161.5 -105q113 -130 113 -318q0 -148 -76 -258t-219 -160l331 -614h-260zM424 778h303q81 0 140.5 22t92 59t47.5 78.5t15 88.5q0 48 -12.5 88.5t-43 79t-91.5 60.5t-148 22h-303v-498z
" />
    <glyph glyph-name="racute" unicode="&#x155;" horiz-adv-x="749" 
d="M528 1520h279l-277 -328h-196zM709 1022v-234q-31 7 -64 7q-128 0 -197 -72t-69 -205v-518h-227v1018h223v-158q43 80 117.5 123t160.5 43q24 0 56 -4z" />
    <glyph glyph-name="Rcommaaccent" unicode="&#x156;" horiz-adv-x="1372" 
d="M735 567h-311v-567h-234v1493h562q132 0 233.5 -38t161.5 -105q113 -130 113 -318q0 -148 -76 -258t-219 -160l331 -614h-260zM424 778h303q81 0 140.5 22t92 59t47.5 78.5t15 88.5q0 48 -12.5 88.5t-43 79t-91.5 60.5t-148 22h-303v-498zM559 -680v90q75 11 119.5 57
t44.5 113q-24 -18 -61 -18q-54 0 -87.5 35.5t-33.5 89.5q0 57 39 90q37 37 94 37q68 0 112 -50q39 -51 39 -124q0 -131 -70 -215.5t-196 -104.5z" />
    <glyph glyph-name="rcommaaccent" unicode="&#x157;" horiz-adv-x="749" 
d="M709 1022v-234q-31 7 -64 7q-128 0 -197 -72t-69 -205v-518h-227v1018h223v-158q43 80 117.5 123t160.5 43q24 0 56 -4zM139 -680v90q75 11 119.5 57t44.5 113q-24 -18 -61 -18q-54 0 -87.5 35.5t-33.5 89.5q0 57 39 90q37 37 94 37q69 0 113 -50q39 -51 39 -124
q0 -131 -70.5 -215.5t-196.5 -104.5z" />
    <glyph glyph-name="Rcaron" unicode="&#x158;" horiz-adv-x="1372" 
d="M580 1630l-265 328h226l133 -176l139 176h217l-272 -328h-178zM735 567h-311v-567h-234v1493h562q132 0 233.5 -38t161.5 -105q113 -130 113 -318q0 -148 -76 -258t-219 -160l331 -614h-260zM424 778h303q81 0 140.5 22t92 59t47.5 78.5t15 88.5q0 48 -12.5 88.5t-43 79
t-91.5 60.5t-148 22h-303v-498z" />
    <glyph glyph-name="rcaron" unicode="&#x159;" horiz-adv-x="749" 
d="M338 1190l-266 330h227l133 -177l141 177h215l-272 -330h-178zM709 1022v-234q-31 7 -64 7q-128 0 -197 -72t-69 -205v-518h-227v1018h223v-158q43 80 117.5 123t160.5 43q24 0 56 -4z" />
    <glyph glyph-name="Sacute" unicode="&#x15a;" horiz-adv-x="1241" 
d="M713 1956h276l-276 -328h-197zM633 -16q-123 0 -227.5 37.5t-172.5 101.5q-138 128 -153 297l227 61q24 -131 111 -209q86 -77 219 -77q112 0 192 59q78 60 78 149q0 85 -59 141.5t-162 78.5l-184 36q-178 37 -277 148q-100 109 -100 258q-3 118 65 223.5t182.5 167.5
t243.5 60q282 -3 414 -170q74 -89 96 -199l-219 -68q-22 89 -98 156q-77 68 -186 68q-110 0 -183 -64q-75 -63 -75 -152q0 -67 51 -124q53 -56 137 -74l188 -37q197 -40 302.5 -152t105.5 -280q0 -169 -133 -299q-66 -63 -166 -100t-217 -37z" />
    <glyph glyph-name="sacute" unicode="&#x15b;" horiz-adv-x="946" 
d="M549 1520h278l-276 -328h-197zM485 -18q-117 1 -202 40.5t-133 102.5q-62 79 -68 154l194 51q15 -73 69.5 -117.5t135.5 -44.5q68 0 107 32t39 87q0 83 -121 112l-131 31q-131 30 -201 108t-70 183q0 129 105 223q107 96 256 96q218 -3 313 -135q50 -62 64 -137l-193 -53
q-13 63 -59.5 102t-124.5 39q-57 0 -96 -33q-43 -30 -43 -82q0 -41 28 -69t74 -37l139 -29q137 -30 213 -112t76 -195q0 -128 -97 -222.5t-274 -94.5z" />
    <glyph glyph-name="Scircumflex" unicode="&#x15c;" horiz-adv-x="1243" 
d="M492 1628h-226l262 328h179l274 -328h-217l-141 176zM635 -16q-151 0 -266.5 51.5t-184.5 138.5q-90 109 -106 246l229 61q27 -132 113 -209t219 -77q113 0 190 59q78 60 78 149q0 87 -58 142t-161 78l-184 36q-181 38 -279 148q-100 109 -100 258q0 119 68 225
q61 100 180 164q115 62 245 62q144 -1 248.5 -47t165.5 -123q75 -90 94 -199l-219 -68q-22 88 -96 156q-77 68 -186 68t-185 -64q-73 -64 -73 -152q0 -67 51 -124q50 -56 137 -74l188 -37q197 -40 302.5 -152t105.5 -280q0 -169 -133 -299q-66 -63 -166 -100t-217 -37z" />
    <glyph glyph-name="scircumflex" unicode="&#x15d;" horiz-adv-x="944" 
d="M338 1190h-227l264 330h178l274 -330h-217l-141 176zM483 -18q-116 1 -200.5 40.5t-132.5 102.5q-62 79 -68 154l194 51q16 -73 69.5 -117.5t135.5 -44.5q68 0 106 32t38 87q0 84 -121 112l-129 31q-132 30 -201.5 107.5t-69.5 183.5q0 130 105 225q105 94 256 94
q215 -3 313 -135q52 -69 62 -137l-191 -53q-15 63 -61 102t-123 39q-56 0 -98 -33q-41 -28 -41 -82q0 -42 27.5 -69.5t74.5 -36.5l139 -29q137 -31 213 -112q76 -85 76 -195q0 -60 -23 -115.5t-67.5 -101t-117.5 -73t-165 -27.5z" />
    <glyph glyph-name="Scedilla" unicode="&#x15e;" horiz-adv-x="1241" 
d="M553 -12q-105 10 -193.5 51t-146.5 104q-117 120 -133 277l227 61q24 -131 111 -209q86 -77 219 -77q112 0 192 59q78 60 78 149q0 85 -59 141.5t-162 78.5l-184 36q-178 37 -277 148q-100 109 -100 258q-3 118 65 223.5t182.5 167.5t243.5 60q282 -3 414 -170
q74 -89 96 -199l-219 -68q-22 89 -98 156q-77 68 -186 68q-110 0 -183 -64q-75 -63 -75 -152q0 -67 51 -124q53 -56 137 -74l188 -37q197 -40 302.5 -152t105.5 -280q0 -157 -113 -279q-57 -62 -142 -102.5t-185 -50.5q43 -67 43 -152q0 -99 -52 -166q-54 -73 -129 -102
q-73 -33 -172 -33q-81 0 -145 23v151q55 -14 125 -14q93 0 147 45t54 131q0 59 -27 117z" />
    <glyph glyph-name="scedilla" unicode="&#x15f;" horiz-adv-x="944" 
d="M567 -10q45 -70 45 -154q0 -96 -51 -166q-54 -73 -129 -102q-76 -33 -172 -33q-81 0 -145 23v151q55 -14 125 -14q93 0 146.5 45t53.5 131q0 56 -28 117q-95 11 -164.5 52t-108.5 99q-51 71 -57 140l194 51q16 -73 69.5 -117.5t135.5 -44.5q68 0 106 32t38 87
q0 84 -121 112l-129 31q-132 30 -201.5 107.5t-69.5 183.5q0 130 105 225q105 94 256 94q215 -3 313 -135q52 -69 62 -137l-191 -53q-15 63 -61 102t-123 39q-56 0 -98 -33q-41 -28 -41 -82q0 -42 27.5 -69.5t74.5 -36.5l139 -29q137 -31 213 -112q76 -85 76 -195
q0 -111 -76 -199q-77 -92 -213 -110z" />
    <glyph glyph-name="Scaron" unicode="&#x160;" horiz-adv-x="1241" 
d="M524 1630l-264 328h225l133 -176l140 176h217l-273 -328h-178zM633 -16q-123 0 -227.5 37.5t-172.5 101.5q-134 125 -153 297l227 61q24 -132 113 -209q86 -77 217 -77q115 0 192 59q78 60 78 149q0 86 -58.5 142t-162.5 78l-182 36q-180 37 -279 148q-100 112 -100 258
q-3 118 65.5 223.5t183.5 167.5t244 60q278 -3 414 -170q72 -90 94 -199l-219 -68q-22 89 -98 156q-77 68 -186 68q-110 0 -183 -64t-73 -152q0 -67 51 -124q50 -56 135 -74l190 -37q196 -40 301 -152t105 -280q0 -172 -133 -299q-65 -63 -165.5 -100t-217.5 -37z" />
    <glyph glyph-name="scaron" unicode="&#x161;" horiz-adv-x="946" 
d="M375 1190l-262 330h225l131 -177l141 177h217l-274 -330h-178zM485 -18q-95 0 -174 29t-127 77q-89 92 -102 191l194 51q15 -73 69.5 -117.5t135.5 -44.5q68 0 107 32t39 87q0 83 -121 112l-131 31q-131 30 -201 108t-70 183q0 130 105 225q108 94 256 94
q218 -3 313 -135q50 -62 64 -137l-193 -53q-13 63 -59.5 102t-124.5 39q-57 0 -96 -33q-43 -30 -43 -82q0 -41 28 -69t74 -37l139 -29q137 -30 213 -112t76 -195q0 -128 -97 -222.5t-274 -94.5z" />
    <glyph glyph-name="uni0162" unicode="&#x162;" horiz-adv-x="1257" 
d="M745 1276v-1276q52 -73 52 -164q0 -99 -52 -166q-54 -73 -129 -102q-76 -33 -172 -33q-81 0 -145 23v151q55 -14 125 -14q93 0 147 45t54 131q0 74 -35 129h-78v1276h-475v217h1184v-217h-476z" />
    <glyph glyph-name="uni0163" unicode="&#x163;" horiz-adv-x="811" 
d="M268 -305q93 0 147 45t54 131q0 69 -37 133q-96 25 -143 99.5t-47 211.5v498h-197v205h197v315h227v-315h258v-205h-258v-485q0 -68 36.5 -99.5t119.5 -31.5q40 0 92 8v-195q-49 -15 -123 -18q47 -68 47 -156q0 -100 -51 -166q-54 -73 -129 -102q-73 -33 -172 -33
q-36 0 -94 8v158q37 -6 73 -6z" />
    <glyph glyph-name="Tcaron" unicode="&#x164;" horiz-adv-x="1259" 
d="M535 1630l-263 328h226l131 -176l141 176h217l-274 -328h-178zM512 0v1276h-475v217h1184v-217h-473v-1276h-236z" />
    <glyph glyph-name="tcaron" unicode="&#x165;" horiz-adv-x="811" 
d="M631 1554h256l-113 -438h-170zM469 813v-485q0 -68 36.5 -99.5t119.5 -31.5q40 0 92 8v-195q-75 -20 -162 -20q-160 0 -236 73q-77 74 -77 252v498h-197v205h197v315h227v-315h258v-205h-258z" />
    <glyph glyph-name="Tbar" unicode="&#x166;" horiz-adv-x="1280" 
d="M522 645h-254v203h254v428h-473v217h1184v-217h-475v-428h254v-203h-254v-645h-236v645z" />
    <glyph glyph-name="tbar" unicode="&#x167;" horiz-adv-x="821" 
d="M737 1018v-205h-260v-174h221v-199h-221v-112q0 -68 37 -99.5t121 -31.5q40 0 92 8v-195q-75 -20 -164 -20q-159 0 -235 73t-76 252v125h-189v199h189v174h-199v205h199v315h225v-315h260z" />
    <glyph glyph-name="Utilde" unicode="&#x168;" horiz-adv-x="1507" 
d="M1098 1929v-20q0 -254 -197 -254q-43 -2 -95.5 22t-99.5 48.5t-75 23.5q-59 0 -62 -92h-159v22q0 254 202 254q47 1 145 -46.5t126 -45.5q60 0 69 88h146zM1335 1493v-913q0 -268 -147 -430q-145 -168 -436 -168q-143 0 -256 44.5t-183 125.5q-139 160 -139 417v924h234
v-915q0 -171 96 -275q97 -100 252 -100q165 0 254 102q90 104 90 264v924h235z" />
    <glyph glyph-name="utilde" unicode="&#x169;" horiz-adv-x="1208" 
d="M950 1483v-21q0 -254 -196 -254q-52 -2 -145.5 46t-125.5 46q-58 0 -61 -90h-158v21q0 254 201 254q47 2 145 -45t127 -45q58 0 70 88h143zM369 1018v-569q0 -119 56.5 -186.5t166.5 -67.5q109 0 172 69t63 187v567h228v-1018h-221v137q-46 -61 -107 -98
q-53 -35 -111 -49q-39 -10 -94 -10q-121 0 -209.5 54t-130.5 148q-41 86 -41 209v627h228z" />
    <glyph glyph-name="Umacron" unicode="&#x16a;" horiz-adv-x="1509" 
d="M1085 1696h-661v180h661v-180zM1335 1493v-913q0 -270 -145 -430q-148 -168 -438 -168q-142 0 -254.5 44.5t-184.5 125.5q-139 160 -139 417v924h236v-915q0 -176 96 -275q93 -100 252 -100q166 0 252 102q92 103 92 264v924h233z" />
    <glyph glyph-name="umacron" unicode="&#x16b;" horiz-adv-x="1208" 
d="M930 1210h-662v183h662v-183zM369 1018v-569q0 -119 56.5 -186.5t166.5 -67.5q109 0 172 69t63 187v567h228v-1018h-221v137q-46 -61 -107 -98q-53 -35 -111 -49q-39 -10 -94 -10q-121 0 -209.5 54t-130.5 148q-41 86 -41 209v627h228z" />
    <glyph glyph-name="Uring" unicode="&#x16e;" horiz-adv-x="1507" 
d="M754 1622q-114 0 -195 78q-82 76 -82 186q0 111 82 187q83 77 195 77q113 0 196 -77q82 -79 82 -187q0 -107 -82 -186q-84 -78 -196 -78zM754 2009q-54 0 -92 -35q-37 -32 -37 -88q0 -52 37 -86q36 -39 92 -39q55 0 94 39q37 34 37 86q0 47 -39 86q-40 37 -92 37z
M1335 1493v-913q0 -268 -147 -430q-145 -168 -436 -168q-143 0 -256 44.5t-183 125.5q-139 160 -139 417v924h234v-915q0 -171 96 -275q97 -100 252 -100q165 0 254 102q90 104 90 264v924h235z" />
    <glyph glyph-name="uring" unicode="&#x16f;" horiz-adv-x="1208" 
d="M598 1149q-114 0 -195 78q-81 75 -81 186t81 186q84 78 195 78q113 0 197 -78q82 -76 82 -186t-82 -186q-84 -78 -197 -78zM598 1536q-57 0 -92 -35q-37 -34 -37 -88q0 -49 37 -86t92 -37q57 0 94 37t37 86q0 50 -39 86q-37 37 -92 37zM369 1018v-569q0 -119 56.5 -186.5
t166.5 -67.5q109 0 172 69t63 187v567h228v-1018h-221v137q-46 -61 -107 -98q-53 -35 -111 -49q-39 -10 -94 -10q-121 0 -209.5 54t-130.5 148q-41 86 -41 209v627h228z" />
    <glyph glyph-name="Uhungarumlaut" unicode="&#x170;" horiz-adv-x="1507" 
d="M651 1956h269l-267 -328h-188zM1026 1956h270l-268 -328h-186zM1335 1493v-913q0 -268 -147 -430q-145 -168 -436 -168q-143 0 -256 44.5t-183 125.5q-139 160 -139 417v924h234v-915q0 -171 96 -275q97 -100 252 -100q165 0 254 102q90 104 90 264v924h235z" />
    <glyph glyph-name="uhungarumlaut" unicode="&#x171;" 
d="M496 1520h268l-268 -328h-187zM870 1520h269l-267 -328h-186zM369 1018v-569q0 -119 56.5 -186.5t166.5 -67.5q109 0 172 69t63 187v567h228v-1018h-221v137q-46 -61 -107 -98q-53 -35 -111 -49q-39 -10 -94 -10q-121 0 -209.5 54t-130.5 148q-41 86 -41 209v627h228z
" />
    <glyph glyph-name="Uogonek" unicode="&#x172;" horiz-adv-x="1507" 
d="M807 -16q-25 -2 -55 -2q-143 0 -256 44.5t-183 125.5q-139 160 -139 417v924h234v-915q0 -171 96 -275q97 -100 252 -100q165 0 254 102q90 104 90 264v924h235v-922q0 -310 -215 -483l-121 -96q-77 -60 -113 -106t-36 -89q0 -102 147 -102h4v-156q-46 -4 -69 -4
q-120 0 -199 55q-80 53 -80 154q0 110 154 240z" />
    <glyph glyph-name="uogonek" unicode="&#x173;" 
d="M1047 -305v-156q-46 -4 -72 -4q-118 0 -197 55q-80 53 -80 154q0 118 179 256h-43v137q-46 -61 -107 -98q-53 -35 -111 -49q-39 -10 -94 -10q-123 0 -211 54t-129 148q-41 83 -41 209v627h228v-569q0 -119 56.5 -186.5t166.5 -67.5q109 0 172 69t63 187v567h228v-1018
q-63 -47 -103 -90q-57 -57 -57 -113q0 -102 147 -102h5z" />
    <glyph glyph-name="Wcircumflex" unicode="&#x174;" horiz-adv-x="2238" 
d="M989 1628h-225l262 328h178l275 -328h-217l-142 176zM45 1493h250l336 -1161l358 1161h260l363 -1161l342 1161h244l-457 -1493h-266l-357 1167h-2l-358 -1167h-264z" />
    <glyph glyph-name="wcircumflex" unicode="&#x175;" horiz-adv-x="1677" 
d="M707 1190h-226l264 330h177l274 -330h-217l-139 176zM1186 297h2l215 721h233l-327 -1018h-234l-235 715h-4l-238 -715h-231l-326 1018h235l216 -719h2l231 719h227z" />
    <glyph glyph-name="Ycircumflex" unicode="&#x176;" horiz-adv-x="1431" 
d="M586 1628h-226l265 328h176l274 -328h-217l-141 176zM598 0v596l-561 897h270l410 -670l411 670h269l-563 -891v-602h-236z" />
    <glyph glyph-name="ycircumflex" unicode="&#x177;" horiz-adv-x="1167" 
d="M461 1190h-225l264 330h178l274 -330h-217l-141 176zM483 115l-452 903h258l317 -668l293 668h246l-699 -1520h-241z" />
    <glyph glyph-name="Ydieresis" unicode="&#x178;" horiz-adv-x="1433" 
d="M506 1618q-60 0 -100 43q-41 44 -41 100q0 59 41 103q41 41 100 41t100 -41q43 -43 43 -103q0 -57 -43 -100q-40 -43 -100 -43zM930 1618q-61 0 -101 43q-43 43 -43 100q0 59 41 103q41 41 103 41q59 0 100 -41q41 -44 41 -103q0 -56 -41 -100q-43 -43 -100 -43zM836 602
v-602h-238v596l-561 897h272l410 -670l411 670h269z" />
    <glyph glyph-name="Zacute" unicode="&#x179;" horiz-adv-x="1269" 
d="M694 1956h277l-277 -328h-196zM889 1282h-787v211h1072v-201l-816 -1081h832v-211h-1118v203z" />
    <glyph glyph-name="zacute" unicode="&#x17a;" horiz-adv-x="1007" 
d="M600 1520h277l-277 -328h-197zM635 819h-539v199h822v-180l-560 -641h562v-197h-838v188z" />
    <glyph glyph-name="Zdotaccent" unicode="&#x17b;" horiz-adv-x="1267" 
d="M737 1663q-48 -45 -106 -45q-62 0 -107 45q-43 43 -43 106q0 61 43 107q43 43 107 43q63 0 106 -43q43 -46 43 -107q0 -63 -43 -106zM887 1282h-785v211h1069v-201l-815 -1081h832v-211h-1116v203z" />
    <glyph glyph-name="zdotaccent" unicode="&#x17c;" horiz-adv-x="1007" 
d="M608 1229q-45 -45 -106 -45q-65 0 -107 45q-43 43 -43 104q0 63 43 109q43 43 107 43q63 0 106 -43q43 -46 43 -109q0 -61 -43 -104zM635 819h-539v199h824v-180l-562 -641h564v-197h-840v188z" />
    <glyph glyph-name="Zcaron" unicode="&#x17d;" horiz-adv-x="1267" 
d="M537 1630l-263 328h226l131 -176l141 176h217l-274 -328h-178zM889 1282h-785v211h1070v-201l-816 -1081h832v-211h-1118v203z" />
    <glyph glyph-name="zcaron" unicode="&#x17e;" horiz-adv-x="1007" 
d="M408 1190l-265 330h226l133 -177l141 177h217l-274 -330h-178zM635 819h-539v199h824v-180l-562 -641h564v-197h-840v188z" />
    <glyph glyph-name="florin" unicode="&#x192;" horiz-adv-x="1144" 
d="M1022 1296q-92 0 -152 -57q-62 -56 -77 -143l-15 -78h246v-199h-287l-92 -477q-22 -115 -82 -199q-39 -51 -80 -84q-104 -77 -266 -77q-57 0 -125 14v199q68 -11 98 -11q90 0 154 58q60 57 78 145l84 432h-205v199h246l24 123q27 138 117 241q48 55 127 85t178 30
q82 0 123 -10v-199q-66 8 -94 8z" />
    <glyph glyph-name="uni01B5" unicode="&#x1b5;" horiz-adv-x="1273" 
d="M420 659h-314v201h465l320 422h-785v211h1070v-201l-330 -432h330v-201h-478l-338 -448h832v-211h-1116v203z" />
    <glyph glyph-name="uni01B6" unicode="&#x1b6;" horiz-adv-x="1011" 
d="M297 432h-199v162h340l197 225h-537v199h822v-180l-218 -244h218v-162h-357l-205 -235h564v-197h-840v188z" />
    <glyph glyph-name="uni01CD" unicode="&#x1cd;" horiz-adv-x="1492" 
d="M653 1630l-264 328h225l134 -176l139 176h217l-275 -328h-176zM379 350l-139 -350h-240l608 1493h277l604 -1493h-244l-137 350h-729zM461 559h567l-285 709z" />
    <glyph glyph-name="uni01CE" unicode="&#x1ce;" horiz-adv-x="1095" 
d="M434 1190l-264 330h227l131 -177l142 177h217l-275 -330h-178zM432 -18q-151 0 -246 86q-96 84 -96 215v10q1 101 54.5 168.5t142.5 101.5q103 41 225 41h127q94 0 94 86q0 66 -51 111q-54 45 -150 45q-90 0 -149.5 -46.5t-71.5 -123.5l-207 47q9 73 70 154
q62 80 160 122q82 39 207 39q286 0 381 -209q34 -72 34 -180v-485q0 -92 7 -164h-222q-10 48 -10 139q-51 -83 -131 -121q-79 -36 -168 -36zM731 444h-219q-74 0 -133 -36q-62 -41 -62 -105q0 -63 45 -101t117 -38q118 0 185 67t67 181v32z" />
    <glyph glyph-name="uni01CF" unicode="&#x1cf;" horiz-adv-x="616" 
d="M213 1630l-264 328h225l133 -176l144 176h215l-275 -328h-178zM426 1493v-1493h-236v1493h236z" />
    <glyph glyph-name="uni01D0" unicode="&#x1d0;" horiz-adv-x="530" 
d="M172 1190l-264 330h225l133 -177l140 177h217l-275 -330h-176zM379 1018v-1018h-227v1018h227z" />
    <glyph glyph-name="uni01D1" unicode="&#x1d1;" horiz-adv-x="1716" 
d="M764 1630l-262 328h225l131 -176l141 176h218l-275 -328h-178zM92 743q0 162 62 304q58 143 163 245q100 103 246 162q139 62 297 62q206 0 385 -101q176 -99 277 -276q102 -175 102 -389q0 -163 -61 -306t-164 -243q-104 -101 -246 -160q-145 -59 -299 -59
q-155 0 -297 59q-140 55 -244 156q-100 100 -161 243q-60 142 -60 303zM338 748q-2 -109 38.5 -210.5t110.5 -176t167.5 -118.5t203.5 -42q105 0 202 42.5t169 116.5q70 74 109.5 176.5t39.5 211.5q0 151 -67 276q-70 125 -191 199q-119 73 -262 73q-142 3 -263 -71.5
t-190.5 -202t-66.5 -274.5z" />
    <glyph glyph-name="uni01D2" unicode="&#x1d2;" horiz-adv-x="1239" 
d="M526 1190l-264 330h225l134 -177l139 177h217l-272 -330h-179zM82 510q0 146 74 270q78 128 196 191q122 67 271 67q144 0 266 -67q121 -66 196 -189q72 -126 72 -268q3 -144 -70 -268.5t-198 -195.5t-268 -68q-143 0 -269 69q-118 63 -196 191q-74 124 -74 268zM315 514
q0 -134 86 -229q88 -97 222 -97q133 0 219 95q84 93 84 227q0 137 -86 229q-83 95 -219 95q-135 0 -222 -93q-84 -90 -84 -227z" />
    <glyph glyph-name="uni01D3" unicode="&#x1d3;" horiz-adv-x="1507" 
d="M659 1630l-262 328h226l131 -176l141 176h217l-274 -328h-179zM1335 1493v-913q0 -268 -147 -430q-145 -168 -436 -168q-143 0 -256 44.5t-183 125.5q-139 160 -139 417v924h234v-915q0 -171 96 -275q97 -100 252 -100q165 0 254 102q90 104 90 264v924h235z" />
    <glyph glyph-name="uni01D4" unicode="&#x1d4;" 
d="M504 1190l-264 330h225l133 -177l139 177h217l-272 -330h-178zM369 1018v-569q0 -119 56.5 -186.5t166.5 -67.5q109 0 172 69t63 187v567h228v-1018h-221v137q-46 -61 -107 -98q-53 -35 -111 -49q-39 -10 -94 -10q-121 0 -209.5 54t-130.5 148q-41 86 -41 209v627h228z
" />
    <glyph glyph-name="uni01D5" unicode="&#x1d5;" horiz-adv-x="1507" 
d="M1335 1493v-913q0 -268 -147 -430q-145 -168 -436 -168q-143 0 -256 44.5t-183 125.5q-139 160 -139 417v924h234v-915q0 -171 96 -275q97 -100 252 -100q165 0 254 102q90 104 90 264v924h235zM1085 1884h-661v180h661v-180zM635 1577q-41 -41 -103 -41q-60 0 -98 41
q-41 41 -41 100q0 61 39 103q44 41 100 41q59 0 103 -41q41 -41 41 -103t-41 -100zM977 1536q-65 0 -103 41q-40 40 -40 100t40 103q41 41 103 41q59 0 100 -41q39 -42 39 -103q0 -62 -41 -100q-38 -41 -98 -41z" />
    <glyph glyph-name="uni01D6" unicode="&#x1d6;" 
d="M928 1475h-662v182h662v-182zM385 1116q-58 0 -98 43q-43 43 -43 101t41 102q41 41 100 41q58 0 102 -41q41 -44 41 -102q0 -60 -41 -101q-43 -43 -102 -43zM909 1159q-43 -43 -100 -43q-60 0 -100 43q-41 44 -41 101q0 60 39 102q44 41 102 41q56 0 100 -41
q43 -43 43 -102q0 -58 -43 -101zM369 1018v-569q0 -119 56.5 -186.5t166.5 -67.5q109 0 172 69t63 187v567h228v-1018h-221v137q-46 -61 -107 -98q-53 -35 -111 -49q-39 -10 -94 -10q-121 0 -209.5 54t-130.5 148q-41 86 -41 209v627h228z" />
    <glyph glyph-name="uni01D7" unicode="&#x1d7;" horiz-adv-x="1507" 
d="M1335 1493v-913q0 -268 -147 -430q-145 -168 -436 -168q-143 0 -256 44.5t-183 125.5q-139 160 -139 417v924h234v-915q0 -171 96 -275q97 -100 252 -100q165 0 254 102q90 104 90 264v924h235zM838 2154h272l-262 -309h-197zM532 1536q-62 0 -100 41q-41 41 -41 100
t41 103q41 41 100 41q57 0 101 -41q43 -43 43 -103q0 -59 -41 -100t-103 -41zM1075 1577q-41 -41 -100 -41q-63 0 -101 41q-40 40 -40 100q0 62 38 103q44 41 103 41t100 -41t41 -103t-41 -100z" />
    <glyph glyph-name="uni01D8" unicode="&#x1d8;" 
d="M690 1776h279l-277 -330h-196zM385 1116q-58 0 -98 43q-43 43 -43 101t41 102q41 41 100 41q58 0 102 -41q41 -44 41 -102q0 -60 -41 -101q-43 -43 -102 -43zM909 1159q-43 -43 -100 -43q-60 0 -100 43q-41 44 -41 101q0 60 39 102q44 41 102 41q56 0 100 -41
q43 -43 43 -102q0 -58 -43 -101zM369 1018v-569q0 -119 56.5 -186.5t166.5 -67.5q109 0 172 69t63 187v567h228v-1018h-221v137q-46 -61 -107 -98q-53 -35 -111 -49q-39 -10 -94 -10q-121 0 -209.5 54t-130.5 148q-41 86 -41 209v627h228z" />
    <glyph glyph-name="uni01D9" unicode="&#x1d9;" horiz-adv-x="1507" 
d="M1335 1493v-913q0 -268 -147 -430q-145 -168 -436 -168q-143 0 -256 44.5t-183 125.5q-139 160 -139 417v924h234v-915q0 -171 96 -275q97 -100 252 -100q165 0 254 102q90 104 90 264v924h235zM659 1847l-262 310h226l133 -166l139 166h217l-274 -310h-179zM635 1577
q-41 -41 -103 -41q-60 0 -98 41q-41 41 -41 100q0 61 39 103q44 41 100 41q59 0 103 -41q41 -41 41 -103t-41 -100zM977 1536q-65 0 -103 41q-40 40 -40 100t40 103q41 41 103 41q59 0 100 -41q39 -42 39 -103q0 -62 -41 -100q-38 -41 -98 -41z" />
    <glyph glyph-name="uni01DA" unicode="&#x1da;" 
d="M240 1778h225l131 -176l141 176h217l-274 -330h-176zM481 1159q-40 -43 -100 -43q-57 0 -100 43t-43 101q0 59 43 102q41 41 100 41q58 0 102 -41q41 -44 41 -102t-43 -101zM805 1116q-60 0 -100 43q-43 40 -43 101q0 59 40 102q41 41 103 41q59 0 100 -41
q43 -43 43 -102q0 -58 -43 -101t-100 -43zM369 1018v-569q0 -119 56.5 -186.5t166.5 -67.5q109 0 172 69t63 187v567h228v-1018h-221v137q-46 -61 -107 -98q-53 -35 -111 -49q-39 -10 -94 -10q-121 0 -209.5 54t-130.5 148q-41 86 -41 209v627h228z" />
    <glyph glyph-name="uni01DB" unicode="&#x1db;" horiz-adv-x="1507" 
d="M1335 1493v-913q0 -268 -147 -430q-145 -168 -436 -168q-143 0 -256 44.5t-183 125.5q-139 160 -139 417v924h234v-915q0 -171 96 -275q97 -100 252 -100q165 0 254 102q90 104 90 264v924h235zM874 1577q38 -41 101 -41q59 0 100 41q41 38 41 100t-41 103t-100 41
t-103 -41q-38 -41 -38 -103q0 -60 40 -100zM532 1536q62 0 103 41t41 100q0 60 -43 103q-44 41 -101 41q-59 0 -100 -41q-41 -44 -41 -103t41 -100q38 -41 100 -41zM864 1845h-196l-262 309h272z" />
    <glyph glyph-name="uni01DC" unicode="&#x1dc;" 
d="M707 1446h-195l-276 330h276zM385 1116q-58 0 -98 43q-43 43 -43 101t41 102q41 41 100 41q58 0 102 -41q41 -44 41 -102q0 -60 -41 -101q-43 -43 -102 -43zM909 1159q-43 -43 -100 -43q-60 0 -100 43q-41 44 -41 101q0 60 39 102q44 41 102 41q56 0 100 -41
q43 -43 43 -102q0 -58 -43 -101zM369 1018v-569q0 -119 56.5 -186.5t166.5 -67.5q109 0 172 69t63 187v567h228v-1018h-221v137q-46 -61 -107 -98q-53 -35 -111 -49q-39 -10 -94 -10q-121 0 -209.5 54t-130.5 148q-41 86 -41 209v627h228z" />
    <glyph glyph-name="Gcaron" unicode="&#x1e6;" horiz-adv-x="1628" 
d="M764 1630l-264 328h225l133 -176l139 176h217l-272 -328h-178zM1518 1061l-230 -72q-29 109 -131 201q-54 49 -134 77.5t-171 28.5q-222 0 -367 -157q-149 -155 -149 -391q0 -153 65 -277q65 -127 183 -199q119 -73 266 -73q186 0 303 94q117 97 141 242h-536v213h788
v-82q0 -140 -48 -264.5t-136 -217.5q-87 -95 -219.5 -147.5t-290.5 -52.5q-221 0 -395 98q-176 102 -269 272q-96 170 -96 389q0 162 60 310q60 144 159 243q102 102 242 160q145 60 301 60q131 0 245.5 -37.5t197 -101t139 -144.5t82.5 -172z" />
    <glyph glyph-name="gcaron" unicode="&#x1e7;" horiz-adv-x="1290" 
d="M516 1190l-264 330h227l131 -177l142 177h217l-275 -330h-178zM578 -8q-104 0 -198.5 42.5t-158.5 115.5q-65 73 -102 167.5t-37 194.5q0 95 35 186.5t98 167.5q63 77 160.5 122.5t208.5 45.5q87 0 180 -41q102 -48 154 -131v156h221v-1012q0 -155 -74 -276
q-78 -124 -197 -179q-122 -61 -280 -61q-250 0 -402 152q-79 79 -100 192l213 62q18 -83 98 -142q79 -61 183 -61q65 0 123 18t105.5 53.5t75 95t27.5 136.5v168q-37 -61 -104 -103q-67 -40 -125 -55q-65 -14 -104 -14zM915 516q0 135 -84 225q-81 90 -219 90
q-137 0 -221 -90t-84 -225t86 -227q85 -94 219 -94t219 94q84 93 84 227z" />
    <glyph glyph-name="uni01E8" unicode="&#x1e8;" horiz-adv-x="1355" 
d="M621 1630l-263 328h226l131 -176l141 176h217l-274 -328h-178zM1022 1493h309l-667 -715l706 -778h-317l-629 705v-705h-234v1493h234v-645z" />
    <glyph glyph-name="uni01E9" unicode="&#x1e9;" horiz-adv-x="1107" 
d="M381 498v-498h-229v1552h229v-936h2l395 402h307l-458 -461l485 -557h-301l-424 498h-6zM739 1190l-264 330h225l134 -177l139 177h217l-272 -330h-179z" />
    <glyph glyph-name="uni01F4" unicode="&#x1f4;" horiz-adv-x="1626" 
d="M952 1956h279l-277 -328h-196zM1516 1061l-230 -72q-29 109 -131 201q-54 49 -134 77.5t-171 28.5q-145 0 -262 -69q-118 -74 -185 -199t-67 -280q-3 -149 63 -275.5t185.5 -201t263.5 -72.5q186 0 303 94t141 242h-534v213h788v-82q0 -139 -48.5 -263.5t-135.5 -218.5
q-89 -95 -221.5 -147.5t-290.5 -52.5q-222 0 -393 98q-179 104 -271 272q-94 175 -94 389q0 162 60 310q56 142 157 243q103 103 244.5 161.5t298.5 58.5q131 0 245.5 -37.5t197 -101t139 -144.5t82.5 -172z" />
    <glyph glyph-name="uni01F5" unicode="&#x1f5;" horiz-adv-x="1290" 
d="M700 1520h277l-277 -328h-196zM578 -8q-104 0 -198.5 42.5t-158.5 115.5q-65 73 -102 167.5t-37 194.5q0 95 35 186.5t98 167.5q63 77 160.5 122.5t208.5 45.5q87 0 180 -41q102 -48 154 -131v156h221v-1012q0 -155 -74 -276q-78 -124 -197 -179q-122 -61 -280 -61
q-250 0 -402 152q-79 79 -100 192l213 62q18 -83 98 -142q79 -61 183 -61q65 0 123 18t105.5 53.5t75 95t27.5 136.5v168q-37 -61 -104 -103q-67 -40 -125 -55q-65 -14 -104 -14zM915 516q0 135 -84 225q-81 90 -219 90q-137 0 -221 -90t-84 -225t86 -227q85 -94 219 -94
t219 94q84 93 84 227z" />
    <glyph glyph-name="Aringacute" unicode="&#x1fa;" horiz-adv-x="1490" 
d="M821 1862l119 196h279l-250 -295q53 -68 53 -155q0 -130 -100 -205l567 -1403h-244l-137 350h-729l-139 -350h-240l571 1401q-48 37 -75 91.5t-27 115.5q0 110 82 186q81 78 194 78q34 0 76 -10zM745 1731q-56 0 -94 -35q-37 -37 -37 -88q0 -52 39 -88q37 -37 92 -37
q56 0 93 37q36 36 36 88q0 51 -38 86q-40 37 -91 37zM1028 559l-285 709l-282 -709h567z" />
    <glyph glyph-name="aringacute" unicode="&#x1fb;" horiz-adv-x="1095" 
d="M623 1407l114 192h277l-246 -292q49 -67 49 -150q0 -93 -57 -162q113 -54 162 -166q34 -67 34 -180v-485q0 -72 9 -164h-224q-8 39 -8 139q-52 -84 -133 -121q-79 -36 -166 -36q-148 0 -248 86q-96 84 -96 215v10q1 100 55.5 167.5t143.5 102.5q101 41 225 41h125
q96 0 96 86q0 64 -53 111q-54 45 -147 45q-91 0 -150.5 -46t-73.5 -124l-205 47q10 97 103 190q51 51 110 80q-57 72 -57 164q0 108 82 184q84 78 195 78q43 0 84 -12zM541 1272q-52 0 -86.5 -33.5t-34.5 -81.5q0 -50 35 -82q32 -35 86 -35q53 0 88 35t35 82q0 46 -37 80
q-38 35 -86 35zM733 444h-221q-74 0 -133 -36q-62 -41 -62 -105q0 -63 45 -101t117 -38q117 0 187 67q67 67 67 181v32z" />
    <glyph glyph-name="AEacute" unicode="&#x1fc;" horiz-adv-x="2007" 
d="M1190 1956h278l-276 -328h-197zM233 0h-256l811 1493h1102v-213h-712v-414h647v-213h-647v-440h718v-213h-952v350h-522zM532 559h412v723h-22z" />
    <glyph glyph-name="aeacute" unicode="&#x1fd;" horiz-adv-x="1812" 
d="M993 1520h277l-277 -328h-194zM1733 512q0 -45 -2 -70h-779q3 -111 95 -188q93 -78 208 -78q210 0 269 170l194 -57q-45 -145 -172 -226q-134 -81 -289 -81q-122 0 -228.5 48.5t-180.5 135.5q-156 -184 -406 -184h-4q-147 0 -250 86q-98 82 -98 215v10q1 101 54.5 168.5
t142.5 101.5q103 41 225 41h145q84 0 84 86q0 67 -53.5 111t-146.5 45q-96 0 -158 -47q-64 -46 -76 -121l-203 45q9 70 72 151q65 80 166 127q84 37 203 37q238 0 336 -145q66 69 160 107t200 38q233 0 363 -145q129 -144 129 -381zM963 614h542q-6 106 -80 168t-186 62
q-108 0 -184 -64q-77 -62 -92 -166zM737 444h-225q-74 0 -133 -36q-62 -41 -62 -105q0 -63 45 -101t117 -38q118 0 189 65q69 66 69 183v32z" />
    <glyph glyph-name="Oslashacute" unicode="&#x1fe;" horiz-adv-x="1726" 
d="M958 1956h279l-276 -328h-197zM1638 1442l-186 -197q178 -210 178 -495q0 -163 -61 -306q-62 -145 -166 -243q-104 -101 -246 -160t-297 -59q-263 0 -461 149l-176 -180l-131 121l174 184q-170 203 -170 487q0 162 62 304q60 141 164 245q103 103 245 162q142 62 299 62
q250 0 455 -148l186 197zM342 748q0 -177 92 -316l729 766q-131 98 -301 98q-141 3 -262 -71.5t-190.5 -202t-67.5 -274.5zM1382 748q0 186 -96 323l-731 -768q135 -102 307 -102q106 0 203 42.5t168 116.5q70 74 109.5 176.5t39.5 211.5z" />
    <glyph glyph-name="oslashacute" unicode="&#x1ff;" horiz-adv-x="1249" 
d="M709 1520h278l-276 -328h-197zM1163 942l-110 -111q108 -141 108 -321q0 -144 -71 -268q-73 -124 -195 -191q-126 -69 -270 -69q-172 0 -312 96l-112 -113l-115 111l109 112q-107 140 -107 322q0 145 72 268q70 122 194 193q122 67 271 67q173 0 313 -96l111 113z
M317 510q0 -89 37 -162l434 440q-73 43 -163 43q-136 0 -222 -92q-86 -99 -86 -229zM930 510q0 90 -37 160l-432 -439q70 -43 164 -43q136 0 219 95q86 92 86 227z" />
    <glyph glyph-name="Scommaaccent" unicode="&#x218;" horiz-adv-x="1241" 
d="M633 -16q-123 0 -227.5 37.5t-172.5 101.5q-138 128 -153 297l227 61q24 -131 111 -209q86 -77 219 -77q112 0 192 59q78 60 78 149q0 85 -59 141.5t-162 78.5l-184 36q-178 37 -277 148q-100 109 -100 258q-3 118 65 223.5t182.5 167.5t243.5 60q282 -3 414 -170
q74 -89 96 -199l-219 -68q-22 89 -98 156q-77 68 -186 68q-110 0 -183 -64q-75 -63 -75 -152q0 -67 51 -124q53 -56 137 -74l188 -37q197 -40 302.5 -152t105.5 -280q0 -169 -133 -299q-66 -63 -166 -100t-217 -37zM502 -680v90q75 11 119.5 57t44.5 113q-21 -18 -62 -18
q-54 0 -87.5 35.5t-33.5 89.5q0 57 39 90q40 37 94 37q72 0 113 -50q39 -51 39 -124q0 -131 -69.5 -215.5t-196.5 -104.5z" />
    <glyph glyph-name="scommaaccent" unicode="&#x219;" horiz-adv-x="944" 
d="M483 -18q-116 1 -200.5 40.5t-132.5 102.5q-62 79 -68 154l194 51q16 -73 69.5 -117.5t135.5 -44.5q68 0 106 32t38 87q0 84 -121 112l-129 31q-132 30 -201.5 107.5t-69.5 183.5q0 130 105 225q105 94 256 94q215 -3 313 -135q52 -69 62 -137l-191 -53q-15 63 -61 102
t-123 39q-56 0 -98 -33q-41 -28 -41 -82q0 -42 27.5 -69.5t74.5 -36.5l139 -29q137 -31 213 -112q76 -85 76 -195q0 -60 -23 -115.5t-67.5 -101t-117.5 -73t-165 -27.5zM340 -680v90q75 10 118.5 56t45.5 114q-24 -18 -64 -18q-54 0 -87.5 35.5t-33.5 89.5t39 90
q40 37 97 37q69 0 110 -50q41 -49 41 -124q0 -131 -70 -215.5t-196 -104.5z" />
    <glyph glyph-name="uni021A" unicode="&#x21a;" horiz-adv-x="1257" 
d="M512 0v1276h-475v217h1184v-217h-476v-1276h-233zM500 -680v90q74 11 118.5 57t45.5 113q-24 -18 -64 -18q-54 0 -87.5 35.5t-33.5 89.5q0 57 39 90q40 37 96 37q70 0 111 -50q41 -53 41 -124q0 -131 -70 -215.5t-196 -104.5z" />
    <glyph glyph-name="uni021B" unicode="&#x21b;" horiz-adv-x="811" 
d="M727 1018v-205h-258v-485q0 -68 36.5 -99.5t119.5 -31.5q40 0 92 8v-195q-75 -20 -162 -20q-160 0 -236 73q-77 74 -77 252v498h-197v205h197v315h227v-315h258zM315 -590v-90q126 20 196.5 104.5t70.5 215.5q0 73 -39 124q-44 50 -113 50q-57 0 -94 -37q-39 -33 -39 -90
q0 -54 33.5 -89.5t87.5 -35.5q37 0 61 18q0 -67 -44.5 -113t-119.5 -57z" />
    <glyph glyph-name="uni0237" unicode="&#x237;" horiz-adv-x="544" 
d="M166 -143v1161h227v-1174q0 -181 -73.5 -264.5t-227.5 -83.5q-71 0 -145 19v192q49 -6 73 -6q146 0 146 156z" />
    <glyph glyph-name="gravecomb" unicode="&#x300;" horiz-adv-x="0" 
d="M236 1192h-195l-277 328h277z" />
    <glyph glyph-name="acutecomb" unicode="&#x301;" horiz-adv-x="0" 
d="M-41 1520h277l-277 -328h-195z" />
    <glyph glyph-name="uni0302" unicode="&#x302;" horiz-adv-x="0" 
d="M-133 1190h-225l264 330h178l274 -330h-217l-141 176z" />
    <glyph glyph-name="tildecomb" unicode="&#x303;" horiz-adv-x="0" 
d="M344 1483v-21q0 -254 -199 -254q-52 -2 -144 46t-124 46q-58 0 -61 -90h-160v21q0 254 201 254q48 2 145.5 -45t126.5 -45q61 0 70 88h145z" />
    <glyph glyph-name="uni0304" unicode="&#x304;" horiz-adv-x="0" 
d="M330 1210h-660v183h660v-183z" />
    <glyph glyph-name="uni0306" unicode="&#x306;" horiz-adv-x="0" 
d="M0 1188q-88 -2 -162.5 34t-125 111.5t-60.5 179.5h194q6 -78 45.5 -119.5t108.5 -41.5q70 0 111 40.5t45 120.5h192q-15 -154 -106 -239q-95 -86 -242 -86z" />
    <glyph glyph-name="uni0307" unicode="&#x307;" horiz-adv-x="0" 
d="M106 1229q-45 -45 -106 -45q-64 0 -106 45q-44 44 -44 104q0 62 44 109q43 43 106 43t106 -43q44 -47 44 -109q0 -60 -44 -104z" />
    <glyph glyph-name="uni0308" unicode="&#x308;" horiz-adv-x="0" 
d="M-213 1184q-56 0 -100 41q-41 44 -41 102q0 56 41 100q41 41 100 41q58 0 102 -41q41 -41 41 -100q0 -61 -41 -102q-44 -41 -102 -41zM211 1184q-59 0 -100 41t-41 102q0 59 41 100t100 41q58 0 102 -41q41 -44 41 -100q0 -59 -43 -102q-41 -41 -100 -41z" />
    <glyph glyph-name="uni030A" unicode="&#x30a;" horiz-adv-x="0" 
d="M0 1149q-113 0 -197 78q-79 76 -79 186q0 111 81 186q81 78 195 78q113 0 197 -78q79 -76 79 -186t-79 -186q-84 -78 -197 -78zM0 1536q-59 0 -94 -35q-37 -34 -37 -88q0 -49 37 -86q34 -37 94 -37q58 0 92 37q37 37 37 86q0 50 -39 86q-37 37 -90 37z" />
    <glyph glyph-name="uni030B" unicode="&#x30b;" horiz-adv-x="0" 
d="M-229 1520h268l-266 -328h-189zM145 1520h271l-269 -328h-186z" />
    <glyph glyph-name="uni030C" unicode="&#x30c;" horiz-adv-x="0" 
d="M-94 1190l-264 330h225l133 -177l141 177h217l-274 -330h-178z" />
    <glyph glyph-name="uni0312" unicode="&#x312;" horiz-adv-x="0" 
d="M121 1663v-90q-74 -10 -118 -56t-46 -112q22 16 63 16q52 0 86.5 -35t34.5 -88q0 -56 -39 -92q-40 -37 -96 -37q-69 0 -112 52q-39 51 -39 125q0 131 70 214.5t196 102.5z" />
    <glyph glyph-name="uni0326" unicode="&#x326;" horiz-adv-x="0" 
d="M-123 -680v90q74 11 118.5 57t45.5 113q-24 -18 -61 -18q-54 0 -88.5 35.5t-34.5 89.5q0 57 39 90q40 37 96 37q69 0 110 -50q41 -49 41 -124q0 -131 -70 -215.5t-196 -104.5z" />
    <glyph glyph-name="uni0327" unicode="&#x327;" horiz-adv-x="0" 
d="M43 0h154q51 -68 51 -164q0 -100 -51 -166q-51 -72 -127 -102q-76 -33 -172 -33q-85 0 -146 23v151q52 -14 125 -14q93 0 147 45t54 131q0 67 -35 129z" />
    <glyph glyph-name="uni0328" unicode="&#x328;" horiz-adv-x="0" 
d="M0 0h178q-68 -53 -104 -90q-56 -59 -56 -113q0 -102 148 -102h4v-156q-46 -4 -70 -4q-119 0 -198 55q-80 53 -80 154q0 118 178 256z" />
    <glyph glyph-name="Theta" unicode="&#x398;" horiz-adv-x="1716" 
d="M92 743q0 162 62 304q58 143 163 245q100 103 246 162q139 62 297 62q206 0 385 -101q176 -99 277 -276q102 -175 102 -389q0 -163 -61 -306t-164 -243q-104 -101 -246 -160q-145 -59 -299 -59q-155 0 -297 59q-140 55 -244 156q-100 100 -161 243q-60 142 -60 303z
M336 748q0 -150 70 -275q68 -127 188 -199q119 -73 264 -73q143 0 262 73q121 74 191 199q67 125 67 275q0 151 -67 276q-70 125 -191 199q-119 73 -262 73q-145 0 -264 -73q-120 -72 -188 -199q-70 -125 -70 -276zM1255 653h-794v213h794v-213z" />
    <glyph glyph-name="uni03A9" unicode="&#x3a9;" horiz-adv-x="1669" 
d="M356 821q0 -175 105 -301q107 -128 282 -162v-358h-624v203h413v45q-189 80 -305 235q-116 152 -116 351q0 153 59 274q60 132 158 217q101 90 233 140.5t275 50.5q193 0 360 -86q162 -85 262 -242q101 -154 101 -352q0 -197 -117 -353q-119 -155 -305 -235v-45h411v-203
h-622v358q175 34 282 162q105 126 105 301q4 199 -137.5 338.5t-341.5 136.5q-200 0 -340 -137q-138 -135 -138 -338z" />
    <glyph glyph-name="theta" unicode="&#x3b8;" horiz-adv-x="1384" 
d="M690 -18q-162 0 -291 87.5t-204 239.5q-103 198 -103 459q0 157 42.5 300t119.5 253q73 108 190 172q111 63 250 63q162 1 291 -86.5t203 -238.5q104 -195 104 -459q0 -157 -41.5 -300t-117.5 -253q-76 -107 -191 -172q-118 -65 -252 -65zM326 874h733q-15 191 -107 332
q-47 69 -114.5 107.5t-147.5 38.5q-82 0 -148.5 -39t-110 -106t-70 -151.5t-35.5 -181.5zM1061 676h-735q15 -200 104 -338q45 -70 113.5 -110t150.5 -40t150.5 40t113.5 110q91 142 103 338z" />
    <glyph glyph-name="pi" unicode="&#x3c0;" horiz-adv-x="1353" 
d="M1036 815l2 -487q0 -47 19 -86q25 -45 106 -45q37 0 97 8v-193q-80 -22 -164 -22q-77 0 -134 24.5t-89.5 67t-47.5 94t-14 111.5v528h-324v-815h-227v815h-219v203h1219v-203h-224z" />
    <glyph glyph-name="uni0401" unicode="&#x401;" horiz-adv-x="1263" 
d="M453 1618q-61 0 -101 43q-43 43 -43 100q0 59 41 103q41 41 103 41q59 0 100 -41t41 -103q0 -59 -41 -100q-43 -43 -100 -43zM995 1661q-43 -43 -102 -43q-60 0 -100 43q-41 41 -41 100t41 103q38 41 100 41q61 0 102 -41t41 -103q0 -59 -41 -100zM190 1493h957v-213
h-723v-414h657v-213h-657v-440h729v-213h-963v1493z" />
    <glyph glyph-name="uni0402" unicode="&#x402;" horiz-adv-x="1605" 
d="M1051 -23q-85 0 -172 23v225q55 -18 118 -18q137 0 223.5 66.5t86.5 207.5q0 126 -81.5 195t-228.5 69q-110 0 -208.5 -37.5t-170.5 -103.5v-604h-235v1278h-342v215h1186v-215h-609v-442q200 139 433 139q226 0 362 -133q135 -132 135 -359q0 -242 -135 -374t-362 -132z
" />
    <glyph glyph-name="uni0403" unicode="&#x403;" horiz-adv-x="1126" 
d="M705 1956h278l-276 -328h-197zM190 0v1493h900v-217h-666v-1276h-234z" />
    <glyph glyph-name="uni0404" unicode="&#x404;" horiz-adv-x="1615" 
d="M842 -18q-170 -2 -329 73.5t-265 210.5q-73 91 -114.5 214.5t-41.5 260.5q0 164 62 312q62 145 165 245q105 99 244 158q142 60 289 60q118 0 225 -30.5t185 -82.5q83 -57 135 -117q106 -114 145 -260l-227 -76q-36 126 -115 209q-136 140 -350 137q-182 0 -324 -118
q-141 -115 -180 -314h655v-209h-659q20 -131 96 -239q75 -108 183 -160q107 -55 227 -55q86 0 162.5 25.5t128.5 66.5q49 37 90 90q67 90 90 172l227 -80q-34 -132 -143 -252q-66 -72 -137 -121q-80 -55 -191 -87.5t-233 -32.5z" />
    <glyph glyph-name="uni0405" unicode="&#x405;" horiz-adv-x="1241" 
d="M633 -16q-123 0 -227.5 37.5t-172.5 101.5q-138 128 -153 297l227 61q24 -131 111 -209q86 -77 219 -77q112 0 192 59q78 60 78 149q0 85 -59 141.5t-162 78.5l-184 36q-178 37 -277 148q-100 109 -100 258q-3 118 65 223.5t182.5 167.5t243.5 60q282 -3 414 -170
q74 -89 96 -199l-219 -68q-22 89 -98 156q-77 68 -186 68q-110 0 -183 -64q-75 -63 -75 -152q0 -67 51 -124q53 -56 137 -74l188 -37q197 -40 302.5 -152t105.5 -280q0 -169 -133 -299q-66 -63 -166 -100t-217 -37z" />
    <glyph glyph-name="uni0406" unicode="&#x406;" horiz-adv-x="614" 
d="M424 1493v-1493h-234v1493h234z" />
    <glyph glyph-name="uni0407" unicode="&#x407;" horiz-adv-x="614" 
d="M98 1618q-60 0 -100 43q-41 41 -41 100q0 62 41 103q38 41 100 41t103 -41q41 -44 41 -103q0 -56 -41 -100q-43 -43 -103 -43zM512 1618q-58 0 -98 43q-43 43 -43 100q0 59 41 103q41 41 100 41q61 0 102 -41t41 -103q0 -59 -41 -100q-43 -43 -102 -43zM424 1493v-1493
h-234v1493h234z" />
    <glyph glyph-name="uni0408" unicode="&#x408;" horiz-adv-x="1202" 
d="M555 -16q-224 0 -354 127q-133 127 -133 340v157h229v-145q0 -123 74 -191q72 -69 172 -69q109 0 178 69q70 70 70 179v1042h235v-1042q0 -204 -133 -334q-133 -133 -338 -133z" />
    <glyph glyph-name="uni0409" unicode="&#x409;" horiz-adv-x="2332" 
d="M631 1280l-78 -707q-1 -15 -4.5 -37.5t-3.5 -23.5q-1 -8 -13 -74q-10 -54 -20 -86q-31 -104 -78 -172q-67 -95 -143 -135q-102 -54 -232 -51l-16 2v211q116 6 178 88q47 66 62 117q4 13 7 25t6.5 23t4.5 15q2 7 5.5 28t6.5 34q6 42 9 53q0 3 4 43l94 860h973v-582h348
q81 0 155 -14.5t143.5 -48t120.5 -83.5t82 -127t31 -173q0 -197 -129 -326q-64 -66 -169 -102.5t-236 -36.5h-582v1280h-526zM1393 213h338q178 0 247 82q62 70 62 172q0 103 -74 168q-76 67 -237 67h-336v-489z" />
    <glyph glyph-name="uni040A" unicode="&#x40a;" horiz-adv-x="2336" 
d="M1397 891h358q80 0 152 -13.5t141 -45.5t119 -80.5t80 -124.5t30 -172q0 -197 -125 -322q-64 -63 -169 -98t-236 -35h-586v680h-739v-680h-232v1493h232v-602h739v602h236v-602zM1397 215h348q301 0 301 244q0 109 -78 167t-227 58h-344v-469z" />
    <glyph glyph-name="uni040B" unicode="&#x40b;" horiz-adv-x="1644" 
d="M1315 0v428q0 151 -78.5 231t-230.5 80q-228 0 -388 -145v-594h-233v1278h-344v215h1186v-215h-609v-449q205 140 433 140q223 0 362 -121q135 -120 135 -340v-508h-233z" />
    <glyph glyph-name="uni040C" unicode="&#x40c;" horiz-adv-x="1355" 
d="M805 1956h276l-276 -328h-197zM424 0h-234v1493h234v-645l596 645h311l-667 -715l706 -778h-317l-629 705v-705z" />
    <glyph glyph-name="uni040E" unicode="&#x40e;" horiz-adv-x="1349" 
d="M692 1622q-130 0 -231 78q-97 82 -115 235l154 29q28 -89 71 -131.5t121 -42.5q76 0 120.5 43t72.5 131l151 -29q-13 -103 -63 -176t-123 -106q-73 -31 -158 -31zM1364 1493l-533 -1079q-72 -148 -112 -205q-108 -153 -268 -193q-69 -16 -144 -16h-174v227h154
q100 0 177.5 53.5t123.5 151.5l-580 1061h260l447 -831l397 831h252z" />
    <glyph glyph-name="uni040F" unicode="&#x40f;" horiz-adv-x="1576" 
d="M905 0v-315h-233v315h-482v1493h234v-1278h729v1278h233v-1493h-481z" />
    <glyph glyph-name="uni0410" unicode="&#x410;" horiz-adv-x="1492" 
d="M379 350l-139 -350h-240l608 1493h277l604 -1493h-244l-137 350h-729zM461 559h567l-285 709z" />
    <glyph glyph-name="uni0411" unicode="&#x411;" horiz-adv-x="1384" 
d="M424 893h350q123 2 234 -34t188 -107q111 -111 111 -299q0 -196 -127 -320q-64 -63 -170.5 -98t-243.5 -35h-576v1493h1024v-213h-790v-387zM424 215h319q171 0 251.5 59.5t80.5 184.5q0 110 -79 168.5t-232 58.5h-340v-471z" />
    <glyph glyph-name="uni0412" unicode="&#x412;" horiz-adv-x="1400" 
d="M190 1493h572q217 0 348 -104q131 -107 131 -289q0 -77 -41 -160q-49 -105 -174 -162q159 -51 227 -164q56 -101 56 -196q0 -186 -135 -303q-136 -115 -396 -115h-588v1493zM422 860h295q146 0 217 62q74 62 74 153q0 96 -70.5 151.5t-208.5 55.5h-307v-422zM424 211h358
q140 0 216.5 61t76.5 164q0 101 -78.5 160t-228.5 59h-344v-444z" />
    <glyph glyph-name="uni0413" unicode="&#x413;" horiz-adv-x="1126" 
d="M190 0v1493h900v-217h-666v-1276h-234z" />
    <glyph glyph-name="uni0414" unicode="&#x414;" horiz-adv-x="1658" 
d="M1413 1493v-1282h158v-526h-236v315h-1073v-315h-233v526h6q76 -1 136 53.5t101 141.5q44 91 68 212q7 36 14 87l95 788h964zM1178 1282h-521l-71 -592q-15 -131 -66 -268q-50 -133 -135 -209h793v1069z" />
    <glyph glyph-name="uni0415" unicode="&#x415;" horiz-adv-x="1263" 
d="M190 1493h957v-213h-723v-414h657v-213h-657v-440h729v-213h-963v1493z" />
    <glyph glyph-name="uni0416" unicode="&#x416;" horiz-adv-x="2013" 
d="M1124 793h9l567 700h293l-600 -731l618 -762h-299l-577 725h-11v-725h-235v725h-10l-580 -725h-297l616 762l-598 731h293l568 -700h8v700h235v-700z" />
    <glyph glyph-name="uni0417" unicode="&#x417;" horiz-adv-x="1290" 
d="M627 -18q-115 0 -219 36.5t-175 100.5q-71 62 -115.5 143.5t-54.5 171.5l228 41q9 -119 104 -199q94 -79 236 -79q114 0 209 67q102 72 102 205q0 114 -88 180q-89 68 -211 68q-101 0 -158 -31l-110 174l461 422h-723v211h1036v-199l-422 -385q208 -12 334 -135
q127 -121 127 -301q0 -115 -48 -211t-134 -162q-150 -118 -379 -118z" />
    <glyph glyph-name="uni0418" unicode="&#x418;" horiz-adv-x="1630" 
d="M1440 1493v-1493h-232v1153l-747 -1153h-271v1493h232v-1155l747 1155h271z" />
    <glyph glyph-name="uni0419" unicode="&#x419;" horiz-adv-x="1630" 
d="M817 1622q-130 0 -231 78q-99 80 -117 235l154 29q30 -90 72.5 -132t121.5 -42q76 0 119.5 42.5t73.5 131.5l151 -29q-15 -112 -65 -178q-96 -135 -279 -135zM461 0h-271v1493h232v-1155l747 1155h271v-1493h-232v1153z" />
    <glyph glyph-name="uni041A" unicode="&#x41a;" horiz-adv-x="1355" 
d="M424 0h-234v1493h234v-645l596 645h311l-667 -715l706 -778h-317l-629 705v-705z" />
    <glyph glyph-name="uni041B" unicode="&#x41b;" horiz-adv-x="1593" 
d="M631 1280l-78 -707q-22 -197 -84 -329q-41 -84 -88 -131q-112 -119 -311 -119q-21 0 -27 2v211q88 0 150 55q44 39 83 131q23 59 41 162q1 11 4.5 36.5t4.5 41.5l94 860h983v-1493h-234v1280h-538z" />
    <glyph glyph-name="uni041C" unicode="&#x41c;" horiz-adv-x="1984" 
d="M1794 0h-233v1118h-5l-466 -1118h-199l-465 1114h-6v-1114h-230v1493h318l483 -1155h2l475 1155h326v-1493z" />
    <glyph glyph-name="uni041D" unicode="&#x41d;" horiz-adv-x="1587" 
d="M424 645v-645h-234v1493h234v-627h739v627h236v-1493h-236v645h-739z" />
    <glyph glyph-name="uni041E" unicode="&#x41e;" horiz-adv-x="1716" 
d="M92 743q0 162 62 304q58 143 163 245q100 103 246 162q139 62 297 62q206 0 385 -101q176 -99 277 -276q102 -175 102 -389q0 -163 -61 -306t-164 -243q-104 -101 -246 -160q-145 -59 -299 -59q-155 0 -297 59q-140 55 -244 156q-100 100 -161 243q-60 142 -60 303z
M338 748q-2 -109 38.5 -210.5t110.5 -176t167.5 -118.5t203.5 -42q105 0 202 42.5t169 116.5q70 74 109.5 176.5t39.5 211.5q0 151 -67 276q-70 125 -191 199q-119 73 -262 73q-142 3 -263 -71.5t-190.5 -202t-66.5 -274.5z" />
    <glyph glyph-name="uni041F" unicode="&#x41f;" horiz-adv-x="1570" 
d="M424 1280v-1280h-234v1493h1192v-1493h-235v1280h-723z" />
    <glyph glyph-name="uni0420" unicode="&#x420;" horiz-adv-x="1300" 
d="M1241 1028q0 -198 -139 -334q-68 -67 -175 -104t-237 -37h-266v-553h-234v1493h529q161 0 272.5 -53.5t173.5 -147.5q76 -118 76 -264zM1004 1024q0 47 -14 88t-46 79.5t-95 61.5t-151 23h-274v-508h274q164 0 238 84q68 77 68 172z" />
    <glyph glyph-name="uni0421" unicode="&#x421;" horiz-adv-x="1607" 
d="M842 -18q-170 -2 -329 73.5t-265 210.5q-73 91 -114.5 214.5t-41.5 260.5q0 164 62 312q62 145 165 245q105 99 244 158q142 60 289 60q117 0 224.5 -30.5t187.5 -82.5q81 -58 135 -117q105 -119 143 -260l-231 -80q-17 79 -74 162q-39 54 -86 90q-50 42 -130 69t-171 27
q-201 0 -354 -147q-73 -71 -115.5 -175t-42.5 -222q0 -119 42 -224.5t114 -175.5q71 -70 163 -108.5t191 -38.5q84 0 160 25.5t129 66.5q56 46 90 90q64 86 88 172l231 -80q-53 -185 -205 -315q-132 -113 -297 -156q-99 -24 -202 -24z" />
    <glyph glyph-name="uni0422" unicode="&#x422;" horiz-adv-x="1255" 
d="M510 0v1276h-473v217h1182v-217h-474v-1276h-235z" />
    <glyph glyph-name="uni0423" unicode="&#x423;" horiz-adv-x="1349" 
d="M1364 1493l-533 -1079q-72 -148 -112 -205q-108 -153 -268 -193q-69 -16 -144 -16h-174v227h154q100 0 177.5 53.5t123.5 151.5l-580 1061h260l447 -831l397 831h252z" />
    <glyph glyph-name="uni0424" unicode="&#x424;" horiz-adv-x="1851" 
d="M1042 1540v-139q210 0 372.5 -74.5t258.5 -218.5q99 -147 99 -346q2 -190 -92 -338t-261 -227.5t-377 -77.5v-166h-233v166q-210 -3 -377 77t-260.5 229t-91.5 339q0 147 55.5 268.5t155.5 202.5q99 80 232 123t286 43v139h233zM322 760q0 -226 163 -342q120 -86 324 -86
v856q-121 0 -217 -35t-154 -96q-116 -119 -116 -297zM1530 760q0 176 -115 297q-58 61 -155 96t-218 35v-856q152 0 258 47.5t160 132.5q70 106 70 248z" />
    <glyph glyph-name="uni0425" unicode="&#x425;" horiz-adv-x="1396" 
d="M696 586l-420 -586h-272l555 768l-522 725h280l383 -545l383 545h277l-520 -723l551 -770h-279z" />
    <glyph glyph-name="uni0426" unicode="&#x426;" horiz-adv-x="1632" 
d="M1311 -315v315h-1121v1493h234v-1278h729v1278h233v-1278h158v-530h-233z" />
    <glyph glyph-name="uni0427" unicode="&#x427;" horiz-adv-x="1449" 
d="M1026 0v610q-249 -129 -430 -129q-236 0 -363 127t-127 353v532h234v-467q0 -161 72.5 -241t232.5 -80q108 0 207 38q105 37 174 86v664h234v-1493h-234z" />
    <glyph glyph-name="uni0428" unicode="&#x428;" horiz-adv-x="2320" 
d="M422 1493v-1280h620v1280h236v-1280h618v1280h234v-1493h-1940v1493h232z" />
    <glyph glyph-name="uni0429" unicode="&#x429;" horiz-adv-x="2377" 
d="M424 1493v-1278h620v1278h234v-1278h618v1278h236v-1278h158v-530h-234v315h-1866v1493h234z" />
    <glyph glyph-name="uni042A" unicode="&#x42a;" horiz-adv-x="1546" 
d="M604 911h348q124 0 235 -36t185 -111q113 -110 113 -299q0 -196 -127 -326q-66 -66 -171.5 -102.5t-236.5 -36.5h-581v1280h-336v213h571v-582zM604 213h340q176 0 248 82q61 69 61 172q0 105 -75 168q-73 67 -236 67h-338v-489z" />
    <glyph glyph-name="uni042B" unicode="&#x42b;" horiz-adv-x="1921" 
d="M1276 637q31 -79 31 -172q0 -87 -33 -178q-35 -84 -96 -148q-66 -66 -171.5 -102.5t-236.5 -36.5h-580v1493h234v-582h348q169 0 301 -63q147 -72 203 -211zM1731 1493v-1493h-246v1493h246zM1073 467q0 48 -16.5 89t-51.5 74.5t-97 52.5t-146 19h-338v-489h340
q176 0 248 82q61 72 61 172z" />
    <glyph glyph-name="uni042C" unicode="&#x42c;" horiz-adv-x="1366" 
d="M1276 637q31 -79 31 -172q0 -87 -33 -178q-35 -84 -96 -148q-66 -66 -171.5 -102.5t-236.5 -36.5h-580v1493h234v-582h348q169 0 301 -63q147 -72 203 -211zM1073 467q0 48 -16.5 89t-51.5 74.5t-97 52.5t-146 19h-338v-489h340q176 0 248 82q61 72 61 172z" />
    <glyph glyph-name="uni042D" unicode="&#x42d;" horiz-adv-x="1615" 
d="M770 -18q-119 0 -230 33t-190 87q-71 49 -137 121q-110 124 -143 252l227 80q23 -83 92 -172q38 -46 92 -90q53 -41 131 -66.5t164 -25.5q186 0 326 125q144 128 170 329h-658v209h656q-24 129 -99 230q-73 99 -178 151q-99 51 -219 51q-92 0 -172.5 -26t-132.5 -68
q-50 -41 -88 -90q-58 -81 -80 -162l-227 76q23 98 99.5 201t191.5 176q178 113 411 113q153 0 290.5 -56t240.5 -157q99 -99 157 -242q60 -148 60 -309q0 -173 -64 -326q-64 -148 -170 -244t-241 -148t-279 -52z" />
    <glyph glyph-name="uni042E" unicode="&#x42e;" horiz-adv-x="2211" 
d="M424 1493v-635h223q24 190 125 338q102 151 262 234q157 86 348 86q206 0 379 -101q168 -101 262 -276q97 -180 97 -391q0 -159 -56.5 -302.5t-156.5 -244.5q-100 -103 -238.5 -161t-292.5 -58q-190 0 -350 86q-155 82 -258 233q-100 148 -121 340h-223v-641h-234v1493
h234zM889 748q0 -107 35 -206.5t100 -174.5q64 -77 157 -121.5t197 -44.5q145 0 258 73q114 75 174 199q62 124 62 275q0 111 -37 211.5t-102 175.5q-64 75 -157.5 118t-197.5 43q-141 0 -254 -75q-117 -79 -174 -201q-61 -122 -61 -272z" />
    <glyph glyph-name="uni042F" unicode="&#x42f;" horiz-adv-x="1372" 
d="M76 0l332 614q-144 50 -219.5 161t-75.5 261q0 108 41 203t125 160q129 94 342 94h561v-1493h-236v567h-311l-301 -567h-258zM946 1276h-301q-295 0 -295 -252q0 -91 64 -164q69 -82 231 -82h301v498z" />
    <glyph glyph-name="uni0430" unicode="&#x430;" horiz-adv-x="1095" 
d="M432 -18q-151 0 -246 86q-96 84 -96 215v10q1 101 54.5 168.5t142.5 101.5q103 41 225 41h127q94 0 94 86q0 66 -51 111q-54 45 -150 45q-90 0 -149.5 -46.5t-71.5 -123.5l-207 47q9 73 70 154q62 80 160 122q82 39 207 39q286 0 381 -209q34 -72 34 -180v-485
q0 -92 7 -164h-222q-10 48 -10 139q-51 -83 -131 -121q-79 -36 -168 -36zM731 444h-219q-74 0 -133 -36q-62 -41 -62 -105q0 -63 45 -101t117 -38q118 0 185 67t67 181v32z" />
    <glyph glyph-name="uni0431" unicode="&#x431;" horiz-adv-x="1263" 
d="M1116 1343l-358 -77q-208 -45 -312 -129q-45 -37 -77 -93q-29 -51 -41 -100.5t-19 -126.5l8 -2q45 80 154 148q108 63 225 63q94 0 182 -37.5t156 -105.5t107 -163.5t39 -201.5q0 -239 -148 -387q-150 -147 -381 -147q-234 0 -381 147q-73 73 -113 192t-40 271
q0 135 12 248q4 44 21 119q30 133 90 215q75 111 180 172q130 77 299 112l358 76zM653 831q-122 0 -213 -88q-90 -93 -90 -229q0 -144 88 -235t215 -91q125 0 213 91q84 93 84 235q0 147 -89 232t-208 85z" />
    <glyph glyph-name="uni0432" unicode="&#x432;" horiz-adv-x="1161" 
d="M152 1018h540q147 0 244 -66q94 -67 94 -188q0 -161 -164 -232q86 -15 148 -86q59 -71 59 -170q0 -71 -31 -127.5t-86 -87.5q-110 -61 -256 -61h-548v1018zM377 602h266q75 0 114.5 34.5t39.5 86.5q0 50 -40.5 81.5t-109.5 31.5h-270v-234zM377 186h291q81 0 126.5 33.5
t45.5 97.5q0 57 -50 88t-131 31h-282v-250z" />
    <glyph glyph-name="uni0433" unicode="&#x433;" horiz-adv-x="905" 
d="M152 0v1018h716v-205h-489v-813h-227z" />
    <glyph glyph-name="uni0434" unicode="&#x434;" horiz-adv-x="1347" 
d="M1036 0h-762v-315h-223v516h4q56 0 101 34t71.5 88.5t42 108t21.5 107.5l57 479h782v-813h130v-520h-224v315zM551 813l-39 -295q-9 -94 -49 -178q-36 -83 -101 -135h539v608h-350z" />
    <glyph glyph-name="uni0435" unicode="&#x435;" horiz-adv-x="1173" 
d="M1090 442h-775q3 -111 94.5 -189.5t204.5 -76.5q101 0 171.5 43t99.5 129l190 -59q-27 -92 -97.5 -164.5t-164.5 -108.5q-93 -34 -197 -34q-108 -2 -207.5 39t-171 112t-113.5 170t-40 207q0 141 66 264q69 125 184 193q118 71 262 71q235 0 365 -145q133 -145 133 -381
q0 -30 -4 -70zM598 844q-107 0 -180 -64q-75 -63 -90 -166h534q-6 103 -80 168q-77 62 -184 62z" />
    <glyph glyph-name="uni0436" unicode="&#x436;" horiz-adv-x="1660" 
d="M942 549h12l385 469h289l-420 -496l432 -522h-290l-398 494h-10v-494h-225v494h-10l-396 -494h-291l433 522l-420 496h289l385 -469h10v469h225v-469z" />
    <glyph glyph-name="uni0437" unicode="&#x437;" horiz-adv-x="1036" 
d="M944 328q0 -89 -44 -160.5t-122 -118.5q-113 -67 -272 -67q-158 0 -285 79q-122 77 -158 228l203 61q15 -67 74 -120t166 -52q114 0 178 64q33 36 33 86q0 65 -55 102q-59 35 -136 35q-20 0 -61 -6q-41 -10 -66 -21l-94 148l311 237h-512v195h811v-176l-290 -224
q143 -6 231 -88t88 -202z" />
    <glyph glyph-name="uni0438" unicode="&#x438;" horiz-adv-x="1228" 
d="M854 678l-481 -678h-221v1018h223v-680l481 680h219v-1018h-221v678z" />
    <glyph glyph-name="uni0439" unicode="&#x439;" horiz-adv-x="1228" 
d="M614 1186q-132 0 -229 78q-99 79 -117 233l154 31q30 -91 72 -132.5t120 -41.5t122 42t73 130l152 -29q-13 -101 -64.5 -173.5t-124.5 -106.5q-73 -31 -158 -31zM854 678l-481 -678h-221v1018h223v-680l481 680h219v-1018h-221v678z" />
    <glyph glyph-name="uni043A" unicode="&#x43a;" horiz-adv-x="1118" 
d="M379 0h-227v1018h227v-428h10l404 428h301l-465 -488l497 -530h-307l-430 471h-10v-471z" />
    <glyph glyph-name="uni043B" unicode="&#x43b;" horiz-adv-x="1247" 
d="M522 813l-51 -414q-16 -137 -63 -227q-28 -54 -74 -94q-98 -88 -275 -88h-6v205q106 0 148 77q36 59 49 158l69 588h777v-1018h-228v813h-346z" />
    <glyph glyph-name="uni043C" unicode="&#x43c;" horiz-adv-x="1544" 
d="M373 0h-221v1018h321l301 -731l295 731h324v-1018h-224v766l-311 -766h-168l-317 760v-760z" />
    <glyph glyph-name="uni043D" unicode="&#x43d;" horiz-adv-x="1218" 
d="M379 416v-416h-227v1018h227v-404h461v404h227v-1018h-227v416h-461z" />
    <glyph glyph-name="uni043E" unicode="&#x43e;" horiz-adv-x="1239" 
d="M82 510q0 146 74 270q78 128 196 191q122 67 271 67q144 0 266 -67q121 -66 196 -189q72 -126 72 -268q3 -144 -70 -268.5t-198 -195.5t-268 -68q-143 0 -269 69q-118 63 -196 191q-74 124 -74 268zM315 514q0 -134 86 -229q88 -97 222 -97q133 0 219 95q84 93 84 227
q0 137 -86 229q-83 95 -219 95q-135 0 -222 -93q-84 -90 -84 -227z" />
    <glyph glyph-name="uni043F" unicode="&#x43f;" horiz-adv-x="1212" 
d="M379 813v-813h-227v1018h909v-1018h-227v813h-455z" />
    <glyph glyph-name="uni0440" unicode="&#x440;" horiz-adv-x="1298" 
d="M1214 512q0 -139 -61 -258q-66 -124 -180 -195q-122 -75 -264 -75q-108 0 -226 67q-66 40 -104 99v-652h-227v1520h221v-158q61 98 170 141q93 37 172 37q111 0 207 -45.5t161 -122.5q131 -160 131 -358zM375 510q0 -132 86 -227q87 -93 219 -93q134 0 221 93
q84 93 84 227q0 136 -84 229q-86 92 -221 92q-133 0 -219 -92q-86 -95 -86 -229z" />
    <glyph glyph-name="uni0441" unicode="&#x441;" horiz-adv-x="1161" 
d="M614 -18q-109 -1 -208 40t-170.5 112.5t-112.5 170t-39 207.5q0 142 70 264q69 122 192 193q120 69 270 69q185 0 310 -96q125 -92 161 -231l-204 -68q-18 65 -78 125q-69 66 -189 66q-124 0 -213 -89q-86 -89 -86 -231q0 -140 84 -233q87 -93 217 -93q195 0 269 195
l207 -68q-35 -124 -152 -223q-126 -110 -328 -110z" />
    <glyph glyph-name="uni0442" unicode="&#x442;" horiz-adv-x="970" 
d="M371 0v813h-332v205h893v-205h-334v-813h-227z" />
    <glyph glyph-name="uni0443" unicode="&#x443;" horiz-adv-x="1167" 
d="M483 115l-452 903h258l317 -668l293 668h246l-699 -1520h-241z" />
    <glyph glyph-name="uni0444" unicode="&#x444;" horiz-adv-x="1689" 
d="M731 -465v543q-102 -88 -229 -88q-104 0 -185 42.5t-129.5 115.5t-73 165.5t-24.5 198.5q0 217 103 362q51 74 131 116t178 42q66 0 133 -28q69 -32 96 -66v555h227v-555q31 34 97 66q67 28 133 28q98 0 178.5 -41.5t132.5 -116.5q100 -145 100 -366q0 -83 -15 -158.5
t-47.5 -141.5t-79.5 -114t-115.5 -76t-151.5 -28q-130 0 -232 88v-543h-227zM567 834q-118 0 -184 -91q-64 -92 -64 -237q0 -155 63 -238.5t185 -83.5q90 0 164 68v512q-79 70 -164 70zM1126 834q-89 0 -168 -70v-512q77 -68 168 -68q122 0 183 83.5t61 242.5q0 145 -61 233
q-63 91 -183 91z" />
    <glyph glyph-name="uni0445" unicode="&#x445;" horiz-adv-x="1087" 
d="M543 354l-256 -354h-260l387 514l-373 504h260l244 -338l246 338h256l-373 -500l385 -518h-260z" />
    <glyph glyph-name="uni0446" unicode="&#x446;" horiz-adv-x="1277" 
d="M967 -313v313h-815v1018h227v-813h452v813h230v-813h129v-518h-223z" />
    <glyph glyph-name="uni0447" unicode="&#x447;" horiz-adv-x="1126" 
d="M745 0v369q-162 -78 -292 -78q-165 0 -265 84q-100 81 -100 250v393h229v-356q0 -78 47 -123t125 -45q131 0 256 73v451h228v-1018h-228z" />
    <glyph glyph-name="uni0448" unicode="&#x448;" horiz-adv-x="1767" 
d="M379 1018v-813h391v813h225v-813h394v813h227v-1018h-1464v1018h227z" />
    <glyph glyph-name="uni0449" unicode="&#x449;" horiz-adv-x="1832" 
d="M379 1018v-813h391v813h225v-813h394v813h227v-813h129v-518h-215v313h-1378v1018h227z" />
    <glyph glyph-name="uni044A" unicode="&#x44a;" horiz-adv-x="1302" 
d="M1247 350q0 -156 -104 -254q-104 -96 -295 -96h-512v815h-295v203h522v-336h266q255 0 361 -143q57 -75 57 -189zM1018 352q0 74 -55.5 114t-149.5 40h-250v-316h254q95 0 148 40.5t53 121.5z" />
    <glyph glyph-name="uni044B" unicode="&#x44b;" horiz-adv-x="1650" 
d="M1063 350q0 -155 -105 -254q-104 -96 -294 -96h-512v1018h227v-336h266q255 0 361 -143q57 -75 57 -189zM834 352q0 74 -55.5 114t-149.5 40h-250v-316h254q95 0 148 40.5t53 121.5zM1499 1018v-1018h-227v1018h227z" />
    <glyph glyph-name="uni044C" unicode="&#x44c;" horiz-adv-x="1118" 
d="M1063 350q0 -155 -105 -254q-104 -96 -294 -96h-512v1018h227v-336h266q255 0 361 -143q57 -75 57 -189zM834 352q0 74 -55.5 114t-149.5 40h-250v-316h254q95 0 148 40.5t53 121.5z" />
    <glyph glyph-name="uni044D" unicode="&#x44d;" horiz-adv-x="1163" 
d="M444 614h394q-27 101 -105 164q-78 60 -180 60q-115 0 -184 -60q-75 -59 -95 -131l-200 66q35 135 170 229q131 96 315 96q155 0 270 -69q122 -72 185 -189q63 -114 63 -262q0 -235 -147 -385q-151 -151 -381 -151q-92 0 -176.5 29.5t-147.5 78.5q-118 96 -155 223
l202 66q23 -66 84 -125q70 -70 195 -70q109 0 190 72q83 71 101 182h-398v176z" />
    <glyph glyph-name="uni044E" unicode="&#x44e;" horiz-adv-x="1660" 
d="M377 606h174q30 188 172 312q141 120 338 120q225 0 371 -149q145 -151 145 -379q2 -109 -38 -207.5t-109.5 -169t-167 -111.5t-205.5 -40q-196 0 -334 120q-141 125 -170 314h-176v-416h-225v1018h225v-412zM774 510q0 -137 80 -229q78 -93 207 -93q131 0 209 93
q76 91 76 229q0 135 -78 231q-81 93 -211 93q-132 0 -207 -93q-76 -88 -76 -231z" />
    <glyph glyph-name="uni044F" unicode="&#x44f;" horiz-adv-x="1169" 
d="M582 336l-248 -336h-271l285 375q-123 40 -183.5 120.5t-60.5 190.5q0 143 103 238q108 94 301 94h510v-1018h-227v336h-209zM791 827h-259q-66 0 -126 -28q-34 -15 -53 -48t-19 -77q0 -65 49 -111q48 -45 152 -45h256v309z" />
    <glyph glyph-name="uni0451" unicode="&#x451;" horiz-adv-x="1173" 
d="M381 1184q-59 0 -100 41q-41 44 -41 102q0 56 41 100q41 41 100 41t100 -41q43 -43 43 -100q0 -59 -43 -102q-41 -41 -100 -41zM805 1184q-59 0 -100 41q-43 43 -43 102q0 57 40 100q41 41 103 41q59 0 100 -41q41 -44 41 -100q0 -58 -41 -102q-44 -41 -100 -41z
M1094 512q0 -30 -4 -70h-775q3 -111 94.5 -189.5t204.5 -76.5q101 0 171.5 43t99.5 129l190 -59q-27 -92 -97.5 -164.5t-164.5 -108.5q-93 -34 -197 -34q-108 -2 -207.5 39t-171 112t-113.5 170t-40 207q0 141 66 264q69 125 184 193q118 71 262 71q235 0 365 -145
q133 -145 133 -381zM328 614h534q-6 103 -80 168q-77 62 -184 62t-180 -64q-75 -63 -90 -166z" />
    <glyph glyph-name="uni0452" unicode="&#x452;" horiz-adv-x="1179" 
d="M625 -305q95 0 157 65q60 69 60 181v628q0 118 -58 186t-168 68q-107 0 -172 -71q-65 -68 -65 -189v-563h-227v1198h-134v166h134v188h227v-188h317v-166h-317v-311q64 81 149 117q75 34 158 34q189 0 285 -114q98 -113 98 -297v-750q0 -173 -100 -276
q-97 -103 -267 -103q-86 0 -157 21v190q32 -14 80 -14z" />
    <glyph glyph-name="uni0453" unicode="&#x453;" horiz-adv-x="905" 
d="M582 1520h276l-276 -328h-197zM152 0v1018h716v-205h-489v-813h-227z" />
    <glyph glyph-name="uni0454" unicode="&#x454;" horiz-adv-x="1161" 
d="M717 438h-400q24 -114 107 -182q84 -72 192 -72q198 0 275 195l203 -66q-19 -61 -57 -117.5t-96 -105.5t-143 -78.5t-184 -29.5q-109 -1 -208 40t-170.5 112.5t-112.5 170t-39 207.5q0 142 70 264q69 122 192 193q120 69 270 69q182 0 310 -94q126 -95 161 -231l-200 -66
q-20 65 -80 125q-69 66 -191 66q-102 0 -184 -60q-79 -61 -106 -164h391v-176z" />
    <glyph glyph-name="uni0455" unicode="&#x455;" horiz-adv-x="944" 
d="M483 -18q-116 1 -200.5 40.5t-132.5 102.5q-62 79 -68 154l194 51q16 -73 69.5 -117.5t135.5 -44.5q68 0 106 32t38 87q0 84 -121 112l-129 31q-132 30 -201.5 107.5t-69.5 183.5q0 130 105 225q105 94 256 94q215 -3 313 -135q52 -69 62 -137l-191 -53q-15 63 -61 102
t-123 39q-56 0 -98 -33q-41 -28 -41 -82q0 -42 27.5 -69.5t74.5 -36.5l139 -29q137 -31 213 -112q76 -85 76 -195q0 -60 -23 -115.5t-67.5 -101t-117.5 -73t-165 -27.5z" />
    <glyph glyph-name="uni0456" unicode="&#x456;" horiz-adv-x="530" 
d="M160 1243q-45 45 -45 105q0 61 45 106q42 45 104 45q65 0 107 -45q43 -43 43 -106q0 -62 -43 -105q-45 -45 -107 -45q-59 0 -104 45zM152 0v1018h227v-1018h-227z" />
    <glyph glyph-name="uni0457" unicode="&#x457;" horiz-adv-x="530" 
d="M49 1184q-59 0 -100 41t-41 102q0 59 41 100t100 41q60 0 101 -41q43 -43 43 -100q0 -59 -43 -102q-41 -41 -101 -41zM471 1184q-56 0 -100 41q-41 44 -41 102q0 56 41 100q41 41 100 41q58 0 102 -41q41 -44 41 -100q0 -58 -41 -102q-44 -41 -102 -41zM379 1018v-1018
h-227v1018h227z" />
    <glyph glyph-name="uni0458" unicode="&#x458;" horiz-adv-x="544" 
d="M131 1348q0 63 43 106q45 45 105 45q63 0 108 -45q43 -43 43 -106q0 -62 -43 -105q-48 -45 -108 -45t-105 45q-43 43 -43 105zM166 -143v1161h227v-1174q0 -181 -73.5 -264.5t-227.5 -83.5q-71 0 -145 19v192q49 -6 73 -6q146 0 146 156z" />
    <glyph glyph-name="uni0459" unicode="&#x459;" horiz-adv-x="1835" 
d="M1778 350q0 -154 -103 -254q-107 -96 -297 -96h-512v813h-344l-51 -414q-16 -136 -65 -225q-26 -56 -72 -96q-45 -40 -116.5 -64t-158.5 -24h-6v205q102 0 148 77q38 67 47 158l71 588h777v-336h266q254 0 360 -143q56 -77 56 -189zM1550 352q0 74 -55 114t-149 40h-250
v-316h254q95 0 147.5 40.5t52.5 121.5z" />
    <glyph glyph-name="uni045A" unicode="&#x45a;" horiz-adv-x="1806" 
d="M840 487h-461v-487h-227v1018h227v-352h461v352h225v-352h268q91 0 165 -18.5t131 -56.5t88.5 -101.5t31.5 -147.5q0 -158 -102 -250q-106 -92 -297 -92h-510v487zM1065 190h256q201 0 201 156q0 143 -205 143h-252v-299z" />
    <glyph glyph-name="uni045B" unicode="&#x45b;" 
d="M152 1552h227v-188h317v-166h-317v-309q44 56 104 94q66 37 109 45q52 10 92 10q189 0 285 -114q96 -111 96 -297v-627h-225v569q0 118 -58 186t-168 68q-109 0 -172 -69t-63 -187v-567h-227v1198h-134v166h134v188z" />
    <glyph glyph-name="uni045C" unicode="&#x45c;" horiz-adv-x="1118" 
d="M662 1520h278l-276 -328h-197zM1094 1018l-465 -488l497 -530h-307l-430 471h-10v-471h-227v1018h227v-428h10l404 428h301z" />
    <glyph glyph-name="uni045E" unicode="&#x45e;" horiz-adv-x="1167" 
d="M598 1186q-136 0 -229 78q-99 79 -117 233l154 31q28 -90 71 -132t121 -42t121.5 42t71.5 130l151 -29q-13 -101 -63 -174t-123 -106q-73 -31 -158 -31zM483 115l-452 903h258l317 -668l293 668h246l-699 -1520h-241z" />
    <glyph glyph-name="uni045F" unicode="&#x45f;" horiz-adv-x="1212" 
d="M498 -313v313h-346v1018h227v-813h452v813h230v-1018h-342v-313h-221z" />
    <glyph glyph-name="uni0490" unicode="&#x490;" horiz-adv-x="1126" 
d="M424 0h-234v1493h666v309h234v-526h-666v-1276z" />
    <glyph glyph-name="uni0491" unicode="&#x491;" horiz-adv-x="905" 
d="M152 0v1018h503v303h213v-508h-489v-813h-227z" />
    <glyph glyph-name="uni0496" unicode="&#x496;" horiz-adv-x="2052" 
d="M2011 -315h-233v315h-66l-577 725h-11v-725h-235v725h-10l-580 -725h-297l616 762l-598 731h293l568 -700h8v700h235v-700h9l567 700h293l-600 -731l444 -547h174v-530z" />
    <glyph glyph-name="uni0497" unicode="&#x497;" horiz-adv-x="1699" 
d="M1640 -313h-215v313h-75l-398 494h-10v-494h-225v494h-10l-396 -494h-291l433 522l-420 496h289l385 -469h10v469h225v-469h12l385 469h289l-420 -496l265 -317h167v-518z" />
    <glyph glyph-name="uni0498" unicode="&#x498;" horiz-adv-x="1290" 
d="M745 -315h-233v307q-190 30 -309 155q-122 125 -140 287l228 41q9 -119 104 -199q94 -79 236 -79q114 0 209 67q102 72 102 205q0 114 -88 180q-89 68 -211 68q-101 0 -158 -31l-110 174l461 422h-723v211h1036v-199l-422 -385q208 -12 334 -135q127 -121 127 -301
q0 -115 -48 -211t-134 -162q-110 -84 -261 -108v-307z" />
    <glyph glyph-name="uni0499" unicode="&#x499;" horiz-adv-x="1036" 
d="M614 -313h-215v305q-130 25 -217 100q-92 77 -119 197l203 61q15 -67 74 -120t166 -52q114 0 178 64q33 36 33 86q0 65 -55 102q-59 35 -136 35q-20 0 -61 -6q-41 -10 -66 -21l-94 148l311 237h-512v195h811v-176l-290 -224q143 -6 231 -88t88 -202q0 -89 -44 -160.5
t-122 -118.5q-70 -42 -164 -57v-305z" />
    <glyph glyph-name="uni049A" unicode="&#x49a;" horiz-adv-x="1402" 
d="M1370 -315h-233v315h-84l-629 705v-705h-234v1493h234v-645l596 645h311l-667 -715l512 -563h194v-530z" />
    <glyph glyph-name="uni049B" unicode="&#x49b;" horiz-adv-x="1161" 
d="M1126 -313h-215v313h-92l-430 471h-10v-471h-227v1018h227v-428h10l404 428h301l-465 -488l307 -325h190v-518z" />
    <glyph glyph-name="uni04A2" unicode="&#x4a2;" horiz-adv-x="1644" 
d="M1556 -315h-235v315h-158v645h-739v-645h-234v1493h234v-627h739v627h236v-1278h157v-530z" />
    <glyph glyph-name="uni04A3" unicode="&#x4a3;" horiz-adv-x="1284" 
d="M1198 -313h-215v313h-143v416h-461v-416h-227v1018h227v-404h461v404h227v-813h131v-518z" />
    <glyph glyph-name="uni04AA" unicode="&#x4aa;" horiz-adv-x="1607" 
d="M958 -315h-233v307q-127 19 -240 78.5t-201.5 152.5t-140 227.5t-51.5 290.5q0 164 62 312q62 145 165 245q105 99 244 158q142 60 289 60q117 0 224.5 -30.5t187.5 -82.5q81 -58 135 -117q105 -119 143 -260l-231 -80q-17 79 -74 162q-39 54 -86 90q-50 42 -130 69
t-171 27q-201 0 -354 -147q-73 -71 -115.5 -175t-42.5 -222q0 -119 42 -224.5t114 -175.5q71 -70 163 -108.5t191 -38.5q84 0 160 25.5t129 66.5q56 46 90 90q64 86 88 172l231 -80q-29 -115 -123 -229q-43 -56 -112 -115q-67 -53 -160 -91.5t-193 -51.5v-305z" />
    <glyph glyph-name="uni04AB" unicode="&#x4ab;" horiz-adv-x="1161" 
d="M719 -313h-215v305q-183 37 -301 182q-119 140 -119 338q0 142 70 264q69 122 192 193q120 69 270 69q185 0 310 -96q125 -92 161 -231l-204 -68q-18 65 -78 125q-69 66 -189 66q-124 0 -213 -89q-86 -89 -86 -231q0 -140 84 -233q87 -93 217 -93q195 0 269 195l207 -68
q-28 -106 -129 -204q-100 -92 -246 -119v-305z" />
    <glyph glyph-name="uni04AC" unicode="&#x4ac;" horiz-adv-x="1263" 
d="M901 -315h-233v315h-158v1276h-473v217h1182v-217h-474v-1061h156v-530z" />
    <glyph glyph-name="uni04AD" unicode="&#x4ad;" horiz-adv-x="978" 
d="M729 -313h-215v313h-143v813h-332v205h893v-205h-334v-608h131v-518z" />
    <glyph glyph-name="uni04B2" unicode="&#x4b2;" horiz-adv-x="1433" 
d="M1391 -315h-234v315h-45l-416 586l-420 -586h-272l555 768l-522 725h280l383 -545l383 545h277l-520 -723l397 -555h154v-530z" />
    <glyph glyph-name="uni04B3" unicode="&#x4b3;" horiz-adv-x="1122" 
d="M1061 -313h-215v313h-47l-256 354l-256 -354h-260l387 514l-373 504h260l244 -338l246 338h256l-373 -500l233 -313h154v-518z" />
    <glyph glyph-name="uni04B6" unicode="&#x4b6;" horiz-adv-x="1509" 
d="M1186 -315v315h-160v610q-249 -129 -430 -129q-236 0 -363 127t-127 353v532h234v-467q0 -161 72.5 -241t232.5 -80q108 0 207 38q105 37 174 86v664h238v-1278h155v-530h-233z" />
    <glyph glyph-name="uni04B7" unicode="&#x4b7;" horiz-adv-x="1189" 
d="M1104 -313h-215v313h-144v369q-162 -78 -292 -78q-165 0 -265 84q-100 81 -100 250v393h229v-356q0 -78 47 -123t125 -45q131 0 256 73v451h228v-813h131v-518z" />
    <glyph glyph-name="uni04C0" unicode="&#x4c0;" horiz-adv-x="614" 
d="M424 1493v-1493h-234v1493h234z" />
    <glyph glyph-name="uni04C1" unicode="&#x4c1;" horiz-adv-x="2013" 
d="M1006 1622q-131 0 -232 78q-99 80 -117 235l154 29q30 -89 73.5 -131.5t121.5 -42.5q76 0 119 42.5t73 131.5l152 -29q-13 -102 -63.5 -175.5t-123.5 -106.5q-73 -31 -157 -31zM1124 793h9l567 700h293l-600 -731l618 -762h-299l-577 725h-11v-725h-235v725h-10
l-580 -725h-297l616 762l-598 731h293l568 -700h8v700h235v-700z" />
    <glyph glyph-name="uni04C2" unicode="&#x4c2;" horiz-adv-x="1660" 
d="M831 1186q-136 0 -229 78q-99 79 -117 233l154 31q30 -91 72 -132.5t120 -41.5t121.5 42t71.5 130l154 -29q-15 -101 -65.5 -174t-123.5 -106q-73 -31 -158 -31zM942 549h12l385 469h289l-420 -496l432 -522h-290l-398 494h-10v-494h-225v494h-10l-396 -494h-291l433 522
l-420 496h289l385 -469h10v469h225v-469z" />
    <glyph glyph-name="uni04CF" unicode="&#x4cf;" horiz-adv-x="530" 
d="M379 1018v-1018h-227v1018h227z" />
    <glyph glyph-name="uni04D0" unicode="&#x4d0;" horiz-adv-x="1492" 
d="M748 1622q-131 0 -232 78q-99 80 -117 235l154 29q30 -90 73 -132t122 -42q76 0 119 42.5t73 131.5l152 -29q-13 -102 -64 -175t-125 -107q-73 -31 -155 -31zM379 350l-139 -350h-240l608 1493h277l604 -1493h-244l-137 350h-729zM461 559h567l-285 709z" />
    <glyph glyph-name="uni04D1" unicode="&#x4d1;" horiz-adv-x="1095" 
d="M528 1186q-134 0 -231 78q-99 79 -117 233l154 31q29 -90 72.5 -132t121.5 -42q76 0 120 42t73 130l151 -29q-13 -101 -63.5 -173.5t-122.5 -106.5q-76 -31 -158 -31zM432 -18q-151 0 -246 86q-96 84 -96 215v10q1 101 54.5 168.5t142.5 101.5q103 41 225 41h127
q94 0 94 86q0 66 -51 111q-54 45 -150 45q-90 0 -149.5 -46.5t-71.5 -123.5l-207 47q9 73 70 154q62 80 160 122q82 39 207 39q286 0 381 -209q34 -72 34 -180v-485q0 -92 7 -164h-222q-10 48 -10 139q-51 -83 -131 -121q-79 -36 -168 -36zM731 444h-219q-74 0 -133 -36
q-62 -41 -62 -105q0 -63 45 -101t117 -38q118 0 185 67t67 181v32z" />
    <glyph glyph-name="uni04D2" unicode="&#x4d2;" horiz-adv-x="1492" 
d="M528 1618q-60 0 -100 43q-41 41 -41 100q0 62 41 103q38 41 100 41q63 0 101 -41q43 -43 43 -103q0 -57 -43 -100q-40 -43 -101 -43zM1071 1661q-40 -43 -100 -43q-61 0 -101 43q-41 38 -41 100t41 103q38 41 101 41q62 0 100 -41q43 -43 43 -103q0 -57 -43 -100z
M379 350l-139 -350h-240l608 1493h277l604 -1493h-244l-137 350h-729zM461 559h567l-285 709z" />
    <glyph glyph-name="uni04D3" unicode="&#x4d3;" horiz-adv-x="1095" 
d="M328 1184q-60 0 -101 41q-43 43 -43 102q0 56 41 100q44 41 103 41q56 0 100 -41q43 -43 43 -100q0 -59 -43 -102q-44 -41 -100 -41zM750 1184q-60 0 -101 41q-41 44 -41 102q0 56 41 100q41 41 101 41q58 0 102 -41q41 -44 41 -100q0 -59 -43 -102q-41 -41 -100 -41z
M432 -18q-151 0 -246 86q-96 84 -96 215v10q1 101 54.5 168.5t142.5 101.5q103 41 225 41h127q94 0 94 86q0 66 -51 111q-54 45 -150 45q-90 0 -149.5 -46.5t-71.5 -123.5l-207 47q9 73 70 154q62 80 160 122q82 39 207 39q286 0 381 -209q34 -72 34 -180v-485q0 -92 7 -164
h-222q-10 48 -10 139q-51 -83 -131 -121q-79 -36 -168 -36zM731 412v32h-219q-74 0 -133 -36q-62 -41 -62 -105q0 -63 45 -101t117 -38q118 0 185 67t67 181z" />
    <glyph glyph-name="uni04D4" unicode="&#x4d4;" horiz-adv-x="2007" 
d="M233 0h-256l811 1493h1102v-213h-712v-414h647v-213h-647v-440h718v-213h-952v350h-522zM532 559h412v723h-22z" />
    <glyph glyph-name="uni04D5" unicode="&#x4d5;" horiz-adv-x="1812" 
d="M1733 512q0 -45 -2 -70h-779q3 -111 95 -188q93 -78 208 -78q210 0 269 170l194 -57q-45 -145 -172 -226q-134 -81 -289 -81q-122 0 -228.5 48.5t-180.5 135.5q-156 -184 -406 -184h-4q-147 0 -250 86q-98 82 -98 215v10q1 101 54.5 168.5t142.5 101.5q103 41 225 41h145
q84 0 84 86q0 67 -53.5 111t-146.5 45q-96 0 -158 -47q-64 -46 -76 -121l-203 45q9 70 72 151q65 80 166 127q84 37 203 37q238 0 336 -145q66 69 160 107t200 38q233 0 363 -145q129 -144 129 -381zM963 614h542q-6 106 -80 168t-186 62q-108 0 -184 -64q-77 -62 -92 -166z
M737 444h-225q-74 0 -133 -36q-62 -41 -62 -105q0 -63 45 -101t117 -38q118 0 189 65q69 66 69 183v32z" />
    <glyph glyph-name="uni04D6" unicode="&#x4d6;" horiz-adv-x="1263" 
d="M668 1622q-134 0 -230 78q-98 79 -116 235l153 29q30 -89 72.5 -131.5t120.5 -42.5t121 42.5t71 131.5l154 -29q-15 -103 -65.5 -176t-123.5 -106q-73 -31 -157 -31zM190 1493h957v-213h-723v-414h657v-213h-657v-440h729v-213h-963v1493z" />
    <glyph glyph-name="uni04D7" unicode="&#x4d7;" horiz-adv-x="1173" 
d="M594 1186q-132 0 -229 78q-99 79 -117 233l153 31q30 -90 72.5 -132t120.5 -42t121 41.5t73 130.5l152 -29q-13 -101 -64 -173.5t-124 -106.5q-73 -31 -158 -31zM1090 442h-775q3 -111 94.5 -189.5t204.5 -76.5q101 0 171.5 43t99.5 129l190 -59q-27 -92 -97.5 -164.5
t-164.5 -108.5q-93 -34 -197 -34q-108 -2 -207.5 39t-171 112t-113.5 170t-40 207q0 141 66 264q69 125 184 193q118 71 262 71q235 0 365 -145q133 -145 133 -381q0 -30 -4 -70zM598 844q-107 0 -180 -64q-75 -63 -90 -166h534q-6 103 -80 168q-77 62 -184 62z" />
    <glyph glyph-name="uni04DC" unicode="&#x4dc;" horiz-adv-x="2013" 
d="M784 1618q-58 0 -98 43q-43 43 -43 100q0 59 41 103q41 41 100 41t103 -41q41 -44 41 -103q0 -56 -41 -100q-43 -43 -103 -43zM1227 1618q-61 0 -101 43q-41 41 -41 100q0 62 41 103t101 41q58 0 102 -41q41 -44 41 -103q0 -57 -43 -100q-40 -43 -100 -43zM1124 793h9
l567 700h293l-600 -731l618 -762h-299l-577 725h-11v-725h-235v725h-10l-580 -725h-297l616 762l-598 731h293l568 -700h8v700h235v-700z" />
    <glyph glyph-name="uni04DD" unicode="&#x4dd;" horiz-adv-x="1660" 
d="M618 1184q-59 0 -100 41q-41 44 -41 102q0 56 41 100q41 41 100 41q60 0 101 -41q43 -43 43 -100q0 -59 -43 -102q-41 -41 -101 -41zM1042 1184q-59 0 -100 41q-43 43 -43 102q0 56 41 100q41 41 102 41q60 0 101 -41q41 -44 41 -100q0 -58 -41 -102q-44 -41 -101 -41z
M942 549h12l385 469h289l-420 -496l432 -522h-290l-398 494h-10v-494h-225v494h-10l-396 -494h-291l433 522l-420 496h289l385 -469h10v469h225v-469z" />
    <glyph glyph-name="uni04DE" unicode="&#x4de;" horiz-adv-x="1290" 
d="M410 1618q-61 0 -101 43q-43 43 -43 100q0 59 41 103q44 41 103 41q56 0 100 -41q43 -43 43 -103q0 -57 -43 -100t-100 -43zM850 1618q-57 0 -100 43q-41 44 -41 100q0 59 41 103q41 41 100 41q58 0 102 -41q41 -44 41 -103q0 -56 -41 -100q-43 -43 -102 -43zM627 -18
q-115 0 -219 36.5t-175 100.5q-71 62 -115.5 143.5t-54.5 171.5l228 41q9 -119 104 -199q94 -79 236 -79q114 0 209 67q102 72 102 205q0 114 -88 180q-89 68 -211 68q-101 0 -158 -31l-110 174l461 422h-723v211h1036v-199l-422 -385q208 -12 334 -135q127 -121 127 -301
q0 -115 -48 -211t-134 -162q-150 -118 -379 -118z" />
    <glyph glyph-name="uni04DF" unicode="&#x4df;" horiz-adv-x="1036" 
d="M297 1184q-56 0 -100 41q-41 44 -41 102q0 56 41 100q41 41 100 41q58 0 102 -41q41 -44 41 -100q0 -58 -41 -102q-44 -41 -102 -41zM721 1184q-59 0 -100 41q-43 43 -43 102q0 57 40 100q41 41 103 41q59 0 100 -41t41 -100q0 -61 -41 -102q-44 -41 -100 -41zM944 328
q0 -89 -44 -160.5t-122 -118.5q-113 -67 -272 -67q-158 0 -285 79q-122 77 -158 228l203 61q15 -67 74 -120t166 -52q114 0 178 64q33 36 33 86q0 65 -55 102q-59 35 -136 35q-20 0 -61 -6q-41 -10 -66 -21l-94 148l311 237h-512v195h811v-176l-290 -224q143 -6 231 -88
t88 -202z" />
    <glyph glyph-name="uni04E2" unicode="&#x4e2;" horiz-adv-x="1630" 
d="M1147 1696h-662v180h662v-180zM1440 1493v-1493h-232v1153l-747 -1153h-271v1493h232v-1155l747 1155h271z" />
    <glyph glyph-name="uni04E3" unicode="&#x4e3;" horiz-adv-x="1228" 
d="M944 1210h-659v183h659v-183zM854 678l-481 -678h-221v1018h223v-680l481 680h219v-1018h-221v678z" />
    <glyph glyph-name="uni04E4" unicode="&#x4e4;" horiz-adv-x="1630" 
d="M594 1618q-57 0 -100 43q-41 44 -41 100q0 59 41 103q41 41 100 41q58 0 102 -41q41 -44 41 -103q0 -56 -41 -100q-43 -43 -102 -43zM1036 1618q-60 0 -100 43q-43 43 -43 100q0 59 41 103q44 41 102 41q60 0 101 -41t41 -103q0 -59 -41 -100q-43 -43 -101 -43z
M1440 1493v-1493h-232v1153l-747 -1153h-271v1493h232v-1155l747 1155h271z" />
    <glyph glyph-name="uni04E5" unicode="&#x4e5;" horiz-adv-x="1228" 
d="M401 1184q-57 0 -98 41q-43 43 -43 102q0 56 41 100q41 41 100 41t103 -41q41 -41 41 -100q0 -61 -41 -102q-44 -41 -103 -41zM825 1184q-59 0 -100 41t-41 102q0 59 41 100t100 41t103 -41q41 -44 41 -100q0 -59 -43 -102q-41 -41 -101 -41zM854 678l-481 -678h-221
v1018h223v-680l481 680h219v-1018h-221v678z" />
    <glyph glyph-name="uni04E6" unicode="&#x4e6;" horiz-adv-x="1716" 
d="M641 1618q-60 0 -100 43q-43 43 -43 100q0 59 41 103q38 41 102 41q59 0 100 -41q41 -44 41 -103q0 -56 -41 -100q-43 -43 -100 -43zM1184 1661q-43 -43 -103 -43t-100 43q-41 41 -41 100t41 103q38 41 100 41t103 -41q41 -44 41 -103q0 -56 -41 -100zM92 743
q0 162 62 304q58 143 163 245q100 103 246 162q139 62 297 62q206 0 385 -101q176 -99 277 -276q102 -175 102 -389q0 -163 -61 -306t-164 -243q-104 -101 -246 -160q-145 -59 -299 -59q-155 0 -297 59q-140 55 -244 156q-100 100 -161 243q-60 142 -60 303zM338 748
q-2 -109 38.5 -210.5t110.5 -176t167.5 -118.5t203.5 -42q105 0 202 42.5t169 116.5q70 74 109.5 176.5t39.5 211.5q0 151 -67 276q-70 125 -191 199q-119 73 -262 73q-142 3 -263 -71.5t-190.5 -202t-66.5 -274.5z" />
    <glyph glyph-name="uni04E7" unicode="&#x4e7;" horiz-adv-x="1239" 
d="M408 1184q-60 0 -101 41t-41 102q0 59 41 100t101 41q59 0 100 -41q43 -43 43 -100q0 -59 -43 -102q-41 -41 -100 -41zM829 1184q-56 0 -100 41q-41 44 -41 102q0 56 41 100q41 41 100 41t103 -41q41 -44 41 -100q0 -58 -41 -102q-44 -41 -103 -41zM82 510q0 146 74 270
q78 128 196 191q122 67 271 67q144 0 266 -67q121 -66 196 -189q72 -126 72 -268q3 -144 -70 -268.5t-198 -195.5t-268 -68q-143 0 -269 69q-118 63 -196 191q-74 124 -74 268zM315 514q0 -134 86 -229q88 -97 222 -97q133 0 219 95q84 93 84 227q0 137 -86 229
q-83 95 -219 95q-135 0 -222 -93q-84 -90 -84 -227z" />
    <glyph glyph-name="uni04E8" unicode="&#x4e8;" horiz-adv-x="1716" 
d="M92 743q0 162 62 304q58 143 163 245q100 103 246 162q139 62 297 62q206 0 385 -101q176 -99 277 -276q102 -175 102 -389q0 -163 -61 -306t-164 -243q-104 -101 -246 -160q-145 -59 -299 -59q-155 0 -297 59q-140 55 -244 156q-100 100 -161 243q-60 142 -60 303z
M346 860h1022q-29 186 -176 314q-143 122 -334 122q-193 0 -336 -122q-142 -127 -176 -314zM1372 655h-1030q27 -191 174 -323q149 -131 342 -131q194 0 340 131q147 132 174 323z" />
    <glyph glyph-name="uni04E9" unicode="&#x4e9;" horiz-adv-x="1239" 
d="M1157 514q3 -144 -70 -268.5t-198 -195.5t-268 -68q-143 0 -269 69q-118 63 -196 191q-74 124 -74 268q0 146 74 270q78 128 196 191q122 67 271 67q144 0 266 -67q121 -66 196 -189q72 -126 72 -268zM317 596h605q-21 103 -105 172q-82 70 -196 70q-119 0 -201 -70
q-86 -70 -103 -172zM922 428h-603q18 -103 105 -172q84 -72 199 -72q114 0 196 70q85 70 103 174z" />
    <glyph glyph-name="uni04EA" unicode="&#x4ea;" horiz-adv-x="1716" 
d="M631 1618q-61 0 -101 43q-41 41 -41 100q0 62 41 103q38 41 101 41q62 0 100 -41q43 -43 43 -103q0 -57 -43 -100q-40 -43 -100 -43zM1192 1661q-40 -43 -100 -43q-61 0 -101 43q-41 38 -41 100t41 103q38 41 101 41q62 0 100 -41q43 -43 43 -103q0 -57 -43 -100zM92 743
q0 162 62 304q58 143 163 245q100 103 246 162q139 62 297 62q206 0 385 -101q176 -99 277 -276q102 -175 102 -389q0 -163 -61 -306t-164 -243q-104 -101 -246 -160q-145 -59 -299 -59q-155 0 -297 59q-140 55 -244 156q-100 100 -161 243q-60 142 -60 303zM346 860h1024
q-34 188 -178 314q-143 122 -334 122q-193 0 -336 -122q-142 -127 -176 -314zM1372 655h-1030q27 -191 174 -323q149 -131 342 -131q194 0 340 131q147 132 174 323z" />
    <glyph glyph-name="uni04EB" unicode="&#x4eb;" horiz-adv-x="1239" 
d="M551 1327q0 -59 -43 -102q-41 -41 -100 -41q-60 0 -101 41t-41 102q0 59 41 100t101 41q59 0 100 -41q43 -43 43 -100zM973 1327q0 -58 -41 -102q-44 -41 -103 -41q-56 0 -100 41q-41 44 -41 102q0 56 41 100q41 41 100 41t103 -41q41 -44 41 -100zM1157 514
q3 -144 -70 -268.5t-198 -195.5t-268 -68q-143 0 -269 69q-118 63 -196 191q-74 124 -74 268q0 146 74 270q78 128 196 191q122 67 271 67q144 0 266 -67q121 -66 196 -189q72 -126 72 -268zM317 596h605q-21 103 -105 172q-82 70 -196 70q-119 0 -201 -70
q-86 -70 -103 -172zM922 428h-603q18 -103 105 -172q84 -72 199 -72q114 0 196 70q85 70 103 174z" />
    <glyph glyph-name="uni04EC" unicode="&#x4ec;" horiz-adv-x="1615" 
d="M561 1618q-57 0 -100 43q-41 44 -41 100q0 59 41 103q41 41 100 41t103 -41q41 -44 41 -103q0 -56 -41 -100q-43 -43 -103 -43zM1004 1618q-61 0 -101 43q-43 43 -43 100q0 59 41 103q44 41 103 41q58 0 102 -41q41 -44 41 -103q0 -57 -43 -100t-100 -43zM770 -18
q-119 0 -230 33t-190 87q-71 49 -137 121q-110 124 -143 252l227 80q23 -83 92 -172q38 -46 92 -90q53 -41 131 -66.5t164 -25.5q186 0 326 125q144 128 170 329h-658v209h656q-24 129 -99 230q-73 99 -178 151q-99 51 -219 51q-92 0 -172.5 -26t-132.5 -68q-50 -41 -88 -90
q-58 -81 -80 -162l-227 76q23 98 99.5 201t191.5 176q178 113 411 113q153 0 290.5 -56t240.5 -157q99 -99 157 -242q60 -148 60 -309q0 -173 -64 -326q-64 -148 -170 -244t-241 -148t-279 -52z" />
    <glyph glyph-name="uni04ED" unicode="&#x4ed;" horiz-adv-x="1163" 
d="M332 1184q-60 0 -101 41q-41 44 -41 102q0 56 41 100q41 41 101 41q59 0 100 -41q43 -43 43 -100q0 -59 -43 -102q-41 -41 -100 -41zM756 1184q-60 0 -101 41q-43 43 -43 102q0 56 41 100q41 41 103 41q59 0 100 -41q41 -44 41 -100q0 -58 -41 -102q-44 -41 -100 -41z
M444 614h394q-27 101 -105 164q-78 60 -180 60q-115 0 -184 -60q-75 -59 -95 -131l-200 66q35 135 170 229q131 96 315 96q155 0 270 -69q122 -72 185 -189q63 -114 63 -262q0 -235 -147 -385q-151 -151 -381 -151q-92 0 -176.5 29.5t-147.5 78.5q-118 96 -155 223l202 66
q23 -66 84 -125q70 -70 195 -70q109 0 190 72q83 71 101 182h-398v176z" />
    <glyph glyph-name="uni04EE" unicode="&#x4ee;" horiz-adv-x="1349" 
d="M1020 1696h-662v180h662v-180zM1364 1493l-533 -1079q-72 -148 -112 -205q-108 -153 -268 -193q-69 -16 -144 -16h-174v227h154q100 0 177.5 53.5t123.5 151.5l-580 1061h260l447 -831l397 831h252z" />
    <glyph glyph-name="uni04EF" unicode="&#x4ef;" horiz-adv-x="1167" 
d="M922 1210h-662v183h662v-183zM483 115l-452 903h258l317 -668l293 668h246l-699 -1520h-241z" />
    <glyph glyph-name="uni04F0" unicode="&#x4f0;" horiz-adv-x="1349" 
d="M473 1618q-58 0 -98 43q-43 43 -43 100q0 59 41 103q41 41 100 41q58 0 102 -41q41 -41 41 -103q0 -59 -41 -100q-43 -43 -102 -43zM915 1618q-60 0 -100 43q-41 44 -41 100q0 59 41 103q41 41 100 41t103 -41q41 -44 41 -103q0 -57 -43 -100q-40 -43 -101 -43z
M1364 1493l-533 -1079q-72 -148 -112 -205q-108 -153 -268 -193q-69 -16 -144 -16h-174v227h154q100 0 177.5 53.5t123.5 151.5l-580 1061h260l447 -831l397 831h252z" />
    <glyph glyph-name="uni04F1" unicode="&#x4f1;" horiz-adv-x="1167" 
d="M381 1184q-59 0 -100 41q-41 44 -41 102q0 56 41 100q41 41 100 41t100 -41q43 -43 43 -100q0 -59 -43 -102q-41 -41 -100 -41zM805 1184q-59 0 -100 41q-43 43 -43 102q0 57 40 100q41 41 103 41q59 0 100 -41q41 -44 41 -100q0 -58 -41 -102q-44 -41 -100 -41zM483 115
l-452 903h258l317 -668l293 668h246l-699 -1520h-241z" />
    <glyph glyph-name="uni04F2" unicode="&#x4f2;" horiz-adv-x="1349" 
d="M594 1956h266l-266 -328h-186zM969 1956h268l-266 -328h-189zM1364 1493l-533 -1079q-72 -148 -112 -205q-108 -153 -268 -193q-69 -16 -144 -16h-174v227h154q100 0 177.5 53.5t123.5 151.5l-580 1061h260l447 -831l397 831h252z" />
    <glyph glyph-name="uni04F3" unicode="&#x4f3;" horiz-adv-x="1167" 
d="M498 1520h268l-268 -328h-187zM872 1520h269l-267 -328h-188zM483 115l-452 903h258l317 -668l293 668h246l-699 -1520h-241z" />
    <glyph glyph-name="uni04F4" unicode="&#x4f4;" horiz-adv-x="1449" 
d="M461 1618q-59 0 -99 43q-43 43 -43 100q0 59 41 103q44 41 101 41q58 0 102 -41q41 -41 41 -103q0 -59 -41 -100q-43 -43 -102 -43zM903 1618q-60 0 -100 43q-41 44 -41 100q0 59 41 103q41 41 100 41t103 -41q41 -44 41 -103q0 -57 -43 -100q-40 -43 -101 -43zM1026 0
v610q-249 -129 -430 -129q-236 0 -363 127t-127 353v532h234v-467q0 -161 72.5 -241t232.5 -80q108 0 207 38q105 37 174 86v664h234v-1493h-234z" />
    <glyph glyph-name="uni04F5" unicode="&#x4f5;" horiz-adv-x="1126" 
d="M317 1184q-57 0 -98 41q-43 43 -43 102q0 56 41 100q44 41 100 41q59 0 103 -41q41 -41 41 -100q0 -61 -41 -102q-44 -41 -103 -41zM741 1184q-59 0 -100 41q-41 44 -41 102q0 56 41 100q41 41 100 41t103 -41q41 -44 41 -100q0 -59 -43 -102q-41 -41 -101 -41zM745 0
v369q-162 -78 -292 -78q-165 0 -265 84q-100 81 -100 250v393h229v-356q0 -78 47 -123t125 -45q131 0 256 73v451h228v-1018h-228z" />
    <glyph glyph-name="uni04F8" unicode="&#x4f8;" horiz-adv-x="1921" 
d="M739 1618q-60 0 -100 43q-41 44 -41 100q0 59 41 103q41 41 100 41q60 0 101 -41q43 -43 43 -103q0 -57 -43 -100q-40 -43 -101 -43zM1182 1618q-61 0 -101 43q-43 43 -43 100q0 59 41 103q41 41 103 41q59 0 100 -41t41 -103q0 -59 -41 -100q-43 -43 -100 -43zM1276 637
q31 -79 31 -172q0 -87 -33 -178q-35 -84 -96 -148q-66 -66 -171.5 -102.5t-236.5 -36.5h-580v1493h234v-582h348q169 0 301 -63q147 -72 203 -211zM1731 1493v-1493h-246v1493h246zM1073 467q0 48 -16.5 89t-51.5 74.5t-97 52.5t-146 19h-338v-489h340q176 0 248 82
q61 72 61 172z" />
    <glyph glyph-name="uni04F9" unicode="&#x4f9;" horiz-adv-x="1650" 
d="M612 1184q-56 0 -100 41q-41 44 -41 102q0 56 41 100q41 41 100 41t103 -41q41 -44 41 -100q0 -58 -41 -102q-44 -41 -103 -41zM1036 1184q-59 0 -100 41q-43 43 -43 102q0 56 41 100q44 41 102 41q60 0 101 -41t41 -100q0 -61 -41 -102q-44 -41 -101 -41zM1063 350
q0 -155 -105 -254q-104 -96 -294 -96h-512v1018h227v-336h266q255 0 361 -143q57 -75 57 -189zM834 352q0 74 -55.5 114t-149.5 40h-250v-316h254q95 0 148 40.5t53 121.5zM1499 1018v-1018h-227v1018h227z" />
    <glyph glyph-name="uni0E3F" unicode="&#xe3f;" horiz-adv-x="1400" 
d="M190 0v1493h435v207h153v-207q209 -3 338 -111q125 -104 125 -280q0 -74 -41 -160q-23 -49 -69 -93t-107 -71q79 -25 138 -69t91 -97q56 -98 56 -194q0 -186 -135 -303q-136 -115 -396 -115v-195h-153v195h-435zM420 1282v-422h207v422h-207zM776 1280v-416
q114 12 174 69t60 144q0 86 -59.5 141t-174.5 62zM422 655v-446h205v446h-205zM776 209h6q140 0 216.5 61t76.5 164q0 102 -76 161.5t-223 59.5v-446z" />
    <glyph glyph-name="uni1E20" unicode="&#x1e20;" horiz-adv-x="1628" 
d="M1182 1696h-662v180h662v-180zM1518 1061l-230 -72q-29 109 -131 201q-54 49 -134 77.5t-171 28.5q-222 0 -367 -157q-149 -155 -149 -391q0 -153 65 -277q65 -127 183 -199q119 -73 266 -73q186 0 303 94q117 97 141 242h-536v213h788v-82q0 -140 -48 -264.5
t-136 -217.5q-87 -95 -219.5 -147.5t-290.5 -52.5q-221 0 -395 98q-176 102 -269 272q-96 170 -96 389q0 162 60 310q60 144 159 243q102 102 242 160q145 60 301 60q131 0 245.5 -37.5t197 -101t139 -144.5t82.5 -172z" />
    <glyph glyph-name="uni1E21" unicode="&#x1e21;" horiz-adv-x="1290" 
d="M942 1210h-663v183h663v-183zM578 -8q-104 0 -198.5 42.5t-158.5 115.5q-65 73 -102 167.5t-37 194.5q0 95 35 186.5t98 167.5q63 77 160.5 122.5t208.5 45.5q87 0 180 -41q102 -48 154 -131v156h221v-1012q0 -155 -74 -276q-78 -124 -197 -179q-122 -61 -280 -61
q-250 0 -402 152q-79 79 -100 192l213 62q18 -83 98 -142q79 -61 183 -61q65 0 123 18t105.5 53.5t75 95t27.5 136.5v168q-37 -61 -104 -103q-67 -40 -125 -55q-65 -14 -104 -14zM915 516q0 135 -84 225q-81 90 -219 90q-137 0 -221 -90t-84 -225t86 -227q85 -94 219 -94
t219 94q84 93 84 227z" />
    <glyph glyph-name="uni1E30" unicode="&#x1e30;" horiz-adv-x="1355" 
d="M795 1956h278l-276 -328h-197zM1022 1493h309l-667 -715l706 -778h-317l-629 705v-705h-234v1493h234v-645z" />
    <glyph glyph-name="uni1E31" unicode="&#x1e31;" horiz-adv-x="1107" 
d="M381 498v-498h-229v1552h229v-936h2l395 402h307l-458 -461l485 -557h-301l-424 498h-6zM750 1520h276l-276 -328h-197z" />
    <glyph glyph-name="uni1E60" unicode="&#x1e60;" horiz-adv-x="1243" 
d="M727 1663q-48 -45 -106 -45q-62 0 -107 45q-43 43 -43 106q0 61 43 107q43 43 107 43q63 0 106 -43q43 -46 43 -107q0 -63 -43 -106zM635 -16q-151 0 -266.5 51.5t-184.5 138.5q-90 109 -106 246l229 61q27 -132 113 -209t219 -77q113 0 190 59q78 60 78 149
q0 87 -58 142t-161 78l-184 36q-181 38 -279 148q-100 112 -100 258q-2 119 66 224t183 167t244 60q144 -1 248.5 -47t165.5 -123q75 -90 94 -199l-219 -68q-22 88 -96 156q-77 68 -186 68t-185 -64q-73 -64 -73 -152q0 -67 51 -124q50 -56 137 -74l188 -37
q197 -40 302.5 -152t105.5 -280q0 -169 -133 -299q-66 -63 -166 -100t-217 -37z" />
    <glyph glyph-name="uni1E61" unicode="&#x1e61;" horiz-adv-x="944" 
d="M573 1229q-42 -45 -106 -45q-63 0 -105 45q-45 45 -45 104q0 63 43 109q43 43 107 43q63 0 106 -43q45 -45 45 -109q0 -62 -45 -104zM483 -18q-94 0 -172.5 29t-126.5 77q-92 95 -104 191l196 51q16 -73 69.5 -117.5t135.5 -44.5q68 0 106 32t38 87q0 84 -121 112
l-129 31q-132 30 -201.5 107.5t-69.5 183.5q0 130 105 225q105 94 256 94q215 -3 313 -135q52 -69 62 -137l-191 -53q-15 63 -61 102t-123 39q-56 0 -98 -33q-41 -28 -41 -82q0 -42 27.5 -69.5t74.5 -36.5l139 -29q137 -31 213 -112q76 -85 76 -195q0 -60 -23 -115.5
t-67.5 -101t-117.5 -73t-165 -27.5z" />
    <glyph glyph-name="Wgrave" unicode="&#x1e80;" horiz-adv-x="2238" 
d="M1022 1956l195 -328h-197l-277 328h279zM45 1493h250l336 -1161l358 1161h260l363 -1161l342 1161h244l-457 -1493h-266l-357 1167h-2l-358 -1167h-264z" />
    <glyph glyph-name="wgrave" unicode="&#x1e81;" horiz-adv-x="1677" 
d="M942 1192h-194l-277 328h277zM1186 297h2l215 721h233l-327 -1018h-234l-235 715h-4l-238 -715h-231l-326 1018h235l216 -719h2l231 719h227z" />
    <glyph glyph-name="Wacute" unicode="&#x1e82;" horiz-adv-x="2238" 
d="M1212 1956h277l-277 -328h-196zM45 1493h250l336 -1161l358 1161h260l363 -1161l342 1161h244l-457 -1493h-266l-357 1167h-2l-358 -1167h-264z" />
    <glyph glyph-name="wacute" unicode="&#x1e83;" horiz-adv-x="1677" 
d="M934 1520h276l-276 -328h-197zM1186 297h2l215 721h233l-327 -1018h-234l-235 715h-4l-238 -715h-231l-326 1018h235l216 -719h2l231 719h227z" />
    <glyph glyph-name="Wdieresis" unicode="&#x1e84;" horiz-adv-x="2238" 
d="M909 1618q-60 0 -100 43q-41 41 -41 100q0 62 41 103t100 41q60 0 101 -41q43 -43 43 -103q0 -57 -43 -100q-40 -43 -101 -43zM1331 1618q-57 0 -100 43q-41 44 -41 100q0 59 41 103q41 41 100 41t103 -41q41 -44 41 -103q0 -56 -41 -100q-43 -43 -103 -43zM45 1493h250
l336 -1161l358 1161h260l363 -1161l342 1161h244l-457 -1493h-266l-357 1167h-2l-358 -1167h-264z" />
    <glyph glyph-name="wdieresis" unicode="&#x1e85;" horiz-adv-x="1677" 
d="M627 1184q-60 0 -101 41q-41 44 -41 102q0 56 41 100q41 41 101 41q59 0 100 -41q43 -43 43 -100q0 -59 -43 -102q-41 -41 -100 -41zM1051 1184q-60 0 -101 41q-43 43 -43 102q0 56 41 100q41 41 103 41q59 0 100 -41q41 -44 41 -100q0 -58 -41 -102q-44 -41 -100 -41z
M1186 297h2l215 721h233l-327 -1018h-234l-235 715h-4l-238 -715h-231l-326 1018h235l216 -719h2l231 719h227z" />
    <glyph glyph-name="uni1E90" unicode="&#x1e90;" horiz-adv-x="1269" 
d="M500 1628h-226l265 328h178l272 -328h-217l-139 176zM1174 1292l-816 -1081h832v-211h-1118v203l817 1079h-787v211h1072v-201z" />
    <glyph glyph-name="uni1E91" unicode="&#x1e91;" horiz-adv-x="1007" 
d="M369 1190h-226l265 330h178l274 -330h-217l-141 176zM920 838l-562 -641h564v-197h-840v188l553 631h-539v199h824v-180z" />
    <glyph glyph-name="uni1EBC" unicode="&#x1ebc;" horiz-adv-x="1263" 
d="M1014 1929v-20q0 -254 -197 -254q-42 -2 -94 22t-99 48.5t-75 23.5q-58 0 -64 -92h-157v22q0 254 200 254q48 1 146 -46.5t127 -45.5q60 0 69 88h144zM190 1493h957v-213h-723v-414h657v-213h-657v-440h729v-213h-963v1493z" />
    <glyph glyph-name="uni1EBD" unicode="&#x1ebd;" horiz-adv-x="1173" 
d="M932 1483v-21q0 -254 -197 -254q-52 -2 -144 46t-124 46q-58 0 -64 -90h-157v21q0 254 200 254q48 2 146 -45t127 -45q60 0 69 88h144zM1090 442h-775q3 -111 94.5 -189.5t204.5 -76.5q101 0 171.5 43t99.5 129l190 -59q-27 -92 -97.5 -164.5t-164.5 -108.5
q-93 -34 -197 -34q-108 -2 -207.5 39t-171 112t-113.5 170t-40 207q0 141 66 264q69 125 184 193q118 71 262 71q235 0 365 -145q133 -145 133 -381q0 -30 -4 -70zM598 844q-107 0 -180 -64q-75 -63 -90 -166h534q-6 103 -80 168q-77 62 -184 62z" />
    <glyph glyph-name="Ygrave" unicode="&#x1ef2;" horiz-adv-x="1431" 
d="M641 1956l197 -328h-197l-276 328h276zM598 0v596l-561 897h270l410 -670l411 670h269l-563 -891v-602h-236z" />
    <glyph glyph-name="ygrave" unicode="&#x1ef3;" horiz-adv-x="1167" 
d="M721 1192h-197l-276 328h276zM483 115l-452 903h258l317 -668l293 668h246l-699 -1520h-241z" />
    <glyph glyph-name="uni2000" unicode="&#x2000;" horiz-adv-x="1077" 
 />
    <glyph glyph-name="uni2001" unicode="&#x2001;" horiz-adv-x="2156" 
 />
    <glyph glyph-name="uni2002" unicode="&#x2002;" horiz-adv-x="1077" 
 />
    <glyph glyph-name="uni2003" unicode="&#x2003;" horiz-adv-x="2156" 
 />
    <glyph glyph-name="uni2004" unicode="&#x2004;" horiz-adv-x="718" 
 />
    <glyph glyph-name="uni2005" unicode="&#x2005;" horiz-adv-x="538" 
 />
    <glyph glyph-name="uni2006" unicode="&#x2006;" horiz-adv-x="358" 
 />
    <glyph glyph-name="uni2007" unicode="&#x2007;" horiz-adv-x="358" 
 />
    <glyph glyph-name="uni2008" unicode="&#x2008;" horiz-adv-x="268" 
 />
    <glyph glyph-name="uni2009" unicode="&#x2009;" horiz-adv-x="430" 
 />
    <glyph glyph-name="uni200A" unicode="&#x200a;" horiz-adv-x="118" 
 />
    <glyph glyph-name="uni2010" unicode="&#x2010;" horiz-adv-x="884" 
d="M752 735v-231h-619v231h619z" />
    <glyph glyph-name="uni2011" unicode="&#x2011;" horiz-adv-x="884" 
d="M752 735v-231h-619v231h619z" />
    <glyph glyph-name="figuredash" unicode="&#x2012;" horiz-adv-x="884" 
d="M752 735v-231h-619v231h619z" />
    <glyph glyph-name="endash" unicode="&#x2013;" horiz-adv-x="1153" 
d="M1014 727v-217h-875v217h875z" />
    <glyph glyph-name="emdash" unicode="&#x2014;" horiz-adv-x="1941" 
d="M1802 727v-217h-1663v217h1663z" />
    <glyph glyph-name="quoteleft" unicode="&#x2018;" horiz-adv-x="546" 
d="M414 1507v-106q-76 -15 -125 -76q-51 -60 -51 -137q20 14 57 14q61 0 102 -41q39 -42 39 -104q0 -68 -45 -107q-46 -43 -112 -43q-87 0 -132 60q-47 59 -47 145q0 147 84 260q85 114 230 135z" />
    <glyph glyph-name="quoteright" unicode="&#x2019;" horiz-adv-x="548" 
d="M143 903v107q77 15 125 75t51 138q-21 -15 -57 -15q-61 0 -102 41q-39 42 -39 105q0 66 45 108q47 41 113 41q86 0 131 -59q47 -59 47 -144q0 -149 -84 -262q-82 -113 -230 -135z" />
    <glyph glyph-name="quotesinglbase" unicode="&#x201a;" horiz-adv-x="571" 
d="M141 -311v106q76 15 125 76q48 57 51 137q-25 -14 -57 -14q-62 0 -102 43q-41 41 -41 102q0 65 47 109q44 41 112 41q87 0 132 -60q47 -59 47 -145q3 -147 -83.5 -260.5t-230.5 -134.5z" />
    <glyph glyph-name="quotedblleft" unicode="&#x201c;" horiz-adv-x="974" 
d="M414 1507v-106q-76 -15 -125 -76q-51 -60 -51 -137q20 14 57 14q63 0 102 -41t39 -106t-45 -107q-47 -41 -112 -41q-87 0 -132 60q-47 59 -47 145q0 147 84 260q85 114 230 135zM842 1507v-106q-76 -15 -125 -76q-48 -60 -51 -137q20 14 57 14q63 0 103 -41t40 -106
q0 -63 -47 -107q-47 -41 -112 -41q-87 0 -132 60q-45 57 -45 145q0 151 84 260q82 114 228 135z" />
    <glyph glyph-name="quotedblright" unicode="&#x201d;" horiz-adv-x="978" 
d="M143 903v107q77 15 125 75t51 138q-21 -15 -57 -15q-61 0 -102 41q-39 42 -39 105q0 66 45 108q47 41 113 41q86 0 131 -59q47 -59 47 -144q0 -149 -84 -262q-82 -113 -230 -135zM573 903v107q78 16 123 75q52 65 52 138q-21 -15 -56 -15q-64 0 -103.5 41t-39.5 105
q0 66 45 108q47 41 113 41q86 0 133 -59q45 -57 45 -144q0 -153 -84 -262q-82 -114 -228 -135z" />
    <glyph glyph-name="quotedblbase" unicode="&#x201e;" horiz-adv-x="993" 
d="M139 -309v106q76 15 125 76q48 57 51 137q-20 -14 -57 -14q-62 0 -102 43q-41 41 -41 102q0 65 47 109q47 41 112 41q87 0 132 -60q47 -59 47 -145q3 -147 -83.5 -260.5t-230.5 -134.5zM565 -309v106q76 16 125 76q49 58 49 137q-17 -14 -55 -14q-62 0 -102 43
q-41 38 -41 102q0 65 47 109q47 41 112 41q83 0 131 -60t48 -145q1 -95 -36.5 -179.5t-110 -143t-167.5 -72.5z" />
    <glyph glyph-name="dagger" unicode="&#x2020;" horiz-adv-x="1198" 
d="M481 0v805h-366v213h366v393h234v-393h368v-213h-368v-805h-234z" />
    <glyph glyph-name="daggerdbl" unicode="&#x2021;" horiz-adv-x="1198" 
d="M715 0v-393h-234v393h-366v213h366v592h-366v213h366v393h234v-393h368v-213h-368v-592h368v-213h-368z" />
    <glyph glyph-name="bullet" unicode="&#x2022;" horiz-adv-x="937" 
d="M469 362q-139 0 -233 99q-99 95 -99 235q0 137 99 236q93 100 233 100q136 0 233 -100q97 -97 97 -236q0 -142 -97 -235q-94 -99 -233 -99z" />
    <glyph glyph-name="ellipsis" unicode="&#x2026;" horiz-adv-x="1716" 
d="M113 156q0 71 49 120q53 50 117 50q65 0 118 -50q47 -47 47 -120q0 -71 -47 -115q-49 -49 -118 -49q-68 0 -117 49q-49 46 -49 115zM690 156q0 71 49 120q53 50 119 50q64 0 117 -50q49 -49 49 -120q0 -69 -49 -115q-49 -49 -117 -49q-70 0 -119 49q-49 46 -49 115z
M1270 156q0 71 49 120q53 50 117 50q67 0 120 -50q48 -51 48 -120q0 -67 -48 -115q-49 -49 -120 -49q-68 0 -117 49q-49 46 -49 115z" />
    <glyph glyph-name="uni202F" unicode="&#x202f;" horiz-adv-x="430" 
 />
    <glyph glyph-name="perthousand" unicode="&#x2030;" horiz-adv-x="2435" 
d="M645 1409q98 -98 98 -238q0 -138 -98 -239q-98 -98 -237 -98t-240 98q-98 101 -98 239q0 140 98 238q101 98 240 98t237 -98zM236 0l972 1493h224l-971 -1493h-225zM510 1069q43 43 43 102q0 60 -43 103t-102 43q-63 0 -103 -43q-43 -43 -43 -103q0 -59 43 -102
q40 -43 103 -43q59 0 102 43zM1499 565q98 -98 98 -237q0 -142 -98 -240t-239 -98q-140 0 -238 98t-98 240q0 139 98 237q99 99 238 99q140 0 239 -99zM1362 225q43 37 43 103q0 62 -43 102q-41 41 -102 41q-59 0 -103 -41q-41 -41 -41 -102q0 -65 41 -103q43 -43 103 -43
q62 0 102 43zM2267 565q98 -98 98 -237q0 -142 -98 -240t-239 -98q-140 0 -238 98t-98 240q0 139 98 237q99 99 238 99q140 0 239 -99zM2132 225q41 38 41 103q0 61 -41 102t-104 41q-62 0 -103 -41t-41 -102q0 -65 41 -103q40 -43 103 -43q64 0 104 43z" />
    <glyph glyph-name="guilsinglleft" unicode="&#x2039;" horiz-adv-x="733" 
d="M627 866l-299 -293l299 -290l-133 -129l-426 419l428 422z" />
    <glyph glyph-name="guilsinglright" unicode="&#x203a;" horiz-adv-x="733" 
d="M406 573l-297 293l131 129l426 -422l-426 -419l-134 129z" />
    <glyph glyph-name="uni203D" unicode="&#x203d;" horiz-adv-x="1093" 
d="M301 999l-225 9q-4 31 -4 79q0 132 67 226q64 96 176 151q113 52 232 52q112 0 221 -50q106 -46 178 -139q72 -97 72 -211q0 -113 -50 -198t-151 -158q-83 -58 -129 -113q-65 -77 -65 -186h-207l-19 635h234q-3 -63 -6 -222q81 62 120 117t39 119q0 89 -71 145
q-74 56 -166 56q-107 0 -178 -74q-72 -75 -72 -182q0 -16 4 -56zM414 31q-45 45 -45 104q0 62 45 107t104 45t107 -45q43 -43 43 -107q0 -61 -43 -104t-107 -43q-61 0 -104 43z" />
    <glyph glyph-name="uni2042" unicode="&#x2042;" horiz-adv-x="1744" 
d="M1028 786l-158 213l-153 -211l-121 86l152 211l-246 82l47 142l246 -82v266h153v-266l248 82l47 -142l-246 -82l150 -211zM590 -33l-156 211l-155 -211l-119 88l149 209l-246 82l48 141l245 -79v264h156v-264l246 79l49 -141l-248 -82l152 -209zM1464 -33l-155 211
l-154 -211l-121 88l152 209l-248 82l47 141l246 -79v264h155v-264l246 79l49 -141l-247 -82l151 -209z" />
    <glyph glyph-name="fraction" unicode="&#x2044;" horiz-adv-x="1216" 
d="M12 0l973 1495h223l-970 -1495h-226z" />
    <glyph glyph-name="uni2051" unicode="&#x2051;" horiz-adv-x="942" 
d="M627 786l-156 213l-154 -211l-120 86l151 211l-248 82l47 142l246 -82v266h156v-266l246 82l47 -142l-246 -82l152 -211zM627 -33l-156 211l-154 -211l-120 88l151 209l-248 82l47 141l246 -79v264h156v-264l246 79l47 -141l-246 -82l152 -209z" />
    <glyph glyph-name="uni205F" unicode="&#x205f;" horiz-adv-x="538" 
 />
    <glyph glyph-name="lira" unicode="&#x20a4;" horiz-adv-x="1312" 
d="M1014 422l225 -21q0 -176 -106 -288q-107 -113 -279 -113h-735v203q90 43 160 125q63 71 79 174h-229v155h215q-19 74 -51 152h-164v156h111q-15 61 -15 118q0 125 64 224.5t170 152.5t231 53q193 3 325.5 -109.5t131.5 -287.5l-227 -39q0 91 -64 158q-63 63 -164 63
q-97 0 -160 -63q-65 -62 -65 -158q0 -46 16 -112h461v-156h-403q34 -84 51 -152h352v-155h-346q-21 -167 -178 -291h393q94 0 150 65q51 60 51 146z" />
    <glyph glyph-name="uni20A9" unicode="&#x20a9;" horiz-adv-x="2306" 
d="M2210 819v-139h-230l-206 -680h-267l-209 684h-299l-211 -684h-262l-204 680h-226v139h183l-203 674h252l194 -678h289l211 678h260l211 -678h293l199 678h243l-205 -674h187zM1151 1167h-2l-109 -352h217zM561 684l103 -352l108 352h-211zM1747 684h-213l108 -352z" />
    <glyph glyph-name="dong" unicode="&#x20ab;" horiz-adv-x="1361" 
d="M1141 1198v-1198h-221v160q-38 -62 -107 -105q-65 -39 -127 -55q-66 -16 -108 -16q-140 0 -259 75q-112 72 -178 195q-63 123 -63 256q0 98 35 191t98 169q67 77 164 122.5t209 45.5q82 0 180 -43q100 -41 149 -123v326h-299v166h299v188h228v-188h125v-166h-125z
M393 283q87 -93 219 -93q135 0 222 93q84 93 84 227q0 136 -84 229q-86 92 -222 92q-135 0 -221 -92q-84 -96 -84 -229q0 -135 86 -227zM1141 -166v-203h-1026v203h1026z" />
    <glyph glyph-name="Euro" unicode="&#x20ac;" horiz-adv-x="1759" 
d="M971 -18q-160 0 -304 61.5t-255 181.5q-111 123 -160 285h-170v164h141q-4 46 -4 67q0 37 6 84h-143v164h176q72 233 275.5 381.5t445.5 145.5q118 0 226 -31t186 -82q76 -52 135 -117q111 -122 143 -260l-229 -80q-17 80 -76 162q-38 52 -84 90q-50 42 -131 69t-172 27
q-148 0 -281 -86q-127 -82 -184 -219h608l-53 -164h-596q-4 -54 -4 -75q0 -22 4 -76h559l-53 -164h-463q60 -146 186 -223q124 -84 275 -84q168 0 291 92q50 41 88 90q62 83 90 172l229 -80q-54 -188 -205 -315q-134 -114 -297 -156q-99 -24 -200 -24z" />
    <glyph glyph-name="uni20AE" unicode="&#x20ae;" horiz-adv-x="1345" 
d="M797 932l391 137v-174l-391 -137v-160l391 139v-174l-391 -139v-424h-234v340l-391 -139v174l391 139v160l-391 -139v174l391 139v428h-475v217h1184v-217h-475v-344z" />
    <glyph glyph-name="uni20B1" unicode="&#x20b1;" horiz-adv-x="1507" 
d="M1442 944h-144q-30 -171 -172 -280q-138 -111 -370 -111h-269v-553h-233v944h-156v156h156v393h528q244 0 375 -121q122 -110 143 -272h142v-156zM487 1096h574q-21 84 -94.5 132t-200.5 48h-279v-180zM487 768h279q120 0 194.5 49t98.5 131h-572v-180z" />
    <glyph glyph-name="uni20B4" unicode="&#x20b4;" horiz-adv-x="1431" 
d="M100 993h854q25 48 25 105q0 91 -78 151q-76 58 -203 58q-70 0 -141 -35q-75 -35 -127 -105l-180 127q75 108 196 162q120 57 261 57q224 0 366 -118q141 -120 141 -310q0 -40 -10 -92h123v-166h-1227v166zM1327 530h-858q-45 -51 -45 -124q0 -96 78 -156q77 -57 217 -57
q224 0 352 165l182 -127q-180 -247 -546 -247q-128 0 -230.5 34.5t-165.5 94.5q-127 121 -127 288q0 67 19 129h-103v166h1227v-166z" />
    <glyph glyph-name="uni20B8" unicode="&#x20b8;" horiz-adv-x="1359" 
d="M1272 1278h-1184v215h1184v-215zM563 0v913h-475v215h1184v-215h-475v-913h-234z" />
    <glyph glyph-name="uni20B9" unicode="&#x20b9;" horiz-adv-x="1208" 
d="M1122 1300h-338q100 -65 134 -182h204v-180h-200q-24 -116 -97 -199.5t-192 -124.5l323 -614h-260l-286 567l-297 2v209h290q221 0 277 160h-567v180h567q-47 158 -277 158h-290v217h1009v-193z" />
    <glyph glyph-name="uni20BA" unicode="&#x20ba;" horiz-adv-x="1400" 
d="M1106 649l225 -24q-21 -288 -232 -456.5t-587 -168.5h-184v522l-211 -102v184l211 101v163l-211 -100v182l211 101v442h233v-332l463 221v-182l-463 -221v-164l463 221v-182l-463 -221v-422q273 6 402 135q119 119 143 303z" />
    <glyph glyph-name="uni20BD" unicode="&#x20bd;" horiz-adv-x="1402" 
d="M535 403h407v-176h-407v-227h-236v227h-182v176h182v150h-182v215h182v725h510q162 0 274 -53.5t172 -147.5q76 -113 76 -264q0 -197 -137 -334q-68 -67 -175.5 -104t-236.5 -37h-247v-150zM535 768h253q80 0 143 22.5t97 61.5q66 75 66 172q0 47 -14 88t-46 79.5
t-95 61.5t-151 23h-253v-508z" />
    <glyph glyph-name="uni2113" unicode="&#x2113;" horiz-adv-x="872" 
d="M422 492v-130q0 -94 44.5 -146t131.5 -52q104 0 178 41v-180q-70 -43 -201 -43q-164 0 -258 88q-94 91 -94 247v89q-102 -36 -151 -48v185q90 24 151 55v487q0 148 78 244q81 96 221 96q144 0 221 -86q76 -92 76 -237q0 -178 -114 -342q-116 -161 -283 -268zM524 1249
q-37 0 -61.5 -24t-32.5 -60q-8 -31 -8 -71v-379q201 151 201 393q0 141 -99 141z" />
    <glyph glyph-name="uni2116" unicode="&#x2116;" horiz-adv-x="2510" 
d="M1450 0h-262l-766 1143v-1143h-232v1493h271l758 -1137v1137h231v-1493zM2040 559q-154 0 -264 107q-109 103 -109 260q0 159 109 262q107 104 264 104q154 0 264 -104q109 -109 109 -262q0 -154 -109 -260q-107 -107 -264 -107zM2157 1044q-47 50 -117 50t-117 -50
q-47 -47 -47 -118q0 -70 47 -117q46 -49 117 -49t117 49q45 45 45 117q0 73 -45 118zM1694 393h698v-198h-698v198z" />
    <glyph glyph-name="trademark" unicode="&#x2122;" horiz-adv-x="2029" 
d="M510 633h-184v694h-252v166h686v-166h-250v-694zM1683 1311l-233 -678h-123l-237 665h-11v-665h-172v860h271l211 -592l202 592h281v-860h-178v678h-11z" />
    <glyph glyph-name="estimated" unicode="&#x212e;" horiz-adv-x="1652" 
d="M840 -23q-168 0 -309 60t-236 168q-93 107 -144 249.5t-51 303.5q0 156 53.5 295t151.5 241q91 98 234 162q145 60 301 60q217 0 385 -101q173 -104 262 -272q92 -173 92 -381v-17h-1153v-483q73 -76 188 -123q110 -45 226 -45q193 0 334 82.5t217 235.5l100 -56
q-79 -175 -250 -276q-174 -103 -401 -103zM1257 862v377q-75 78 -190 121q-115 41 -229 41q-241 0 -412 -160v-379h831z" />
    <glyph glyph-name="uni2153" unicode="&#x2153;" horiz-adv-x="1925" 
d="M295 0l973 1495h223l-971 -1495h-225zM346 1292l-199 -116l-86 143l289 174h193v-868h-197v667zM1815 268q0 -83 -48 -153q-50 -68 -122 -105q-70 -33 -158 -33q-130 0 -223 78q-97 75 -103 201l185 31q3 -62 40 -99q39 -36 99 -36q59 0 98 33t39 87q0 52 -41 82
q-42 31 -90 31q-31 0 -61 -10l-84 131l231 192h-393v168h620v-159l-211 -179h4q98 -12 156 -88q62 -74 62 -172z" />
    <glyph glyph-name="uni2154" unicode="&#x2154;" horiz-adv-x="2080" 
d="M412 1513q140 0 229 -83q86 -83 86 -201q0 -78 -48 -151.5t-130 -123.5l-137 -82q-69 -43 -84 -75h405v-172h-645v53q0 208 217 332l121 69q113 64 113 148q0 49 -35.5 81.5t-95.5 32.5q-59 0 -97 -38q-37 -40 -37 -99l-182 29q6 116 92 199q90 81 228 81zM461 0
l973 1495h223l-971 -1495h-225zM1991 268q0 -89 -47 -153q-51 -69 -121 -105q-73 -33 -160 -33q-126 0 -223 78q-97 79 -103 201l187 31q0 -61 41 -99q39 -36 98 -36q58 0 96.5 33t38.5 87q0 53 -39 82q-45 31 -92 31q-31 0 -61 -10l-84 131l231 192h-393v168h622v-159
l-213 -179h5q96 -12 157 -88q60 -75 60 -172z" />
    <glyph glyph-name="oneeighth" unicode="&#x215b;" horiz-adv-x="1857" 
d="M295 0l973 1495h223l-971 -1495h-225zM346 1292l-199 -116l-86 143l289 174h193v-868h-197v667zM1743 635q0 -60 -43 -115q-43 -54 -103 -76q77 -25 121.5 -78t44.5 -126q0 -65 -29 -116.5t-81 -82.5q-103 -59 -230 -59q-63 0 -121 15t-108.5 44.5t-80.5 81t-30 117.5
q0 73 45 125.5t121 78.5q-56 20 -100 76q-43 55 -43 115q0 80 51 137q55 61 121 84q70 27 145 27q172 0 269 -111q51 -57 51 -137zM1556 621q0 46 -40 73q-45 25 -93 25t-90 -25q-43 -27 -43 -73q0 -48 43 -72q49 -27 90 -27q44 0 93 27q40 24 40 72zM1528 174q47 27 47 80
q0 51 -47 78q-47 28 -104 28t-103 -28q-49 -27 -49 -78q0 -53 49 -80q47 -29 103.5 -29t103.5 29z" />
    <glyph glyph-name="threeeighths" unicode="&#x215c;" horiz-adv-x="1894" 
d="M350 0l973 1495h223l-971 -1495h-225zM729 897q0 -132 -98 -211q-98 -82 -230 -82q-127 0 -223 78q-96 74 -102 201l184 30q3 -61 41 -96q39 -39 98 -39t98.5 33.5t39.5 89.5q0 51 -39 80q-42 31 -92 31q-33 0 -62 -11l-84 132l232 192h-394v168h621v-160l-211 -178h4
q92 -12 156 -88q61 -73 61 -170zM1821 240q0 -64 -30 -115.5t-83 -83.5q-103 -59 -229 -59q-62 0 -120 15t-108.5 44.5t-81 81t-30.5 117.5q0 73 45.5 125.5t122.5 78.5q-60 22 -103 76q-43 55 -43 115q0 80 51 137q55 61 121 84q74 27 148 27q168 0 268 -111
q49 -58 49 -137q0 -60 -43 -115t-102 -76q77 -26 122.5 -78.5t45.5 -125.5zM1612 621q0 46 -41 73q-45 25 -92 25q-48 0 -90 -25q-41 -27 -41 -73q0 -48 41 -72q49 -27 92 -27q41 0 90 27q41 24 41 72zM1583 174q47 26 47 80q0 52 -47 78q-47 28 -103.5 28t-103.5 -28
q-47 -26 -47 -78q0 -54 47 -80q50 -29 105 -29t102 29z" />
    <glyph glyph-name="fiveeighths" unicode="&#x215d;" horiz-adv-x="1931" 
d="M362 0l973 1495h224l-969 -1495h-228zM731 913q0 -131 -98 -219q-101 -90 -232 -90q-80 -2 -154.5 32.5t-124 101t-52.5 147.5l184 28q5 -60 45 -98.5t100 -38.5q61 0 103 39q41 41 41 98q0 61 -40.5 98.5t-101.5 37.5q-75 0 -131 -62l-161 57l96 449h495v-168h-360
l-39 -176q65 47 156 47q121 0 198 -80q76 -79 76 -203zM1851 240q0 -64 -29.5 -115.5t-80.5 -83.5q-103 -59 -230 -59q-63 0 -121 15t-108.5 44.5t-80.5 81t-30 117.5q0 73 45 125.5t121 78.5q-56 20 -100 76q-45 57 -45 115q0 80 51 137q59 62 123 84q70 27 145 27
q172 0 269 -111q51 -60 51 -137q0 -60 -43 -115t-102 -76q76 -26 120.5 -78.5t44.5 -125.5zM1645 621q0 46 -43 73q-42 25 -91 25q-48 0 -90 -25q-43 -27 -43 -73q0 -48 43 -72q46 -27 90 -27q45 0 91 27q43 24 43 72zM1616 174q47 27 47 80q0 51 -47 78q-49 28 -105.5 28
t-103.5 -28q-47 -27 -47 -78q0 -53 49 -80q47 -29 102 -29t105 29z" />
    <glyph glyph-name="seveneighths" unicode="&#x215e;" horiz-adv-x="1757" 
d="M195 0l972 1495h224l-971 -1495h-225zM512 1325h-436v168h649v-168l-371 -700h-213zM1661 635q0 -60 -43 -115t-102 -76q77 -25 121 -78t44 -126q0 -65 -29 -116.5t-81 -82.5q-103 -59 -230 -59q-63 0 -121 15t-108.5 44.5t-80.5 81t-30 117.5q0 73 45 125.5t121 78.5
q-56 20 -100 76q-43 55 -43 115q0 80 51 137q55 61 121 84q70 27 145 27q172 0 269 -111q51 -57 51 -137zM1475 621q0 46 -41 73q-45 25 -93 25t-90 -25q-43 -27 -43 -73q0 -48 43 -72q49 -27 90 -27q44 0 93 27q41 24 41 72zM1446 174q47 27 47 80q0 51 -47 78
q-47 28 -104 28t-103 -28q-49 -27 -49 -78q0 -53 49 -80q47 -29 103.5 -29t103.5 29z" />
    <glyph glyph-name="arrowleft" unicode="&#x2190;" horiz-adv-x="1265" 
d="M590 1309l135 -125q-185 -200 -356 -377h831v-223h-831q31 -32 79 -83t131 -139.5t146 -154.5l-135 -125l-553 596v35z" />
    <glyph glyph-name="arrowup" unicode="&#x2191;" horiz-adv-x="1265" 
d="M1247 725l-127 -135q-242 223 -377 354v-831h-223v831q-230 -223 -377 -354l-125 135l596 551h35z" />
    <glyph glyph-name="arrowright" unicode="&#x2192;" horiz-adv-x="1265" 
d="M676 82l-135 125q173 185 354 377h-829v223h829q-124 129 -354 377l135 125l553 -596v-35z" />
    <glyph glyph-name="arrowdown" unicode="&#x2193;" horiz-adv-x="1265" 
d="M18 666l127 135q321 -301 377 -355v830h223v-830q205 195 375 355l127 -135l-598 -553h-33z" />
    <glyph glyph-name="uni2196" unicode="&#x2196;" horiz-adv-x="1265" 
d="M1063 1141l6 -185q-334 -12 -516 -14l586 -588l-158 -157l-586 585q0 -15 -2.5 -90t-6 -188t-7.5 -238l-184 6l30 813l25 25z" />
    <glyph glyph-name="uni2197" unicode="&#x2197;" horiz-adv-x="1265" 
d="M1071 272l-184 -6q-14 395 -17 516l-587 -585l-158 157l588 588q-191 2 -516 14l6 185l811 -31l24 -25z" />
    <glyph glyph-name="uni2198" unicode="&#x2198;" horiz-adv-x="1265" 
d="M201 197l-6 184q284 10 516 14l-586 588l158 158l587 -588q2 143 15 518l184 -6l-31 -813l-24 -25z" />
    <glyph glyph-name="uni2199" unicode="&#x2199;" horiz-adv-x="1265" 
d="M195 1065l184 6q16 -453 16 -518l588 588l158 -158l-588 -588q230 -4 516 -14l-4 -184l-813 30l-25 25z" />
    <glyph glyph-name="uni21A9" unicode="&#x21a9;" horiz-adv-x="2101" 
d="M1382 287h-993q159 -162 356 -375l-135 -127l-553 598v35l553 596l135 -125q-164 -179 -356 -377h985q181 0 295 102q115 106 115 273q0 174 -111 276q-110 98 -303 101h-381v221h393q139 0 258.5 -44.5t202.5 -125.5q82 -80 127 -190.5t45 -237.5t-45 -237.5
t-127 -190.5q-83 -81 -202 -126.5t-259 -45.5z" />
    <glyph glyph-name="uni21B0" unicode="&#x21b0;" horiz-adv-x="1613" 
d="M870 889h-479q156 -161 354 -377l-135 -125l-551 596v35l551 598l135 -127q-236 -254 -354 -375h506q290 0 446 -135t156 -391v-588h-229v563q0 165 -107 246q-109 80 -293 80z" />
    <glyph glyph-name="uni21B1" unicode="&#x21b1;" horiz-adv-x="1613" 
d="M1223 889h-480q-183 0 -292 -80q-105 -79 -105 -246v-563h-233v588q0 255 157 391q156 135 447 135h506q-252 262 -355 375l136 127l550 -598v-35l-550 -596l-136 125q96 108 355 377z" />
    <glyph glyph-name="uni21B2" unicode="&#x21b2;" horiz-adv-x="1613" 
d="M391 604h479q186 0 293 82q107 78 107 244v563h229v-588q0 -254 -156 -389t-446 -135h-506q131 -135 354 -377l-135 -127l-551 598v35l551 596l135 -125q-198 -216 -354 -377z" />
    <glyph glyph-name="uni21B3" unicode="&#x21b3;" horiz-adv-x="1613" 
d="M743 604h480q-304 319 -355 377l136 125l550 -596v-35l-550 -598l-136 127q186 202 355 377h-506q-291 0 -447 135q-157 136 -157 389v588h233v-563q0 -168 105 -244q107 -82 292 -82z" />
    <glyph glyph-name="uni21B4" unicode="&#x21b4;" horiz-adv-x="1748" 
d="M1059 51l-598 553l127 133q169 -154 375 -352v477q0 111 -15 185q-16 78 -69 137q-81 84 -287 84h-518v225h540q378 0 500 -225q74 -140 74 -377v-506q248 238 377 352l125 -133l-596 -553h-35z" />
    <glyph glyph-name="partialdiff" unicode="&#x2202;" horiz-adv-x="1261" 
d="M582 -18q-102 0 -194.5 36t-158.5 101q-67 65 -105 160t-38 202q0 103 39 192t108 148q67 59 156.5 92t188.5 33q194 0 350 -117q-31 231 -139.5 354.5t-286.5 123.5q-152 0 -287 -66l-80 178q86 48 189 72q125 25 196 25q188 0 326.5 -93t214.5 -254q98 -197 98 -473
q0 -307 -141 -503q-70 -100 -183 -155.5t-253 -55.5zM631 756q-61 0 -116 -18t-100 -52.5t-71.5 -92t-26.5 -130.5q0 -122 84 -197q86 -80 193 -80q81 0 148 39.5t108 106.5q82 141 82 303q-54 60 -139 90q-91 31 -162 31z" />
    <glyph glyph-name="uni2206" unicode="&#x2206;" horiz-adv-x="1613" 
d="M946 1493l604 -1493h-1489l607 1493h278zM1225 211l-420 1049l-418 -1049h838z" />
    <glyph glyph-name="product" unicode="&#x220f;" horiz-adv-x="1482" 
d="M928 0v1276h-371v-1276h-235v1276h-252v217h1343v-217h-252v-1276h-233z" />
    <glyph glyph-name="summation" unicode="&#x2211;" horiz-adv-x="1218" 
d="M1112 0h-1022v215l531 543l-508 526v209h999v-211h-704l524 -524l-541 -547h721v-211z" />
    <glyph glyph-name="minus" unicode="&#x2212;" horiz-adv-x="1202" 
d="M1065 805v-211h-928v211h928z" />
    <glyph glyph-name="radical" unicode="&#x221a;" horiz-adv-x="1464" 
d="M754 264l481 1563h211l-563 -1827h-258l-359 981h-231v193h409z" />
    </font>
</defs>
</svg>
