<?xml version="1.0" standalone="no"?>
<!DOCTYPE svg PUBLIC "-//W3C//DTD SVG 1.1//EN" "http://www.w3.org/Graphics/SVG/1.1/DTD/svg11.dtd" >
<svg xmlns="http://www.w3.org/2000/svg" xmlns:xlink="http://www.w3.org/1999/xlink" version="1.1">
<metadata>
Created by FontForge 20170731 at Sat Oct 22 10:37:49 2022
 By Aleksey,,,
Copyright (c) 2016 by THOMAS GILLETT. All rights reserved.
</metadata>
<defs>
<font id="Gordita-Bold" horiz-adv-x="1218" >
  <font-face 
    font-family="Gordita"
    font-weight="700"
    font-stretch="normal"
    units-per-em="2048"
    panose-1="0 0 0 0 0 0 0 0 0 0"
    ascent="1638"
    descent="-410"
    x-height="1018"
    cap-height="1493"
    bbox="-739 -737 2914 2261"
    underline-thickness="94"
    underline-position="-284"
    unicode-range="U+000D-FB04"
  />
<missing-glyph horiz-adv-x="1523" 
d="M172 0v1493h1258v-1493h-1258zM1319 1382h-1026l1026 -1261v1261z" />
    <glyph glyph-name="ff" unicode="ff" horiz-adv-x="1570" 
d="M1454 1303q-182 0 -182 -168v-117h264v-252h-262v-766h-297v766h-434v-766h-297v766h-195v252h195v100q-1 65 11.5 126t42.5 119t74.5 101t114 69t156.5 26q93 0 170 -23v-244q-34 11 -92 11q-180 0 -180 -168v-117h434v100q-1 65 11.5 126t42 119t74 101t113.5 69
t156 26q95 0 172 -23v-244q-34 11 -92 11z" />
    <glyph glyph-name="fi" unicode="fi" horiz-adv-x="1413" 
d="M1274 0h-297v766h-434v-766h-297v766h-195v252h195v100q-1 65 11.5 126t42.5 119t74.5 101t114 69t156.5 26q93 0 170 -23v-244q-34 11 -92 11q-180 0 -180 -168v-117h731v-1018zM1122 1188q-74 0 -129 55q-53 56 -53 129q0 77 53 133q57 54 129 54q76 0 133 -54
q56 -56 56 -133q0 -73 -56 -129q-55 -55 -133 -55z" />
    <glyph glyph-name="fl" unicode="fl" horiz-adv-x="1411" 
d="M1274 0h-297v766h-434v-766h-297v766h-195v252h195v100q-1 65 11.5 126t42.5 119t74.5 101t114 69t156.5 26q93 0 170 -23v-244q-34 11 -92 11q-180 0 -180 -168v-117h434v534h297v-1552z" />
    <glyph glyph-name="ffi" unicode="ffi" horiz-adv-x="2146" 
d="M2009 0h-299v766h-436v-766h-297v766h-434v-766h-297v766h-195v252h195v100q-1 65 11.5 126t42.5 119t74.5 101t114 69t156.5 26q93 0 170 -23v-244q-34 11 -92 11q-180 0 -180 -168v-117h434v100q-1 65 11.5 126t42 119t74 101t113.5 69t156 26q95 0 172 -23v-244
q-34 11 -92 11q-182 0 -182 -168v-117h737v-1018zM1858 1188q-74 0 -129 55q-54 54 -54 129q0 79 54 133q57 54 129 54q76 0 133 -54q53 -53 53 -133q0 -76 -53 -129q-55 -55 -133 -55z" />
    <glyph glyph-name="ffl" unicode="ffl" horiz-adv-x="2160" 
d="M2021 0h-309v766h-438v-766h-297v766h-434v-766h-297v766h-195v252h195v100q-1 65 11.5 126t42.5 119t74.5 101t114 69t156.5 26q93 0 170 -23v-244q-34 11 -92 11q-180 0 -180 -168v-117h434v100q-1 65 11.5 126t42 119t74 101t113.5 69t156 26q95 0 172 -23v-244
q-34 11 -92 11q-182 0 -182 -168v-117h440v536h309v-1554z" />
    <glyph glyph-name=".notdef" horiz-adv-x="1523" 
d="M172 0v1493h1258v-1493h-1258zM1319 1382h-1026l1026 -1261v1261z" />
    <glyph glyph-name=".null" horiz-adv-x="0" 
 />
    <glyph glyph-name="nonmarkingreturn" horiz-adv-x="634" 
 />
    <glyph glyph-name="NULL" horiz-adv-x="0" 
 />
    <glyph glyph-name="NULL" horiz-adv-x="0" 
 />
    <glyph glyph-name="CR" unicode="&#xd;" horiz-adv-x="479" 
 />
    <glyph glyph-name="space" unicode=" " horiz-adv-x="479" 
 />
    <glyph glyph-name="exclam" unicode="!" horiz-adv-x="647" 
d="M487 1192l-30 -676h-271l-28 676v301h327zM195 295q-54 -57 -54 -131t54 -131q53 -53 129 -53q80 0 133 53q55 58 55 131t-55 131q-56 53 -133 53q-73 0 -129 -53z" />
    <glyph glyph-name="quotedbl" unicode="&#x22;" horiz-adv-x="974" 
d="M436 1221l-96 -424h-143l-95 424q-8 39 -8 69q0 85 49 140q52 55 127 55t127 -55q47 -56 47 -140q0 -29 -8 -69zM874 1221l-96 -424h-143l-94 424q-9 37 -9 69q0 84 50 140q52 55 125 55q75 0 127 -55q47 -53 47 -140q0 -34 -7 -69z" />
    <glyph glyph-name="numbersign" unicode="#" horiz-adv-x="1607" 
d="M1241 920l-72 -318h248v-217h-297l-86 -385h-237l86 385h-326l-86 -385h-240l86 385h-245v217h297l71 318h-247v217h296l80 358h238l-80 -358h326l82 358h237l-82 -358h248v-217h-297zM676 924l-74 -324h332l74 324h-332z" />
    <glyph glyph-name="dollar" unicode="$" horiz-adv-x="1286" 
d="M1200 449q0 -167 -117 -293q-60 -64 -149.5 -106t-196.5 -52v-193h-157v193q-218 19 -346.5 134t-161.5 314l284 66q13 -92 73.5 -153.5t154.5 -82.5v336l-68 13q-182 35 -285 147q-106 109 -106 275q-2 116 60 217.5t167 164.5t228 74v197h157v-199q98 -12 180.5 -49
t135.5 -92q108 -114 123 -246l-275 -80q-32 147 -166 187v-330l49 -10q197 -37 310 -156q106 -115 106 -276zM580 920l4 -2v309q-69 -13 -112.5 -57.5t-43.5 -98.5q0 -58 38.5 -98t113.5 -53zM735 582v-310q72 13 114 56.5t42 101.5q0 54 -42 95.5t-114 56.5z" />
    <glyph glyph-name="percent" unicode="%" horiz-adv-x="1693" 
d="M406 834q-142 0 -240 98q-98 101 -98 239q0 139 98 240q98 98 240 98q139 0 237 -98q98 -101 98 -240q0 -138 -98 -239q-98 -98 -237 -98zM1460 1493l-971 -1493h-260l973 1493h258zM406 1288q-52 0 -84 -35q-35 -32 -35 -82q0 -46 35 -84q35 -32 84 -32t81 32
q35 35 35 84q0 50 -35 82q-32 35 -81 35zM1290 -8q-139 0 -237 98q-101 98 -101 238q0 141 101 239q96 99 237 99q144 0 240 -99q98 -98 98 -239q0 -140 -98 -238t-240 -98zM1290 446q-48 0 -82 -34q-34 -31 -34 -84q0 -51 34 -82q35 -35 82 -35q49 0 84 35t35 82
q0 49 -35 84q-34 34 -84 34z" />
    <glyph glyph-name="ampersand" unicode="&#x26;" horiz-adv-x="1429" 
d="M1397 0h-363l-104 119q-188 -139 -361 -139q-97 0 -182 24.5t-154 73t-109 129t-40 184.5q0 219 266 393l-55 66q-54 62 -83.5 132.5t-29.5 133.5q0 166 123 283q125 119 309 119q110 3 212 -50.5t164 -146t59 -195.5q0 -108 -49.5 -189.5t-157.5 -145.5l-90 -54
l206 -235q85 119 119 235h279q-17 -91 -78 -209q-56 -106 -150 -221zM621 1249q-68 0 -109 -41q-43 -40 -43 -92q0 -29 11.5 -55t43.5 -64l64 -71l108 65q72 43 72 125q0 54 -41 92q-47 41 -106 41zM588 246q84 0 178 61l-252 289q-131 -84 -131 -174q0 -97 72 -139
q64 -37 133 -37z" />
    <glyph glyph-name="quotesingle" unicode="'" horiz-adv-x="536" 
d="M436 1221l-96 -424h-143l-95 424q-8 33 -8 69q0 85 49 140q52 55 127 55t127 -55q47 -56 47 -140q0 -19 -8 -69z" />
    <glyph glyph-name="parenleft" unicode="(" horiz-adv-x="786" 
d="M748 -88l-130 -172q-255 141 -393 375q-139 239 -139 551v71q0 312 139 551q137 233 393 377l130 -174q-394 -286 -394 -754v-71q0 -468 394 -754z" />
    <glyph glyph-name="parenright" unicode=")" horiz-adv-x="780" 
d="M162 -260l-127 168q391 283 391 758v71q0 475 -391 758l127 170q258 -144 395 -380t137 -548v-71q0 -312 -137 -548t-395 -378z" />
    <glyph glyph-name="asterisk" unicode="*" horiz-adv-x="960" 
d="M641 1044l150 -210l-156 -115l-156 211l-155 -211l-156 115l149 210l-245 82l61 183l246 -80v264h199v-264l245 80l64 -185z" />
    <glyph glyph-name="plus" unicode="+" horiz-adv-x="1181" 
d="M1100 557h-363v-373h-282v373h-373v279h373v368h282v-368h363v-279z" />
    <glyph glyph-name="comma" unicode="," horiz-adv-x="612" 
d="M510 100q0 -186 -102 -309q-100 -123 -279 -151v141q169 53 199 211q-27 -6 -58 -6q-75 0 -123 51q-49 52 -49 131q0 81 60 129q62 49 139 49q98 0 156 -70q57 -69 57 -176z" />
    <glyph glyph-name="hyphen" unicode="-" horiz-adv-x="874" 
d="M123 471v295h629v-295h-629z" />
    <glyph glyph-name="period" unicode="." horiz-adv-x="600" 
d="M299 -23q-83 0 -145 62q-62 59 -62 143q0 86 62 148q62 59 145 59q85 0 147 -59q60 -63 60 -148q0 -83 -60 -143q-62 -62 -147 -62z" />
    <glyph glyph-name="slash" unicode="/" horiz-adv-x="1071" 
d="M334 -10h-275l680 1564h277z" />
    <glyph glyph-name="zero" unicode="0" horiz-adv-x="1464" 
d="M92 748q0 307 158 532q78 110 204 173t281 63q184 0 321 -87.5t214 -236.5q102 -183 102 -436q0 -184 -58.5 -345.5t-170.5 -269.5q-77 -75 -183.5 -117t-230.5 -42q-187 0 -324 87t-212 238q-101 189 -101 441zM416 874q-36 -194 37 -374q36 -100 107.5 -161.5
t172.5 -62.5q84 0 149.5 45.5t102.5 118.5t55.5 152t18.5 158q0 164 -74 309q-38 74 -103.5 118t-148.5 44q-65 0 -123 -30t-96 -79q-75 -96 -98 -238z" />
    <glyph glyph-name="one" unicode="1" horiz-adv-x="942" 
d="M766 0h-307v1124l-316 -180l-137 252l506 297h254v-1493z" />
    <glyph glyph-name="two" unicode="2" horiz-adv-x="1294" 
d="M1188 0h-1098v90q0 349 367 567l188 113q17 11 45.5 28.5t38.5 24.5q9 7 31.5 26t34.5 28q67 61 67 149q0 83 -61 141t-160 58q-87 0 -156 -60q-77 -67 -71 -213l-312 43q1 158 64.5 271t171.5 174q132 76 309 76q121 0 223.5 -38.5t169.5 -105.5q67 -65 103.5 -153
t36.5 -185q0 -163 -90 -276q-84 -112 -213 -185l-234 -143q-133 -78 -151 -147h696v-283z" />
    <glyph glyph-name="three" unicode="3" horiz-adv-x="1306" 
d="M1208 479q0 -142 -75 -254q-81 -120 -209 -182q-132 -66 -279 -66q-199 0 -371 123q-84 60 -136.5 154.5t-59.5 206.5l311 51q6 -83 49 -141q46 -62 94 -84q55 -25 109 -25q105 0 178 64q74 62 74 159q0 83 -72 146q-70 61 -174 61q-81 0 -137 -33l-143 211l399 344h-645
v279h1044v-270l-368 -305q190 -18 301 -144q110 -122 110 -295z" />
    <glyph glyph-name="four" unicode="4" horiz-adv-x="1390" 
d="M1096 297v-297h-299v297h-738v336l668 860h369v-920h213v-276h-213zM797 1137l-439 -564h439v564z" />
    <glyph glyph-name="five" unicode="5" horiz-adv-x="1273" 
d="M625 -18q-102 0 -194.5 29.5t-168 84t-125.5 140.5t-63 192l297 59q15 -99 86 -161q69 -60 172 -60q102 0 176 62q74 65 74 166q0 107 -72 170q-71 59 -180 59q-53 0 -119 -29q-60 -28 -96 -76l-291 121l158 754h843v-281h-614l-64 -319q50 43 119 63q70 25 133 25
q217 0 353 -133q137 -131 137 -348q0 -161 -76 -277q-78 -122 -203 -180q-125 -61 -282 -61z" />
    <glyph glyph-name="six" unicode="6" horiz-adv-x="1325" 
d="M96 678q0 371 187 602q91 112 226 174t298 62q195 0 379 -82l-111 -275q-65 35 -135 51q-79 21 -137 21q-85 0 -156.5 -33.5t-118.5 -91.5q-95 -112 -108 -270q130 151 332 151q137 0 252 -65q113 -69 174 -179t61 -243q0 -118 -47.5 -218t-128.5 -167q-78 -63 -178 -98
t-205 -35q-158 0 -270 59q-121 60 -189 149q-125 158 -125 488zM422 498q0 -100 76 -170q77 -68 180 -68q105 0 176 68q72 69 72 168q0 104 -70 168q-69 63 -180 63q-106 0 -178 -63q-76 -61 -76 -166z" />
    <glyph glyph-name="seven" unicode="7" horiz-adv-x="1206" 
d="M494 0h-349l654 1212h-740v281h1094v-266z" />
    <glyph glyph-name="eight" unicode="8" horiz-adv-x="1306" 
d="M1210 412q0 -127 -68 -220t-181 -143q-140 -67 -310 -67q-119 0 -235.5 39t-198.5 112q-57 50 -89 123t-32 156q0 121 74 213q73 93 190 143v2q-107 43 -170 127q-65 86 -65 197q0 118 64.5 209t170.5 143q129 70 293 70q193 0 355 -109q78 -52 125 -135t47 -178
q0 -112 -64 -197q-59 -82 -170 -127v-2q119 -50 191 -143q73 -91 73 -213zM870 1073q0 82 -65 133q-64 49 -152 49q-89 0 -153 -49q-66 -51 -66 -133q0 -81 66 -135q65 -53 153 -53q87 0 152 53q65 51 65 135zM901 442q0 93 -76 150q-74 53 -172 53q-95 0 -172 -53
q-75 -54 -75 -150q0 -94 75 -145q73 -55 168 -55q95 -3 173.5 53t78.5 147z" />
    <glyph glyph-name="nine" unicode="9" horiz-adv-x="1325" 
d="M1229 811q0 -374 -174 -600q-89 -110 -220.5 -169.5t-295.5 -59.5q-137 0 -226 18q-92 22 -166 61l109 277q85 -43 152 -57q77 -15 124 -15q87 0 158.5 33t118.5 90q87 110 100 268q-63 -73 -152.5 -112t-185.5 -39q-139 0 -249 67q-112 63 -175 177q-61 113 -61 245
q0 117 47.5 218t128.5 167q79 64 179 100t204 36q147 0 268 -62q118 -62 189 -154q47 -60 72 -137q29 -78 38 -159q17 -129 17 -193zM903 995q0 102 -76 172t-180 70q-103 0 -176 -70q-74 -68 -74 -168q0 -106 70 -170q67 -67 178 -67q103 0 180 65q78 66 78 168z" />
    <glyph glyph-name="colon" unicode=":" horiz-adv-x="641" 
d="M319 629q-84 0 -145 61q-61 58 -61 144t61 147t145 61q89 0 148 -59t59 -149q0 -85 -59 -144q-61 -61 -148 -61zM319 -23q-83 0 -145 62q-61 58 -61 143q0 87 61 148q62 59 145 59q89 0 148 -59t59 -148q0 -84 -59 -143q-62 -62 -148 -62z" />
    <glyph glyph-name="semicolon" unicode=";" horiz-adv-x="649" 
d="M324 629q-88 0 -146 61q-61 58 -61 144t61 147q58 61 146 61q86 0 147 -61q59 -62 59 -147t-59 -144q-61 -61 -147 -61zM530 100q0 -186 -102 -309q-103 -124 -281 -151v141q166 52 201 211q-30 -6 -57 -6q-77 0 -125 51q-49 52 -49 131t59 129q62 49 141 49
q95 0 156 -70q57 -69 57 -176z" />
    <glyph glyph-name="less" unicode="&#x3c;" horiz-adv-x="1208" 
d="M72 578v235l995 455v-283l-659 -285v-4l659 -286v-289z" />
    <glyph glyph-name="equal" unicode="=" horiz-adv-x="1208" 
d="M129 819v277h948v-277h-948zM129 295v278h948v-278h-948z" />
    <glyph glyph-name="greater" unicode="&#x3e;" horiz-adv-x="1208" 
d="M141 121v287l660 284v4l-660 287v285l996 -455v-235z" />
    <glyph glyph-name="question" unicode="?" horiz-adv-x="1122" 
d="M664 504h-285q-2 27 -2 57q0 76 37 139t89.5 107.5t105 85.5t89.5 92t37 109q0 70 -49 110q-52 37 -125 37q-91 0 -143 -61q-56 -59 -56 -150q0 -17 9 -69l-297 22q-6 49 -6 94q0 136 69 236q70 101 182 151q113 52 244 52q188 0 330 -105q71 -53 112.5 -131.5
t41.5 -171.5q0 -211 -207 -365q-83 -61 -126 -115.5t-50 -123.5zM399 295q-53 -53 -53 -131t53 -131t129 -53q81 0 134 53q53 56 53 131t-53 131q-56 53 -134 53q-73 0 -129 -53z" />
    <glyph glyph-name="at" unicode="@" horiz-adv-x="1650" 
d="M1186 225q-69 0 -129 31q-62 30 -86 80q-34 -45 -103 -82q-67 -31 -123 -31q-86 0 -159 49q-70 50 -111 123q-39 76 -39 152q-2 113 49 214.5t142.5 163.5t197.5 60q49 0 105 -29q52 -27 74 -75l16 96h221l-80 -475q-14 -105 58 -105q78 0 149 95q70 91 70 231
q0 105 -40.5 199.5t-113.5 164.5t-179.5 110t-227.5 40q-172 0 -320 -86q-146 -87 -233 -233q-86 -148 -86 -322q0 -252 161 -430q79 -86 199.5 -134t263.5 -48q106 0 207 34q105 33 193 97l73 -115q-74 -65 -213 -113q-134 -45 -260 -45q-163 0 -311 60t-244 159
q-101 101 -158 240.5t-57 294.5q0 153 64 303q65 145 168 248q104 104 249 166q145 59 299 59q203 0 361 -82q165 -83 256 -233q94 -146 94 -334q0 -109 -32.5 -204t-88.5 -159q-119 -135 -276 -135zM846 776q-78 0 -129 -63q-51 -60 -51 -142q0 -54 36 -96q37 -43 91 -43
q70 0 127 66q53 65 53 145q0 59 -35 96t-92 37z" />
    <glyph glyph-name="A" unicode="A" horiz-adv-x="1509" 
d="M1194 0l-119 319h-643l-119 -319h-315l571 1493h371l573 -1493h-319zM752 1194l-217 -588h434z" />
    <glyph glyph-name="B" unicode="B" horiz-adv-x="1417" 
d="M1333 412q0 -88 -30 -159t-80.5 -117.5t-120 -77.5t-143.5 -44.5t-156 -13.5h-629v1493h619q190 0 327 -96q70 -49 110 -126t40 -173q0 -209 -209 -320v-2q137 -52 207 -137q65 -83 65 -227zM967 1051q0 58 -34 95t-79.5 49.5t-103.5 12.5h-275v-321h254q94 0 160 31
q78 37 78 133zM1032 453q0 165 -244 165h-313v-331h324q92 0 157 32q76 37 76 134z" />
    <glyph glyph-name="C" unicode="C" horiz-adv-x="1609" 
d="M850 -20q-151 0 -290.5 54.5t-246.5 153.5q-102 96 -168 244q-63 148 -63 313q0 159 63 310q64 140 170 243q103 100 248 160q147 58 295 58q119 0 226 -30.5t186 -82.5q72 -44 135 -113q109 -118 147 -258l-292 -100q-10 47 -51.5 106t-106.5 105q-102 71 -248 71
q-128 0 -231 -63q-106 -62 -162 -168q-60 -111 -60 -235q0 -128 58 -235t162 -171q107 -66 233 -66q146 0 248 74q37 25 80 72q64 75 84 153l295 -102q-30 -129 -142 -252q-62 -68 -139 -121q-71 -49 -190 -88q-106 -32 -240 -32z" />
    <glyph glyph-name="D" unicode="D" horiz-adv-x="1558" 
d="M1475 750q0 -164 -59 -303.5t-167 -237.5q-110 -100 -271 -154.5t-353 -54.5h-451v1493h457q389 0 618 -197q226 -197 226 -546zM1157 750q0 214 -145 333t-373 119h-158v-909h154q239 0 379 119q143 119 143 338z" />
    <glyph glyph-name="E" unicode="E" horiz-adv-x="1263" 
d="M1157 0h-983v1493h977v-289h-672v-305h602v-289h-602v-321h678v-289z" />
    <glyph glyph-name="F" unicode="F" horiz-adv-x="1239" 
d="M1157 1198h-676v-315h606v-295h-606v-588h-307v1493h983v-295z" />
    <glyph glyph-name="G" unicode="G" horiz-adv-x="1634" 
d="M786 803h779v-117q0 -133 -38.5 -249t-107.5 -201q-71 -87 -157 -142q-174 -117 -406 -117q-170 0 -315 62q-145 59 -244 164q-102 104 -158.5 244.5t-56.5 297.5q0 212 106 392q106 177 283 278t389 101q131 0 248.5 -37t202.5 -103q168 -128 219 -315l-301 -92
q-24 100 -127 178q-103 74 -246 74q-122 0 -231 -62q-106 -62 -166 -170q-64 -110 -64 -241q0 -130 58.5 -239t164.5 -173q107 -66 238 -66q145 0 254 70q104 70 131 182h-455v281z" />
    <glyph glyph-name="H" unicode="H" horiz-adv-x="1589" 
d="M1108 0v604h-627v-604h-307v1493h307v-590h627v590h307v-1493h-307z" />
    <glyph glyph-name="I" unicode="I" horiz-adv-x="657" 
d="M174 0v1493h309v-1493h-309z" />
    <glyph glyph-name="J" unicode="J" horiz-adv-x="1220" 
d="M567 -20q-216 -3 -364 137t-144 350v168h299v-154q0 -106 58 -155.5t139 -49.5q83 0 141 52q56 50 56 143v1022h307v-1026q0 -225 -135 -354q-136 -133 -357 -133z" />
    <glyph glyph-name="K" unicode="K" horiz-adv-x="1402" 
d="M1018 0l-537 709v-709h-307v1493h307v-649l512 649h385l-569 -715l606 -778h-397z" />
    <glyph glyph-name="L" unicode="L" horiz-adv-x="1150" 
d="M1120 0h-946v1493h307v-1198h639v-295z" />
    <glyph glyph-name="M" unicode="M" horiz-adv-x="2009" 
d="M1532 0v1018h-4l-422 -1018h-207l-420 1012h-2v-1012h-303v1493h418l412 -993l403 993h428v-1493h-303z" />
    <glyph glyph-name="N" unicode="N" horiz-adv-x="1654" 
d="M1130 0l-651 1026v-1026h-305v1493h358l644 -1010v1010h305v-1493h-351z" />
    <glyph glyph-name="O" unicode="O" horiz-adv-x="1714" 
d="M82 745q0 159 61 302t166 245q100 100 250 164q148 60 301 60q163 0 303 -60q142 -59 246 -160q103 -103 164 -243q59 -142 59 -301q0 -161 -61 -301q-63 -148 -166 -248q-107 -107 -248 -164q-145 -62 -303 -62q-159 0 -302 59.5t-246 162t-163.5 245t-60.5 301.5z
M459 983q-60 -111 -60 -235q0 -125 60 -236q61 -108 166 -172q107 -64 233 -64q128 0 232 64q105 62 167 172q60 111 60 236q3 125 -59 234t-169 173t-231 62q-126 0 -233 -64q-104 -61 -166 -170z" />
    <glyph glyph-name="P" unicode="P" horiz-adv-x="1318" 
d="M1262 1014q0 -119 -40.5 -213.5t-115.5 -153.5q-148 -121 -389 -121h-234v-526h-309v1493h553q236 0 381 -121q73 -59 113.5 -151.5t40.5 -206.5zM950 1008q0 66 -35 112t-92 64q-55 18 -123 18h-217v-389h219q103 0 175.5 49t72.5 146z" />
    <glyph glyph-name="Q" unicode="Q" horiz-adv-x="1716" 
d="M1636 180l-188 -219l-162 148q-192 -129 -432 -129q-166 0 -301 59q-141 57 -246 162q-108 105 -164 243q-61 140 -61 301q0 159 61 302t166 245q100 100 250 164q148 60 301 60q215 0 389 -101q181 -103 281 -276q102 -175 102 -387q0 -248 -141 -445zM397 748
q-3 -124 59.5 -235t171 -177t230.5 -62q103 0 193 43l-236 205l189 223l253 -231q62 109 62 234q0 126 -62 235q-61 107 -167 172q-112 64 -232 64q-189 0 -326 -140q-135 -138 -135 -331z" />
    <glyph glyph-name="R" unicode="R" horiz-adv-x="1392" 
d="M1012 594l315 -594h-336l-284 537h-224v-537h-309v1493h590q226 0 373 -117q72 -60 112.5 -151.5t40.5 -204.5q0 -156 -73 -264t-205 -162zM737 1200h-256v-379h258q98 0 168 49q70 46 70 144q0 68 -36.5 111.5t-87.5 59t-116 15.5z" />
    <glyph glyph-name="S" unicode="S" horiz-adv-x="1300" 
d="M666 -23q-260 0 -410 123q-151 124 -188 340l288 68q18 -118 107 -186q87 -66 213 -66q108 0 164 47q61 49 61 121q0 56 -46.5 99.5t-123.5 56.5l-211 43q-182 35 -291 147q-106 112 -106 281q0 96 42 183t114 150q74 61 171 96.5t201 35.5q121 0 222 -33.5t167 -91.5
q129 -120 150 -273l-281 -82q-21 96 -87 149.5t-175 53.5q-91 0 -155 -49q-62 -50 -62 -115q0 -58 39.5 -99t114.5 -56l209 -39q204 -38 313 -156q108 -120 108 -283q0 -177 -139 -319q-71 -68 -177 -107t-232 -39z" />
    <glyph glyph-name="T" unicode="T" horiz-adv-x="1284" 
d="M797 1194v-1194h-310v1194h-446v299h1202v-299h-446z" />
    <glyph glyph-name="U" unicode="U" horiz-adv-x="1515" 
d="M1053 1493h305v-891q0 -289 -154 -457q-149 -165 -448 -165q-305 0 -455 170q-141 160 -141 442v901h309l-2 -895q0 -158 82 -240q79 -82 209 -82q139 0 217 84q78 87 78 232v901z" />
    <glyph glyph-name="V" unicode="V" horiz-adv-x="1495" 
d="M926 0h-359l-538 1493h333l388 -1135l387 1135h329z" />
    <glyph glyph-name="W" unicode="W" horiz-adv-x="2271" 
d="M1137 1083h-4l-326 -1083h-334l-436 1493h330l284 -1061l322 1061h327l324 -1069l295 1069h317l-442 -1493h-334z" />
    <glyph glyph-name="X" unicode="X" horiz-adv-x="1439" 
d="M1081 0l-364 537l-371 -537h-348l537 768l-506 725h360l332 -485l334 485h358l-510 -723l539 -770h-361z" />
    <glyph glyph-name="Y" unicode="Y" horiz-adv-x="1454" 
d="M883 604v-604h-310v590l-546 903h356l344 -598l350 598h353z" />
    <glyph glyph-name="Z" unicode="Z" horiz-adv-x="1304" 
d="M1221 287v-287h-1143v272l743 936h-712v285h1095v-266l-741 -940h758z" />
    <glyph glyph-name="bracketleft" unicode="[" horiz-adv-x="854" 
d="M170 -240v1893h616v-232h-360v-1429h360v-232h-616z" />
    <glyph glyph-name="backslash" unicode="\" horiz-adv-x="1071" 
d="M55 1554h277l682 -1564h-277z" />
    <glyph glyph-name="bracketright" unicode="]" horiz-adv-x="854" 
d="M68 -240v232h362v1429h-362v232h616v-1893h-616z" />
    <glyph glyph-name="asciicircum" unicode="^" horiz-adv-x="1243" 
d="M864 860l-243 395l-242 -395h-303l434 633h227l430 -633h-303z" />
    <glyph glyph-name="underscore" unicode="_" horiz-adv-x="1054" 
d="M0 -365v242h1055v-242h-1055z" />
    <glyph glyph-name="grave" unicode="`" horiz-adv-x="591" 
d="M360 1544l205 -356h-243l-302 356h340z" />
    <glyph glyph-name="a" unicode="a" horiz-adv-x="1126" 
d="M418 -20q-138 0 -238 83q-100 84 -100 222v8q0 198 205 270q108 41 243 41h99q39 0 59.5 18.5t20.5 51.5q0 56 -42.5 91.5t-117.5 35.5q-67 0 -116 -37t-66 -102l-263 59q18 105 88 178q69 75 166 109q93 34 205 34q195 2 316.5 -106t121.5 -305v-467q0 -58 9 -164h-277
q-6 40 -6 127h-4q-107 -147 -303 -147zM504 197q91 0 147 59q56 56 56 137v25h-179q-52 0 -100 -31q-49 -30 -49 -86q0 -49 35 -76.5t90 -27.5z" />
    <glyph glyph-name="b" unicode="b" horiz-adv-x="1306" 
d="M137 1552h297v-655h4q74 92 172 119q72 22 138 22q106 0 199.5 -45.5t156.5 -122.5q127 -159 127 -360q0 -98 -35 -194t-98 -169q-64 -77 -159 -122t-200 -45q-60 0 -141 22q-98 30 -168 121h-2v-123h-291v1552zM500 696q-72 -72 -72 -186t72 -186q74 -74 178 -74
q106 0 180 74q72 72 72 186q0 111 -72 186q-72 72 -180 72q-109 0 -178 -72z" />
    <glyph glyph-name="c" unicode="c" horiz-adv-x="1189" 
d="M625 -23q-116 -1 -219 40t-176 112t-114.5 170t-39.5 209q0 146 74 270q68 119 198 195q132 69 283 69q168 0 307 -88q70 -42 119 -109t69 -151l-272 -82q-18 63 -78 111q-60 45 -151 45q-102 0 -172 -70q-72 -72 -72 -186q0 -116 70 -186q68 -74 176 -74q87 0 147.5 44
t85.5 114l273 -82q-29 -110 -111 -195q-84 -81 -182 -117q-101 -39 -215 -39z" />
    <glyph glyph-name="d" unicode="d" horiz-adv-x="1306" 
d="M1169 0h-288v129h-4q-103 -149 -316 -149q-105 0 -198 44t-156 119q-62 72 -96.5 168.5t-34.5 198.5q0 77 22.5 153.5t65.5 144t101.5 119t136.5 81.5t163 30q59 0 133 -20q94 -25 170 -117h4v651h297v-1552zM809 324q72 75 72 186t-72 186q-72 72 -180 72
q-106 0 -178 -72q-74 -74 -74 -186t74 -186q71 -74 178 -74q106 0 180 74z" />
    <glyph glyph-name="e" unicode="e" horiz-adv-x="1196" 
d="M385 625h438q-6 62 -53 114q-25 28 -68.5 45t-95.5 17q-90 0 -151 -58q-61 -61 -70 -118zM1116 426h-737q12 -88 84 -145q71 -56 166 -56q65 0 129 39q66 40 86 98l246 -83q-50 -142 -177 -222t-280 -80q-151 0 -281 68q-125 64 -202 188q-76 127 -76 277q0 146 73 268
q72 121 199 195q120 69 268 69q226 0 367 -141t141 -369q0 -69 -6 -106z" />
    <glyph glyph-name="f" unicode="f" horiz-adv-x="839" 
d="M543 1018h262v-252h-262v-766h-297v766h-195v252h195v100q-1 65 11.5 126t42.5 119t74.5 101t114 69t156.5 26q93 0 170 -23v-244q-34 11 -92 11q-180 0 -180 -168v-117z" />
    <glyph glyph-name="g" unicode="g" horiz-adv-x="1300" 
d="M868 1018h293v-967q0 -136 -41 -244t-116 -176q-153 -141 -400 -141q-107 0 -201.5 31t-158.5 84q-138 110 -162 252l274 80q16 -79 76 -134q56 -53 160 -53q116 0 194 67.5t78 200.5v117h-4q-105 -135 -293 -135q-141 0 -256 68q-111 66 -174 186q-61 116 -61 260
q0 199 131 356q61 75 153.5 119.5t196.5 44.5q56 0 137 -22q98 -30 170 -117h4v123zM872 514q0 113 -69 182q-69 72 -178 72q-105 0 -174 -72q-72 -69 -72 -182q0 -111 70 -184q72 -72 176 -72t176 72q71 71 71 184z" />
    <glyph glyph-name="h" unicode="h" 
d="M1092 0h-297v565q0 90 -46 144.5t-131 54.5q-92 0 -137 -57q-47 -59 -47 -140v-567h-297v1552h297v-653h2q64 85 154 115q73 24 127 24q189 0 284 -125q91 -117 91 -280v-633z" />
    <glyph glyph-name="i" unicode="i" horiz-adv-x="573" 
d="M156 1243q-54 54 -54 129q0 79 54 133q57 54 129 54q76 0 133 -54q53 -56 53 -133q0 -73 -53 -129q-55 -55 -133 -55q-74 0 -129 55zM137 1018h299v-1018h-299v1018z" />
    <glyph glyph-name="j" unicode="j" horiz-adv-x="587" 
d="M170 1243q-53 53 -53 129q0 80 53 133q57 54 129 54q76 0 133 -54q53 -53 53 -133q0 -76 -53 -129q-55 -55 -133 -55q-74 0 -129 55zM154 1018h297v-1153q0 -163 -95 -266q-98 -101 -260 -101q-113 0 -180 23v246q60 -11 96 -11q66 0 104 36t38 102v1124z" />
    <glyph glyph-name="k" unicode="k" horiz-adv-x="1179" 
d="M803 0l-361 481h-8v-481h-297v1554h297v-936l354 400h379l-409 -469l420 -549h-375z" />
    <glyph glyph-name="l" unicode="l" horiz-adv-x="573" 
d="M137 0v1554h299v-1554h-299z" />
    <glyph glyph-name="m" unicode="m" horiz-adv-x="1851" 
d="M1260 762q-87 0 -135 -52t-48 -141v-569h-295v565q0 93 -41 145t-125 52q-88 0 -135 -52.5t-47 -144.5v-565h-297v1018h293v-133h2q44 74 125 114q84 41 172 41q99 0 178 -41.5t119 -119.5q76 85 155 123t185 38q121 0 202.5 -53.5t117.5 -142.5t36 -209v-635h-297v569
q0 193 -165 193z" />
    <glyph glyph-name="n" unicode="n" 
d="M1092 0h-297v565q0 91 -46 144t-133 53q-89 0 -135 -55q-47 -59 -47 -142v-565h-297v1018h295v-133h2q27 46 70.5 80.5t89.5 48.5q81 24 129 24q93 0 165.5 -33.5t116 -91t65.5 -128.5t22 -152v-633z" />
    <glyph glyph-name="o" unicode="o" horiz-adv-x="1259" 
d="M74 506q0 145 76 272q75 126 202 195q132 69 281 69q155 0 278 -69q128 -68 201 -191q74 -121 74 -270q0 -148 -74 -272q-76 -125 -203 -193q-128 -70 -280 -70q-151 0 -281 68q-126 70 -198 191q-76 127 -76 270zM451 696q-72 -75 -72 -186t72 -186q74 -74 180 -74
q104 0 178 74q72 69 72 186q0 114 -72 186q-74 74 -180 74q-104 0 -178 -74z" />
    <glyph glyph-name="p" unicode="p" horiz-adv-x="1306" 
d="M137 1018h295v-127h4q111 147 312 147q106 0 199.5 -45.5t156.5 -122.5q127 -159 127 -360q0 -98 -35 -194t-98 -169q-64 -77 -159 -122t-200 -45q-192 0 -301 133h-4v-615h-297v1520zM500 696q-72 -72 -72 -186t72 -186q74 -74 178 -74q106 0 180 74q72 72 72 186
q0 111 -72 186q-72 72 -180 72q-109 0 -178 -72z" />
    <glyph glyph-name="q" unicode="q" horiz-adv-x="1306" 
d="M1169 -502h-297v617h-2q-102 -135 -309 -135q-105 0 -198 44t-156 119q-62 72 -96.5 168.5t-34.5 198.5q0 77 22.5 153.5t65.5 144t101.5 119t136.5 81.5t163 30q61 0 135 -20q97 -26 172 -117h5v117h292v-1520zM809 324q72 75 72 186t-72 186q-72 72 -180 72
q-106 0 -178 -72q-74 -74 -74 -186t74 -186q71 -74 178 -74q106 0 180 74z" />
    <glyph glyph-name="r" unicode="r" horiz-adv-x="806" 
d="M766 1018v-291q-54 8 -94 8q-112 0 -177 -76.5t-65 -212.5v-446h-293v1018h283v-148h2q75 158 264 158q35 0 80 -10z" />
    <glyph glyph-name="s" unicode="s" horiz-adv-x="987" 
d="M502 -23q-84 0 -158 21.5t-121 56.5q-50 35 -82 78q-62 73 -69 158l262 55q6 -56 49 -96q46 -43 115 -43q55 0 86.5 26.5t31.5 61.5q0 67 -98 88l-129 29q-144 32 -218.5 108.5t-74.5 188.5q0 141 111 235q113 98 278 98q115 0 200.5 -38.5t135.5 -100.5q62 -73 72 -153
l-258 -56q-11 56 -49 88.5t-99 32.5q-50 0 -81 -25t-31 -61q0 -59 80 -74l141 -30q149 -29 229 -111t80 -199q0 -133 -98 -231q-51 -49 -130.5 -78t-174.5 -29z" />
    <glyph glyph-name="t" unicode="t" horiz-adv-x="872" 
d="M786 760h-251v-385q0 -63 36.5 -97t108.5 -34q41 0 104 8v-242q-74 -24 -178 -24q-368 0 -368 372v402h-197v258h203v319h291v-319h251v-258z" />
    <glyph glyph-name="u" unicode="u" 
d="M127 1018h297v-567q0 -92 44.5 -143.5t133.5 -51.5t135 55q47 56 47 140v567h297v-1018h-293v127h-4q-102 -147 -282 -147q-91 0 -164.5 32t-118.5 90q-92 115 -92 277v639z" />
    <glyph glyph-name="v" unicode="v" horiz-adv-x="1183" 
d="M741 0h-301l-413 1018h315l250 -680l252 680h315z" />
    <glyph glyph-name="w" unicode="w" horiz-adv-x="1701" 
d="M989 1018l191 -637l192 637h297l-317 -1018h-295l-207 649l-211 -649h-289l-315 1018h303l184 -631h2l191 631h274z" />
    <glyph glyph-name="x" unicode="x" horiz-adv-x="1095" 
d="M741 0l-194 299l-197 -299h-330l367 512l-356 506h336l182 -287l188 287h328l-358 -498l368 -520h-334z" />
    <glyph glyph-name="y" unicode="y" horiz-adv-x="1165" 
d="M522 -502h-317l248 611l-428 909h327l254 -582l228 582h307z" />
    <glyph glyph-name="z" unicode="z" horiz-adv-x="1030" 
d="M82 0v231l475 533h-461v254h844v-227l-481 -537h483v-254h-860z" />
    <glyph glyph-name="braceleft" unicode="{" horiz-adv-x="862" 
d="M793 -8v-232h-142q-114 0 -195.5 20.5t-141 69t-81 137t-2.5 216.5l31 203q15 102 -37 145q-55 39 -157 39h-29v233h29q106 0 157 39q52 40 37 144l-31 202q-18 127 3 215t79.5 137.5t140.5 71t197 21.5h142v-232h-113q-103 0 -147 -28.5t-46.5 -91t13.5 -162.5l24 -168
q2 -30 2.5 -61.5t-13 -63t-35.5 -58.5t-63.5 -48.5t-97.5 -32.5q57 -11 98.5 -33t63.5 -49.5t35 -59.5t12.5 -63t-2.5 -60l-24 -168q-16 -101 -13 -163.5t46.5 -90.5t146.5 -28h113z" />
    <glyph glyph-name="bar" unicode="|" horiz-adv-x="595" 
d="M170 -221v1921h256v-1921h-256z" />
    <glyph glyph-name="braceright" unicode="}" horiz-adv-x="862" 
d="M70 -240v232h112q103 0 146.5 28t46.5 90.5t-13 163.5l-24 168q-2 29 -2.5 60t13 63t35.5 59.5t63.5 49.5t97.5 33q-56 11 -97.5 32.5t-63.5 48.5t-35.5 58.5t-13 63t2.5 61.5l24 168q17 100 14 162.5t-47 91t-147 28.5h-112v232h143q114 0 195 -21.5t140 -71t80 -137.5
t3 -215l-29 -202q-15 -103 35 -144q51 -39 158 -39h28v-233h-28q-103 0 -158 -39q-49 -43 -35 -145l29 -203q13 -75 7.5 -135t-18.5 -106t-42 -80.5t-64 -57.5t-83.5 -37.5t-101 -20.5t-116.5 -6h-143z" />
    <glyph glyph-name="asciitilde" unicode="~" horiz-adv-x="1220" 
d="M811 365q-53 0 -115 24q-50 20 -104 53q-51 35 -94 56q-60 24 -88 24q-56 0 -105 -53q-16 -16 -39 -49l-166 158q123 208 310 208q60 0 125 -24q59 -19 108 -53q72 -45 90 -54q49 -24 78 -24q40 0 73.5 25.5t71.5 74.5l166 -156q-124 -210 -311 -210z" />
    <glyph glyph-name="uni00A0" unicode="&#xa0;" horiz-adv-x="479" 
 />
    <glyph glyph-name="exclamdown" unicode="&#xa1;" horiz-adv-x="616" 
d="M436 987q53 -53 53 -129q0 -75 -53 -131q-55 -55 -129 -55q-78 0 -133 55q-53 53 -53 131q0 76 53 129q55 55 133 55q74 0 129 -55zM444 502l29 -674v-301h-328v299l29 676h270z" />
    <glyph glyph-name="cent" unicode="&#xa2;" horiz-adv-x="1212" 
d="M870 410l271 -82q-27 -99 -94 -175.5t-156 -117.5q-85 -39 -189 -51v-179h-155v181q-207 27 -334 172q-129 144 -129 350q0 200 131 346q130 148 332 178v182h155v-180q156 -14 277 -102t156 -236l-269 -82q-18 54 -61.5 94t-106.5 54v-504q125 24 172 152zM389 512
q0 -91 43.5 -157t118.5 -91v492q-75 -25 -118.5 -89t-43.5 -155z" />
    <glyph glyph-name="sterling" unicode="&#xa3;" horiz-adv-x="1351" 
d="M979 485l301 -26q-22 -210 -123 -328q-109 -131 -317 -131h-725v268q89 44 155 107q78 75 78 170q0 23 -8 73h-223v244h139q-39 104 -39 193q0 131 70 235q64 102 180 160q110 55 240 55q208 0 340 -114q131 -116 149 -322l-305 -49q-14 79 -53 135q-43 59 -127 59
q-72 0 -123 -45q-49 -46 -49 -118q0 -78 47 -189h387v-244h-307q2 -14 2 -32q0 -82 -33 -158q-34 -79 -92 -131h282q50 3 78.5 22.5t46.5 59.5q14 40 29 106z" />
    <glyph glyph-name="currency" unicode="&#xa4;" horiz-adv-x="1290" 
d="M1024 -47l-164 168q-102 -51 -215 -51q-111 0 -213 51l-166 -166l-182 182l162 160q-58 101 -58 219q0 113 56 219l-160 164l182 180l166 -168q104 52 213 52q119 0 213 -52l164 166l182 -180l-160 -162q60 -102 60 -219q0 -110 -60 -221l162 -160zM780 651
q-54 54 -137 54q-80 0 -137 -54q-53 -56 -53 -137q0 -82 53 -135q54 -51 137 -51q86 0 137 51q56 53 56 135q0 81 -56 137z" />
    <glyph glyph-name="yen" unicode="&#xa5;" horiz-adv-x="1480" 
d="M1331 788v-194h-436v-113h436v-196h-436v-285h-309v285h-436v196h436v113h-436v194h335l-419 705h358l315 -588l322 588h352l-422 -705h340z" />
    <glyph glyph-name="brokenbar" unicode="&#xa6;" horiz-adv-x="593" 
d="M424 954h-256v746h256v-746zM168 522h256v-743h-256v743z" />
    <glyph glyph-name="section" unicode="&#xa7;" horiz-adv-x="1269" 
d="M647 -23q-221 0 -360 86t-174 220l225 96q11 -29 30.5 -55t54 -53t91.5 -43.5t129 -16.5q66 0 104.5 24t38.5 62q0 36 -38 59q-43 28 -144 50l-158 38q-172 40 -266 114.5t-94 174.5q0 184 190 254q-44 35 -68 88t-24 109q0 152 123 241q125 93 324 93q196 0 327 -76
q133 -79 179 -207l-219 -105q-30 70 -104 112t-183 42q-63 0 -103.5 -25.5t-40.5 -60.5q0 -34 29 -57q31 -27 117 -45l192 -47q174 -42 267.5 -115.5t93.5 -175.5q0 -181 -191 -252q43 -32 67.5 -85t24.5 -110q0 -151 -118 -241q-119 -93 -322 -93zM481 879
q-52 0 -85.5 -25.5t-33.5 -71.5q0 -73 203 -123q12 -4 13 -4q68 -17 71 -18q13 -3 35 -6q77 -15 109 -15q49 0 82.5 26.5t33.5 72.5q0 72 -202 121q-12 4 -13 4q-3 0 -7.5 1t-12.5 3t-15 4q-24 6 -36 10q-7 2 -33 6q-70 13 -109 15z" />
    <glyph glyph-name="dieresis" unicode="&#xa8;" horiz-adv-x="839" 
d="M305 1225q-47 -47 -117 -47q-72 0 -116 47q-47 50 -47 116q0 67 47 117q46 49 116 49q68 0 117 -49t49 -117q0 -67 -49 -116zM760 1225q-47 -47 -117 -47q-73 0 -117 47q-47 47 -47 116q0 70 47 117q46 49 117 49q68 0 117 -49t49 -117q0 -67 -49 -116z" />
    <glyph glyph-name="copyright" unicode="&#xa9;" horiz-adv-x="1703" 
d="M1143 43q-142 -61 -296.5 -61.5t-293.5 59.5q-136 60 -244 164q-104 104 -162 244q-61 140 -61 299q0 156 61 296q62 145 166 246q97 100 244 164q142 62 295 62q152 0 297 -60q140 -61 244 -162q101 -101 163 -243q62 -145 62 -299q0 -155 -62 -297q-66 -147 -167 -248
q-106 -103 -246 -164zM850 1391q-165 0 -313 -86q-148 -88 -230 -234q-86 -151 -86 -323q0 -131 51 -248q48 -117 136 -205q80 -83 200 -137q116 -52 242 -52q127 0 246 52q117 54 200 137q86 86 138 205q51 124 51 248q0 128 -51 249q-54 124 -138 205q-83 83 -200 137
q-119 52 -246 52zM1069 659l240 -73q-28 -102 -99 -170q-78 -78 -161 -105q-90 -35 -189 -35q-210 0 -350 134q-137 137 -137 335q0 202 143 336q141 138 348 138q214 0 346 -138q72 -72 93 -170l-240 -71q-14 53 -70 96q-56 41 -133 41q-88 0 -153 -62q-62 -65 -62 -167
q0 -99 62 -164q61 -64 153 -64q78 0 132 38.5t77 100.5z" />
    <glyph glyph-name="ordfeminine" unicode="&#xaa;" horiz-adv-x="1050" 
d="M688 819h-2q-70 -94 -217 -94q-102 0 -178 53q-78 52 -119 135q-41 81 -41 181q0 93 42.5 175.5t121.5 137.5t176 55q138 0 215 -96h2v82h205v-711h-205v82zM641 965q51 48 51 129q0 80 -51 131q-52 49 -125 49t-125 -49q-51 -54 -51 -131q0 -78 51 -129q52 -52 125 -52
t125 52zM139 565v-186h754v186h-754z" />
    <glyph glyph-name="guillemotleft" unicode="&#xab;" horiz-adv-x="1284" 
d="M500 1014l159 -158l-284 -281l287 -282l-164 -158l-445 438zM1024 1014l162 -158l-285 -281l285 -282l-162 -158l-444 438z" />
    <glyph glyph-name="logicalnot" unicode="&#xac;" horiz-adv-x="1370" 
d="M92 795v270h1143v-616h-291v346h-852z" />
    <glyph glyph-name="uni00AD" unicode="&#xad;" horiz-adv-x="874" 
d="M123 471v295h629v-295h-629z" />
    <glyph glyph-name="registered" unicode="&#xae;" horiz-adv-x="1243" 
d="M885 530q-120 -69 -264 -69q-146 0 -263 69q-119 70 -190 191q-70 124 -70 262q0 136 70 264q71 121 190 191q117 69 263 69q144 0 264 -69q119 -70 190 -191q70 -122 70 -264q0 -143 -70 -262q-71 -121 -190 -191zM834 1356q-102 57 -213 57q-114 0 -211 -57
q-99 -58 -156 -158q-57 -96 -57 -215q0 -175 125 -303q125 -125 299 -125q112 -3 211.5 55.5t158 159t56.5 213.5q0 117 -58 215q-53 98 -155 158zM635 899h-92v-215h-123v600h235q93 0 154 -49q59 -47 59 -141q0 -126 -112 -172l125 -238h-138zM743 1092q0 73 -96 73h-104
v-149h104q42 0 69 19.5t27 56.5z" />
    <glyph glyph-name="degree" unicode="&#xb0;" horiz-adv-x="878" 
d="M438 786q-146 0 -254 105q-104 107 -104 256q0 147 104 254q107 104 254 104q152 0 256 -104q105 -108 105 -254q0 -151 -105 -256t-256 -105zM438 1298q-65 0 -108 -43t-43 -108q0 -66 43 -109q42 -45 108 -45q67 0 109 45q45 45 45 109q0 59 -47 106q-45 45 -107 45z
" />
    <glyph glyph-name="plusminus" unicode="&#xb1;" horiz-adv-x="1255" 
d="M768 399h-268v318h-377v274h377v316h268v-316h367v-274h-367v-318zM1126 264v-264h-995v264h995z" />
    <glyph glyph-name="uni00B2" unicode="&#xb2;" horiz-adv-x="892" 
d="M778 811h-669v70q0 124 88 227q53 59 133 106l119 68q96 56 96 125q0 38 -28 63t-77 25q-51 0 -79.5 -34t-28.5 -97l-219 35q6 128 96 215q93 84 235 84q144 0 238 -82q92 -86 92 -205q0 -84 -47 -156t-131 -120l-141 -82q-38 -26 -56 -41h379v-201z" />
    <glyph glyph-name="uni00B3" unicode="&#xb3;" horiz-adv-x="874" 
d="M778 1085q0 -131 -102 -211q-101 -79 -242 -79q-147 0 -239 77q-97 75 -103 211l215 35q2 -57 35 -91t88 -34q50 0 85.5 26t35.5 71q0 41 -37 65q-38 23 -82 23q-30 0 -65 -15l-97 154l213 164h-381v196h666v-180l-199 -154q87 -21 150 -96q59 -74 59 -162z" />
    <glyph glyph-name="acute" unicode="&#xb4;" horiz-adv-x="581" 
d="M221 1544h342l-303 -356h-244z" />
    <glyph glyph-name="uni00B5" unicode="&#xb5;" horiz-adv-x="1269" 
d="M455 1018v-567q0 -92 44.5 -143.5t133.5 -51.5t135 55q47 56 47 140v567h297v-1018h-293v127h-4q-94 -143 -256 -143q-15 0 -57 10q-34 8 -56 22v-329h-288v1331h297z" />
    <glyph glyph-name="paragraph" unicode="&#xb6;" horiz-adv-x="1075" 
d="M592 686h-100q-178 0 -302 121q-127 118 -127 285q-2 107 57 201t158.5 148t213.5 52h395v-1493h-295v686z" />
    <glyph glyph-name="middot" unicode="&#xb7;" horiz-adv-x="614" 
d="M307 395q-82 0 -145 60q-62 62 -62 145q0 86 62 148q61 61 145 61q87 0 148 -61q59 -62 59 -148q0 -84 -61 -145q-60 -60 -146 -60z" />
    <glyph glyph-name="uni00B9" unicode="&#xb9;" horiz-adv-x="714" 
d="M580 1677v-866h-252v608l-201 -112l-98 180l327 190h224z" />
    <glyph glyph-name="ordmasculine" unicode="&#xba;" horiz-adv-x="1032" 
d="M131 1092q0 155 113 262q114 108 272 108q160 0 272 -106q113 -104 113 -260q0 -161 -113 -265q-112 -106 -274 -106t-272 104q-111 105 -111 263zM340 1094q0 -78 51 -129q49 -52 125 -52q73 0 123 50q51 51 51 131q0 78 -51 129t-125 51q-75 0 -123 -51
q-51 -54 -51 -129zM891 565v-186h-752v186h752z" />
    <glyph glyph-name="guillemotright" unicode="&#xbb;" horiz-adv-x="1284" 
d="M100 856l160 158l447 -441l-445 -438l-164 158l287 280zM625 856l161 158l445 -441l-445 -438l-161 158l284 280z" />
    <glyph glyph-name="onequarter" unicode="&#xbc;" horiz-adv-x="1882" 
d="M606 627h-252v610l-198 -113l-99 181l328 188h221v-866zM1522 1493l-971 -1493h-260l973 1493h258zM1657 156v-156h-223v156h-437v245l383 463h277v-510h143v-198h-143zM1434 637l-232 -283h232v283z" />
    <glyph glyph-name="onehalf" unicode="&#xbd;" horiz-adv-x="1888" 
d="M608 627l-252 2v608l-198 -113l-101 181l330 188h221v-866zM1524 1493l-971 -1493h-260l973 1493h258zM1122 0v68q0 208 221 335l119 68q97 54 97 125q0 38 -28 63t-77 25q-51 0 -79.5 -34.5t-28.5 -96.5l-220 33q6 133 97 215q89 86 235 86q145 0 238 -84
q92 -83 92 -205q0 -83 -46.5 -155t-131.5 -119l-142 -84q-36 -22 -55 -41h379v-199h-670z" />
    <glyph glyph-name="threequarters" unicode="&#xbe;" horiz-adv-x="1955" 
d="M764 903q0 -135 -100 -213q-106 -80 -244 -80q-147 0 -240 78q-94 76 -100 213l217 33q0 -56 33 -90.5t88 -34.5q50 0 85.5 25.5t35.5 70.5q0 42 -37 66q-34 22 -82 22q-32 0 -66 -12l-96 152l213 163h-379v197h664v-178l-199 -156q86 -20 150 -94q57 -72 57 -162z
M1610 1493l-969 -1493h-260l971 1493h258zM1747 156v-156h-221v156h-439v245l383 463h277v-510h141v-198h-141zM1526 637l-236 -283h236v283z" />
    <glyph glyph-name="questiondown" unicode="&#xbf;" horiz-adv-x="1099" 
d="M709 987q53 -50 53 -129q0 -78 -53 -131q-55 -55 -129 -55q-79 0 -131 55q-56 53 -56 131q0 76 56 129q52 55 131 55q74 0 129 -55zM444 516h283q4 -40 4 -57q0 -72 -35 -135.5t-92 -110.5q-66 -55 -104 -84q-127 -103 -127 -203q0 -71 51 -110q49 -37 123 -37
q91 0 143 61q55 61 55 150q0 17 -8 71l295 -24q8 -41 8 -94q0 -136 -69 -236q-70 -98 -183 -151q-113 -52 -243 -52q-188 0 -330 105q-71 53 -112.5 131.5t-41.5 171.5q0 210 207 364q81 60 124 116t52 124z" />
    <glyph glyph-name="Agrave" unicode="&#xc0;" horiz-adv-x="1509" 
d="M881 1630h-246l-301 357h342zM-2 0l571 1493h371l573 -1493h-319l-119 319h-643l-119 -319h-315zM969 606l-217 588l-217 -588h434z" />
    <glyph glyph-name="Aacute" unicode="&#xc1;" horiz-adv-x="1509" 
d="M840 1987h340l-301 -357h-244zM432 319l-119 -319h-315l571 1493h371l573 -1493h-319l-119 319h-643zM969 606l-217 588l-217 -588h434z" />
    <glyph glyph-name="Acircumflex" unicode="&#xc2;" horiz-adv-x="1509" 
d="M750 1802l-115 -174h-254l229 332h281l229 -332h-252zM-2 0l571 1493h371l573 -1493h-319l-119 319h-643l-119 -319h-315zM969 606l-217 588l-217 -588h434z" />
    <glyph glyph-name="Atilde" unicode="&#xc3;" horiz-adv-x="1509" 
d="M918 1628q-88 0 -158 45q-72 45 -121 45q-53 0 -59 -90h-174l-3 49q-5 113 51 179.5t164 66.5q55 2 151.5 -44t121.5 -44q26 3 38.5 11.5t18.5 27.5q5 17 10 45h168l2 -47q6 -112 -48.5 -178t-161.5 -66zM432 319l-119 -319h-315l571 1493h371l573 -1493h-319l-119 319
h-643zM969 606l-217 588l-217 -588h434z" />
    <glyph glyph-name="Adieresis" unicode="&#xc4;" horiz-adv-x="1509" 
d="M635 1661q-44 -47 -117 -47q-70 0 -117 47t-47 119q0 69 47 116q47 50 117 50t117 -50q49 -49 49 -116q0 -70 -49 -119zM991 1614q-70 0 -114 47q-50 50 -50 119q0 66 47 116t117 50q67 0 117 -50q49 -49 49 -116q0 -70 -49 -119q-47 -47 -117 -47zM432 319l-119 -319
h-315l571 1493h371l573 -1493h-319l-119 319h-643zM969 606l-217 588l-217 -588h434z" />
    <glyph glyph-name="Aring" unicode="&#xc5;" horiz-adv-x="1509" 
d="M1194 0l-119 317h-645l-117 -317h-315l534 1401q-75 78 -75 188q0 117 88 199t207 82q123 0 211 -82q86 -83 86 -199q0 -106 -74 -186l538 -1403h-319zM752 1704q-54 0 -88.5 -32.5t-34.5 -82.5q0 -45 37 -82q34 -34 86 -34q54 0 88 34q34 37 34 82q0 46 -34 80
q-41 35 -88 35zM752 1194l-217 -588h434z" />
    <glyph glyph-name="AE" unicode="&#xc6;" horiz-adv-x="2009" 
d="M-25 0l758 1493h1161v-289h-659v-305h590v-289h-590v-321h666v-289h-971v297h-475l-148 -297h-332zM598 584h332v622h-19z" />
    <glyph glyph-name="Ccedilla" unicode="&#xc7;" horiz-adv-x="1609" 
d="M987 -193q0 -158 -96 -233q-101 -72 -264 -72q-79 0 -138 17v200q47 -8 99 -8q81 0 122.5 47t41.5 133q0 48 -19 97q-132 18 -250 81t-209 160q-91 98 -141.5 232t-50.5 284q0 159 63 310q64 140 170 243q103 100 248 160q147 58 295 58q119 0 226 -30.5t186 -82.5
q72 -44 135 -113q109 -118 147 -258l-292 -100q-10 47 -51.5 106t-106.5 105q-102 71 -248 71q-128 0 -231 -63q-106 -62 -162 -168q-60 -111 -60 -235q0 -128 58 -235t162 -171q107 -66 233 -66q146 0 248 74q37 25 80 72q64 75 84 153l295 -102q-19 -81 -82 -176
t-160 -170q-70 -54 -166.5 -92.5t-200.5 -50.5q35 -81 35 -177z" />
    <glyph glyph-name="Egrave" unicode="&#xc8;" horiz-adv-x="1271" 
d="M858 1630h-244l-303 357h344zM1087 610h-600v-321h676v-289h-989v1493h983v-289h-670v-305h600v-289z" />
    <glyph glyph-name="Eacute" unicode="&#xc9;" horiz-adv-x="1271" 
d="M678 1987h342l-303 -357h-244zM1163 0h-989v1493h983v-289h-670v-305h600v-289h-600v-321h676v-289z" />
    <glyph glyph-name="Ecircumflex" unicode="&#xca;" horiz-adv-x="1271" 
d="M672 1802l-117 -174h-258l235 332h279l229 -332h-252zM1087 610h-600v-321h676v-289h-989v1493h983v-289h-670v-305h600v-289z" />
    <glyph glyph-name="Edieresis" unicode="&#xcb;" horiz-adv-x="1263" 
d="M422 1614q-71 0 -115 47q-49 49 -49 119q0 67 49 116q47 50 115 50q69 0 119 -50q47 -47 47 -116q0 -72 -47 -119t-119 -47zM897 1614q-73 0 -117 47q-49 49 -49 119q0 66 47 116q50 50 119 50q67 0 117 -50q49 -49 49 -116q0 -70 -49 -119q-47 -47 -117 -47zM174 1493
h977v-289h-672v-305h602v-289h-602v-321h678v-289h-983v1493z" />
    <glyph glyph-name="Igrave" unicode="&#xcc;" horiz-adv-x="657" 
d="M451 1630h-246l-301 357h342zM174 0v1493h309v-1493h-309z" />
    <glyph glyph-name="Iacute" unicode="&#xcd;" horiz-adv-x="657" 
d="M410 1987h342l-301 -357h-246zM483 1493v-1493h-309v1493h309z" />
    <glyph glyph-name="Icircumflex" unicode="&#xce;" horiz-adv-x="657" 
d="M330 1802l-115 -174h-258l233 332h281l229 -332h-251zM174 0v1493h309v-1493h-309z" />
    <glyph glyph-name="Idieresis" unicode="&#xcf;" horiz-adv-x="657" 
d="M106 1614q-72 0 -116 47q-49 49 -49 119q0 67 49 116q47 50 116 50q67 0 117 -50q49 -49 49 -116q0 -70 -49 -119q-47 -47 -117 -47zM670 1661q-47 -47 -117 -47q-73 0 -117 47q-49 49 -49 119q0 66 47 116q50 50 119 50q67 0 117 -50q47 -47 47 -116q0 -72 -47 -119z
M483 1493v-1493h-309v1493h309z" />
    <glyph glyph-name="Eth" unicode="&#xd0;" horiz-adv-x="1599" 
d="M215 1493h457q390 0 616 -197q225 -196 225 -546q0 -166 -58 -305t-167 -236q-110 -100 -270 -154.5t-352 -54.5h-451v610h-182v285h182v598zM522 293h152q238 0 381 119q143 122 143 338q0 144 -69 247.5t-185 154t-266 50.5h-156v-307h318v-285h-318v-317z" />
    <glyph glyph-name="Ntilde" unicode="&#xd1;" horiz-adv-x="1660" 
d="M981 1628q-89 0 -156 45q-72 45 -120 45q-57 0 -60 -90h-176l-2 49q-5 113 51 179.5t166 66.5q43 2 98 -21t101.5 -46t70.5 -21q27 3 39.5 11.5t20.5 27.5q6 19 8 45h170l2 -47q5 -112 -50.5 -178t-162.5 -66zM487 0h-313v1493h367l641 -1010v1010h305v-1493h-350
l-650 1026v-1026z" />
    <glyph glyph-name="Ograve" unicode="&#xd2;" horiz-adv-x="1714" 
d="M991 1630h-243l-302 357h342zM82 745q0 159 61 302t166 245q100 100 250 164q148 60 301 60q163 0 303 -60q142 -59 246 -160q103 -103 164 -243q59 -142 59 -301q0 -161 -61 -301q-63 -148 -166 -248q-107 -107 -248 -164q-145 -62 -303 -62q-159 0 -302 59.5t-246 162
t-163.5 245t-60.5 301.5zM459 512q61 -108 166 -172q107 -64 233 -64q128 0 232 64q105 62 167 172q60 111 60 236q0 124 -60 235q-63 110 -165 170q-107 64 -234 64q-126 0 -233 -64q-104 -61 -166 -170q-60 -111 -60 -235q0 -125 60 -236z" />
    <glyph glyph-name="Oacute" unicode="&#xd3;" horiz-adv-x="1714" 
d="M932 1987h340l-301 -357h-244zM82 745q0 159 61 302t166 245q100 100 250 164q148 60 301 60q163 0 303 -60q142 -59 246 -160q103 -103 164 -243q59 -142 59 -301q0 -161 -61 -301q-63 -148 -166 -248q-107 -107 -248 -164q-145 -62 -303 -62q-159 0 -302 59.5t-246 162
t-163.5 245t-60.5 301.5zM459 983q-60 -111 -60 -235q0 -125 60 -236q61 -108 166 -172q107 -64 233 -64q128 0 232 64q105 62 167 172q60 111 60 236q3 125 -59 234t-169 173t-231 62q-126 0 -233 -64q-104 -61 -166 -170z" />
    <glyph glyph-name="Ocircumflex" unicode="&#xd4;" horiz-adv-x="1714" 
d="M864 1802l-116 -174h-254l231 332h279l229 -332h-252zM82 745q0 159 61 302t166 245q100 100 250 164q148 60 301 60q163 0 303 -60q142 -59 246 -160q103 -103 164 -243q59 -142 59 -301q0 -161 -61 -301q-63 -148 -166 -248q-107 -107 -248 -164q-145 -62 -303 -62
q-159 0 -302 59.5t-246 162t-163.5 245t-60.5 301.5zM459 512q61 -108 166 -172q107 -64 233 -64q128 0 232 64q105 62 167 172q60 111 60 236q0 124 -60 235q-63 110 -165 170q-107 64 -234 64q-126 0 -233 -64q-104 -61 -166 -170q-60 -111 -60 -235q0 -125 60 -236z" />
    <glyph glyph-name="Otilde" unicode="&#xd5;" horiz-adv-x="1714" 
d="M1010 1628q-88 0 -158 45q-72 45 -121 45q-53 0 -59 -90h-174l-2 49q-5 113 51 179.5t164 66.5q55 2 151 -44t121 -44q26 3 38.5 11.5t18.5 27.5q8 25 11 45h168l2 -47q6 -112 -49 -178t-162 -66zM82 745q0 159 61 302t166 245q100 100 250 164q148 60 301 60
q163 0 303 -60q142 -59 246 -160q103 -103 164 -243q59 -142 59 -301q0 -161 -61 -301q-63 -148 -166 -248q-107 -107 -248 -164q-145 -62 -303 -62q-159 0 -302 59.5t-246 162t-163.5 245t-60.5 301.5zM459 983q-60 -111 -60 -235q0 -125 60 -236q61 -108 166 -172
q107 -64 233 -64q128 0 232 64q105 62 167 172q60 111 60 236q3 125 -59 234t-169 173t-231 62q-126 0 -233 -64q-104 -61 -166 -170z" />
    <glyph glyph-name="Odieresis" unicode="&#xd6;" horiz-adv-x="1714" 
d="M623 1614q-71 0 -115 47q-49 49 -49 119q0 66 47 116t117 50q66 0 116 -50q49 -49 49 -116q0 -70 -49 -119q-47 -47 -116 -47zM1096 1614q-71 0 -115 47q-49 49 -49 119q0 66 47 116t117 50q66 0 116 -50t50 -116q0 -69 -50 -119q-47 -47 -116 -47zM82 745q0 159 61 302
t166 245q100 100 250 164q148 60 301 60q163 0 303 -60q142 -59 246 -160q103 -103 164 -243q59 -142 59 -301q0 -161 -61 -301q-63 -148 -166 -248q-107 -107 -248 -164q-145 -62 -303 -62q-159 0 -302 59.5t-246 162t-163.5 245t-60.5 301.5zM459 983q-60 -111 -60 -235
q0 -125 60 -236q61 -108 166 -172q107 -64 233 -64q128 0 232 64q105 62 167 172q60 111 60 236q3 125 -59 234t-169 173t-231 62q-126 0 -233 -64q-104 -61 -166 -170z" />
    <glyph glyph-name="multiply" unicode="&#xd7;" horiz-adv-x="1269" 
d="M283 160l-183 180l355 354l-355 355l183 180l352 -352l354 352l180 -180l-352 -355l352 -354l-180 -180l-354 352z" />
    <glyph glyph-name="Oslash" unicode="&#xd8;" horiz-adv-x="1720" 
d="M1634 1411l-168 -176q168 -207 168 -483q0 -161 -61 -301q-63 -148 -166 -248q-107 -107 -248 -164q-145 -62 -303 -62q-247 0 -446 140l-170 -172l-154 143l168 174q-170 209 -170 483q0 161 63 302q61 143 166 245q101 101 248 164q148 60 303 60q248 0 447 -138
l170 176zM397 748q0 -138 74 -256l631 659q-112 68 -242 68q-123 2 -231 -62.5t-171.5 -174.5t-60.5 -234zM860 276q123 -4 231.5 61.5t171.5 176t60 234.5q0 143 -74 258l-633 -662q112 -68 244 -68z" />
    <glyph glyph-name="Ugrave" unicode="&#xd9;" horiz-adv-x="1515" 
d="M891 1630h-244l-301 357h342zM1053 592v901h305v-891q0 -289 -154 -457q-149 -165 -448 -165q-305 0 -455 170q-141 160 -141 442v901h309l-2 -895q0 -158 82 -240q79 -82 209 -82q139 0 217 84q78 87 78 232z" />
    <glyph glyph-name="Uacute" unicode="&#xda;" horiz-adv-x="1515" 
d="M838 1987h340l-301 -357h-244zM1358 1493v-891q0 -289 -154 -457q-149 -165 -448 -165q-305 0 -455 170q-141 160 -141 442v901h309l-2 -895q0 -158 82 -240q79 -82 209 -82q139 0 217 84q78 87 78 232v901h305z" />
    <glyph glyph-name="Ucircumflex" unicode="&#xdb;" horiz-adv-x="1515" 
d="M760 1802l-115 -174h-258l234 332h278l229 -332h-251zM1053 592v901h305v-891q0 -289 -154 -457q-149 -165 -448 -165q-305 0 -455 170q-141 160 -141 442v901h309l-2 -895q0 -158 82 -240q79 -82 209 -82q139 0 217 84q78 87 78 232z" />
    <glyph glyph-name="Udieresis" unicode="&#xdc;" horiz-adv-x="1515" 
d="M522 1614q-70 0 -114 47q-50 50 -50 119q0 65 48 116q47 50 116 50q67 0 117 -50q49 -49 49 -116q0 -70 -49 -119q-47 -47 -117 -47zM995 1614q-70 0 -114 47q-50 50 -50 119q0 65 48 116q47 50 116 50q67 0 117 -50q49 -49 49 -116q0 -70 -49 -119q-47 -47 -117 -47z
M1358 1493v-891q0 -289 -154 -457q-149 -165 -448 -165q-305 0 -455 170q-141 160 -141 442v901h309l-2 -895q0 -158 82 -240q79 -82 209 -82q139 0 217 84q78 87 78 232v901h305z" />
    <glyph glyph-name="Yacute" unicode="&#xdd;" horiz-adv-x="1460" 
d="M819 1987h340l-301 -357h-244zM580 0v590l-553 903h362l344 -598l348 598h353l-545 -889v-604h-309z" />
    <glyph glyph-name="Thorn" unicode="&#xde;" horiz-adv-x="1318" 
d="M481 1239h246q323 0 465 -215q72 -113 72 -262q0 -119 -41 -213.5t-115 -153.5q-150 -119 -391 -119h-236v-276h-307v1493h307v-254zM950 754q0 101 -70.5 147.5t-177.5 46.5h-219v-387h219q107 0 177 47q71 50 71 146z" />
    <glyph glyph-name="germandbls" unicode="&#xdf;" horiz-adv-x="1325" 
d="M1260 317q0 -105 -53 -184t-142 -117q-85 -39 -195 -39q-80 0 -149 27.5t-115 73.5q-89 89 -92 198l238 41q3 -37 34 -73q30 -35 84 -35q47 0 79 28.5t32 71.5q0 73 -117 117l-71 27q-218 86 -218 260q0 74 37 141q11 19 37 45q9 10 20.5 19.5t12.5 9.5q14 7 27 18l63 41
q88 57 88 143q0 87 -74 127q-70 31 -129 31q-111 0 -165 -78q-58 -76 -58 -196v-1014h-297v1036q0 241 139 383q137 137 377 137q111 0 216 -38.5t178 -110.5q108 -108 108 -266q0 -102 -37 -170q-16 -32 -43 -56q-39 -39 -98 -75l-51 -33q-28 -17 -38.5 -32t-10.5 -36
t13 -33.5t52 -27.5l57 -23q131 -52 196 -133.5t65 -204.5z" />
    <glyph glyph-name="agrave" unicode="&#xe0;" horiz-adv-x="1126" 
d="M696 1188h-243l-301 356h340zM418 -20q-138 0 -238 83q-100 84 -100 222v8q0 198 205 270q108 41 243 41h99q39 0 59.5 18.5t20.5 51.5q0 56 -42.5 91.5t-117.5 35.5q-67 0 -116 -37t-66 -102l-263 59q18 105 88 178q69 75 166 109q93 34 205 34q195 2 316.5 -106
t121.5 -305v-467q0 -58 9 -164h-277q-6 40 -6 127h-4q-107 -147 -303 -147zM504 197q91 0 147 59q56 56 56 137v25h-179q-52 0 -100 -31q-49 -30 -49 -86q0 -49 35 -76.5t90 -27.5z" />
    <glyph glyph-name="aacute" unicode="&#xe1;" horiz-adv-x="1126" 
d="M637 1544h342l-303 -356h-244zM418 -20q-138 0 -238 83q-100 84 -100 222v8q0 198 205 270q108 41 243 41h99q39 0 59.5 18.5t20.5 51.5q0 56 -42.5 91.5t-117.5 35.5q-67 0 -116 -37t-66 -102l-263 59q18 105 88 178q69 75 166 109q93 34 205 34q195 2 316.5 -106
t121.5 -305v-467q0 -58 9 -164h-277q-6 40 -6 127h-4q-107 -147 -303 -147zM504 197q91 0 147 59q56 56 56 137v25h-179q-52 0 -100 -31q-49 -30 -49 -86q0 -49 35 -76.5t90 -27.5z" />
    <glyph glyph-name="acircumflex" unicode="&#xe2;" horiz-adv-x="1126" 
d="M563 1364l-114 -174h-254l229 332h278l230 -332h-252zM418 -20q-138 0 -238 83q-100 84 -100 222v8q0 198 205 270q108 41 243 41h99q39 0 59.5 18.5t20.5 51.5q0 56 -42.5 91.5t-117.5 35.5q-67 0 -116 -37t-66 -102l-263 59q18 105 88 178q69 75 166 109q93 34 205 34
q195 2 316.5 -106t121.5 -305v-467q0 -58 9 -164h-277q-6 40 -6 127h-4q-107 -147 -303 -147zM504 197q91 0 147 59q56 56 56 137v25h-179q-52 0 -100 -31q-49 -30 -49 -86q0 -49 35 -76.5t90 -27.5z" />
    <glyph glyph-name="atilde" unicode="&#xe3;" horiz-adv-x="1126" 
d="M694 1190q-83 0 -155 45t-121 45q-57 0 -60 -88h-176l-2 47q-5 113 51 179.5t166 66.5q55 2 150.5 -44t120.5 -44q26 0 49 18q1 3 4.5 10.5t5.5 12.5q6 17 8 45h170l2 -49q5 -111 -50.5 -177.5t-162.5 -66.5zM418 -20q-138 0 -238 83q-100 84 -100 222v8q0 198 205 270
q108 41 243 41h99q39 0 59.5 18.5t20.5 51.5q0 56 -42.5 91.5t-117.5 35.5q-67 0 -116 -37t-66 -102l-263 59q18 105 88 178q69 75 166 109q93 34 205 34q195 2 316.5 -106t121.5 -305v-467q0 -58 9 -164h-277q-6 40 -6 127h-4q-107 -147 -303 -147zM504 197q91 0 147 59
q56 56 56 137v25h-179q-52 0 -100 -31q-49 -30 -49 -86q0 -49 35 -76.5t90 -27.5z" />
    <glyph glyph-name="adieresis" unicode="&#xe4;" horiz-adv-x="1126" 
d="M451 1225q-47 -47 -119 -47q-70 0 -117 47q-47 50 -47 116q0 67 47 117q46 49 117 49q70 0 119 -49q47 -50 47 -117q0 -66 -47 -116zM903 1225q-47 -47 -117 -47q-69 0 -116 47q-47 50 -47 116q0 67 47 117q46 49 116 49q68 0 117 -49t49 -117q0 -67 -49 -116zM418 -20
q-138 0 -238 83q-100 84 -100 222v8q0 198 205 270q108 41 243 41h99q39 0 59.5 18.5t20.5 51.5q0 56 -42.5 91.5t-117.5 35.5q-67 0 -116 -37t-66 -102l-263 59q18 105 88 178q69 75 166 109q93 34 205 34q195 2 316.5 -106t121.5 -305v-467q0 -58 9 -164h-277
q-6 40 -6 127h-4q-107 -147 -303 -147zM504 197q91 0 147 59q56 56 56 137v25h-179q-52 0 -100 -31q-49 -30 -49 -86q0 -49 35 -76.5t90 -27.5z" />
    <glyph glyph-name="aring" unicode="&#xe5;" horiz-adv-x="1126" 
d="M1008 0h-277q-6 40 -6 127h-4q-107 -147 -303 -147q-138 0 -238 83q-100 84 -100 222v8q0 198 205 270q108 41 243 41h99q39 0 59.5 18.5t20.5 51.5q0 56 -42.5 91.5t-117.5 35.5q-67 0 -116 -37t-66 -102l-263 59q30 180 209 266q-45 68 -45 152q0 115 86 198
q88 82 209 82t209 -82q86 -83 86 -198q0 -83 -47 -154q190 -104 190 -354v-467q0 -58 9 -164zM561 1233q-44 0 -73 -27t-29 -67t29 -68.5t73 -28.5q41 0 71 28.5t30 68.5q0 36 -29 65t-72 29zM707 418h-179q-52 0 -100 -31q-49 -30 -49 -86q0 -49 35 -76.5t90 -27.5
q91 0 147 59q56 56 56 137v25z" />
    <glyph glyph-name="ae" unicode="&#xe6;" horiz-adv-x="1810" 
d="M1731 426h-738q12 -88 84 -145q71 -56 166 -56q65 0 129 39q65 40 88 98l244 -83q-50 -142 -174 -222q-127 -80 -283 -80q-126 0 -234.5 46t-183.5 131q-160 -174 -401 -174h-10q-138 0 -238 83q-100 84 -100 222v8q0 198 205 270q108 41 243 41h99q39 0 59.5 18.5
t20.5 51.5q0 56 -42.5 91.5t-117.5 35.5q-67 0 -116 -37t-66 -102l-263 59q18 105 88 178q69 75 166 109q93 34 205 34q217 0 330 -122q146 122 338 122q224 0 366 -139q142 -142 142 -364q0 -67 -6 -113zM999 625h439q-6 60 -54 114q-55 62 -163 62q-92 0 -150 -58
q-64 -60 -72 -118zM504 197q91 0 147 59q56 56 56 137v25h-179q-52 0 -100 -31q-49 -30 -49 -86q0 -49 35 -76.5t90 -27.5z" />
    <glyph glyph-name="ccedilla" unicode="&#xe7;" horiz-adv-x="1189" 
d="M727 -14q35 -84 35 -179q0 -158 -96 -233q-101 -72 -265 -72q-77 0 -137 17v200q47 -8 98 -8q81 0 122.5 47t41.5 133q0 51 -18 97q-190 34 -313 178q-119 143 -119 342q0 146 74 270q68 119 198 195q132 69 283 69q168 0 307 -88q70 -42 119 -109t69 -151l-272 -82
q-18 63 -78 111q-60 45 -151 45q-102 0 -172 -70q-72 -72 -72 -186q0 -116 70 -186q68 -74 176 -74q87 0 147.5 44t85.5 114l273 -82q-40 -140 -150 -230q-115 -88 -256 -112z" />
    <glyph glyph-name="egrave" unicode="&#xe8;" horiz-adv-x="1196" 
d="M543 1544l205 -356h-246l-301 356h342zM385 625h438q-6 62 -53 114q-25 28 -68.5 45t-95.5 17q-90 0 -151 -58q-61 -61 -70 -118zM379 426q12 -88 84 -145q71 -56 166 -56q65 0 129 39q66 40 86 98l246 -83q-50 -142 -177 -222t-280 -80q-151 0 -281 68q-125 64 -202 188
q-76 127 -76 277q0 146 73 268q72 121 199 195q120 69 268 69q226 0 367 -141t141 -369q0 -69 -6 -106h-737z" />
    <glyph glyph-name="eacute" unicode="&#xe9;" horiz-adv-x="1196" 
d="M483 1188l205 356h342l-303 -356h-244zM385 625h438q-6 62 -53 114q-25 28 -68.5 45t-95.5 17q-90 0 -151 -58q-61 -61 -70 -118zM379 426q12 -88 84 -145q71 -56 166 -56q65 0 129 39q66 40 86 98l246 -83q-50 -142 -177 -222t-280 -80q-151 0 -281 68q-125 64 -202 188
q-76 127 -76 277q0 146 73 268q72 121 199 195q120 69 268 69q226 0 367 -141t141 -369q0 -69 -6 -106h-737z" />
    <glyph glyph-name="ecircumflex" unicode="&#xea;" horiz-adv-x="1196" 
d="M731 1190l-117 174l-116 -174h-254l229 332h281l229 -332h-252zM385 625h438q-6 62 -53 114q-25 28 -68.5 45t-95.5 17q-90 0 -151 -58q-61 -61 -70 -118zM379 426q12 -88 84 -145q71 -56 166 -56q65 0 129 39q66 40 86 98l246 -83q-50 -142 -177 -222t-280 -80
q-151 0 -281 68q-125 64 -202 188q-76 127 -76 277q0 146 73 268q72 121 199 195q120 69 268 69q226 0 367 -141t141 -369q0 -69 -6 -106h-737z" />
    <glyph glyph-name="edieresis" unicode="&#xeb;" horiz-adv-x="1196" 
d="M500 1225q-47 -47 -117 -47q-73 0 -117 47q-47 50 -47 116q0 67 47 117q46 49 117 49q68 0 117 -49t49 -117q0 -67 -49 -116zM954 1225q-47 -47 -116 -47q-73 0 -117 47q-47 47 -47 116q0 70 47 117q46 49 117 49q67 0 116 -49q50 -50 50 -117q0 -66 -50 -116zM385 625
h438q-6 62 -53 114q-25 28 -68.5 45t-95.5 17q-90 0 -151 -58q-61 -61 -70 -118zM379 426q12 -88 84 -145q71 -56 166 -56q65 0 129 39q66 40 86 98l246 -83q-50 -142 -177 -222t-280 -80q-151 0 -281 68q-125 64 -202 188q-76 127 -76 277q0 146 73 268q72 121 199 195
q120 69 268 69q226 0 367 -141t141 -369q0 -69 -6 -106h-737z" />
    <glyph glyph-name="igrave" unicode="&#xec;" horiz-adv-x="573" 
d="M410 1188h-244l-301 356h342zM436 0h-299v1018h299v-1018z" />
    <glyph glyph-name="iacute" unicode="&#xed;" horiz-adv-x="573" 
d="M367 1544h342l-301 -356h-244zM137 1018h299v-1018h-299v1018z" />
    <glyph glyph-name="icircumflex" unicode="&#xee;" horiz-adv-x="573" 
d="M287 1364l-115 -174h-256l231 332h281l229 -332h-251zM436 0h-299v1018h299v-1018z" />
    <glyph glyph-name="idieresis" unicode="&#xef;" horiz-adv-x="573" 
d="M63 1178q-69 0 -116 47q-49 49 -49 116q0 68 49 117q46 49 116 49q68 0 117 -49t49 -117q0 -67 -49 -116q-47 -47 -117 -47zM625 1225q-44 -47 -117 -47q-70 0 -117 47t-47 116q0 70 47 117q46 49 117 49t117 -49q49 -49 49 -117q0 -67 -49 -116zM137 1018h299v-1018
h-299v1018z" />
    <glyph glyph-name="eth" unicode="&#xf0;" horiz-adv-x="1255" 
d="M1106 1294l-162 -65q219 -260 219 -631q0 -373 -248 -537q-125 -84 -294 -84q-146 0 -277 64q-123 65 -194 182q-74 118 -74 262q0 142 72 253t185.5 168t246.5 57q50 0 118 -19q65 -18 105 -55l4 2q-40 131 -131 229l-281 -114l-76 174l185 75q-102 51 -238 91l88 227
q257 -65 439 -201l235 96zM616 246q109 0 181 69q69 69 69 172t-69 172q-70 70 -181 70q-105 0 -172 -67t-67 -173t72 -172q71 -71 167 -71z" />
    <glyph glyph-name="ntilde" unicode="&#xf1;" horiz-adv-x="1220" 
d="M766 1190q-84 0 -156 45t-121 45q-56 0 -59 -88h-176l-2 47q-5 113 51 179.5t166 66.5q43 2 98 -21t101.5 -46t70.5 -21q27 3 39.5 11.5t20.5 29.5q6 17 8 45h170l2 -49q5 -111 -50.5 -177.5t-162.5 -66.5zM797 0v565q0 91 -45 144t-131 53q-92 0 -138 -55
q-47 -59 -47 -142v-565h-299v1018h297v-133h4q26 46 69.5 80.5t90.5 48.5q79 24 127 24q93 0 165.5 -33.5t116 -91t65.5 -128.5t22 -152v-633h-297z" />
    <glyph glyph-name="ograve" unicode="&#xf2;" horiz-adv-x="1259" 
d="M764 1188h-244l-301 356h342zM74 506q0 145 76 272q75 126 202 195q132 69 281 69q155 0 278 -69q128 -68 201 -191q74 -121 74 -270q0 -148 -74 -272q-76 -125 -203 -193q-128 -70 -280 -70q-151 0 -281 68q-126 70 -198 191q-76 127 -76 270zM451 324q74 -74 180 -74
q104 0 178 74q72 69 72 186q0 114 -72 186q-74 74 -180 74q-104 0 -178 -74q-72 -75 -72 -186t72 -186z" />
    <glyph glyph-name="oacute" unicode="&#xf3;" horiz-adv-x="1259" 
d="M705 1544h339l-301 -356h-243zM74 506q0 145 76 272q75 126 202 195q132 69 281 69q155 0 278 -69q128 -68 201 -191q74 -121 74 -270q0 -148 -74 -272q-76 -125 -203 -193q-128 -70 -280 -70q-151 0 -281 68q-126 70 -198 191q-76 127 -76 270zM451 696
q-72 -75 -72 -186t72 -186q74 -74 180 -74q104 0 178 74q72 69 72 186q0 114 -72 186q-74 74 -180 74q-104 0 -178 -74z" />
    <glyph glyph-name="ocircumflex" unicode="&#xf4;" horiz-adv-x="1259" 
d="M635 1364l-117 -174h-254l230 332h280l230 -332h-252zM74 506q0 145 76 272q75 126 202 195q132 69 281 69q155 0 278 -69q128 -68 201 -191q74 -121 74 -270q0 -148 -74 -272q-76 -125 -203 -193q-128 -70 -280 -70q-151 0 -281 68q-126 70 -198 191q-76 127 -76 270z
M451 324q74 -74 180 -74q104 0 178 74q72 69 72 186q0 114 -72 186q-74 74 -180 74q-104 0 -178 -74q-72 -75 -72 -186t72 -186z" />
    <glyph glyph-name="otilde" unicode="&#xf5;" horiz-adv-x="1259" 
d="M780 1190q-83 0 -155 45q-76 45 -123 45q-54 0 -60 -88h-174l-2 47q-5 113 51 179.5t164 66.5q56 2 152 -44t121 -44q26 3 38.5 12t18.5 29q8 17 10 45h170l2 -49q5 -111 -50.5 -177.5t-162.5 -66.5zM74 506q0 145 76 272q75 126 202 195q132 69 281 69q155 0 278 -69
q128 -68 201 -191q74 -121 74 -270q0 -148 -74 -272q-76 -125 -203 -193q-128 -70 -280 -70q-151 0 -281 68q-126 70 -198 191q-76 127 -76 270zM451 696q-72 -75 -72 -186t72 -186q74 -74 180 -74q104 0 178 74q72 69 72 186q0 114 -72 186q-74 74 -180 74q-104 0 -178 -74
z" />
    <glyph glyph-name="odieresis" unicode="&#xf6;" horiz-adv-x="1259" 
d="M522 1225q-47 -47 -119 -47q-69 0 -116 47q-47 50 -47 116q0 67 47 117q46 49 116 49t119 -49q47 -50 47 -117q0 -66 -47 -116zM975 1225q-47 -47 -117 -47t-117 47q-47 50 -47 116q0 67 47 117q46 49 117 49q68 0 117 -49t49 -117q0 -67 -49 -116zM74 506q0 145 76 272
q75 126 202 195q132 69 281 69q155 0 278 -69q128 -68 201 -191q74 -121 74 -270q0 -148 -74 -272q-76 -125 -203 -193q-128 -70 -280 -70q-151 0 -281 68q-126 70 -198 191q-76 127 -76 270zM451 696q-72 -75 -72 -186t72 -186q74 -74 180 -74q104 0 178 74q72 69 72 186
q0 114 -72 186q-74 74 -180 74q-104 0 -178 -74z" />
    <glyph glyph-name="divide" unicode="&#xf7;" horiz-adv-x="1128" 
d="M727 1145q0 -68 -47 -115t-115 -47q-70 0 -114 47q-50 47 -50 115q0 65 50 115q47 47 114 47q65 0 115 -47q47 -50 47 -115zM1038 838v-275h-948v275h948zM680 369q47 -50 47 -115t-47 -115q-46 -49 -115 -49q-68 0 -114 49q-50 47 -50 115q0 65 50 115q46 49 114 49
q69 0 115 -49z" />
    <glyph glyph-name="oslash" unicode="&#xf8;" horiz-adv-x="1263" 
d="M1186 956l-115 -114q117 -141 117 -330q0 -148 -74 -272q-76 -125 -203 -193q-128 -70 -280 -70q-184 0 -328 99l-121 -119l-108 106l116 115q-114 141 -114 328q0 145 76 272q79 127 204 195q129 69 279 69q180 0 323 -98l119 121zM379 510q0 -66 24 -121l355 352
q-60 31 -125 31q-106 0 -180 -74t-74 -188zM633 248q106 0 180 74q72 75 72 188q0 65 -25 123l-356 -352q64 -33 129 -33z" />
    <glyph glyph-name="ugrave" unicode="&#xf9;" 
d="M737 1188h-243l-301 356h342zM127 1018h297v-567q0 -92 44.5 -143.5t133.5 -51.5t135 55q47 56 47 140v567h297v-1018h-293v127h-4q-102 -147 -282 -147q-91 0 -164.5 32t-118.5 90q-92 115 -92 277v639z" />
    <glyph glyph-name="uacute" unicode="&#xfa;" horiz-adv-x="1220" 
d="M690 1544h342l-301 -356h-244zM127 1018h297v-567q0 -92 44.5 -143.5t133.5 -51.5t135 55q47 56 47 140v567h297v-1018h-293v127h-4q-102 -147 -282 -147q-91 0 -164.5 32t-118.5 90q-92 115 -92 277v639z" />
    <glyph glyph-name="ucircumflex" unicode="&#xfb;" 
d="M604 1364l-115 -174h-253l229 332h280l230 -332h-252zM127 1018h297v-567q0 -92 44.5 -143.5t133.5 -51.5t135 55q47 56 47 140v567h297v-1018h-293v127h-4q-102 -147 -282 -147q-91 0 -164.5 32t-118.5 90q-92 115 -92 277v639z" />
    <glyph glyph-name="udieresis" unicode="&#xfc;" 
d="M494 1225q-47 -47 -117 -47t-117 47q-47 50 -47 116q0 67 47 117q46 49 117 49q68 0 117 -49t49 -117q0 -67 -49 -116zM948 1225q-47 -47 -117 -47q-69 0 -116 47q-47 50 -47 116q0 67 47 117q46 49 116 49q68 0 117 -49t49 -117q0 -67 -49 -116zM127 1018h297v-567
q0 -92 44.5 -143.5t133.5 -51.5t135 55q47 56 47 140v567h297v-1018h-293v127h-4q-102 -147 -282 -147q-91 0 -164.5 32t-118.5 90q-92 115 -92 277v639z" />
    <glyph glyph-name="yacute" unicode="&#xfd;" horiz-adv-x="1165" 
d="M694 1544h340l-301 -356h-244zM455 109l-430 909h327l256 -582l228 582h305l-619 -1520h-317z" />
    <glyph glyph-name="thorn" unicode="&#xfe;" horiz-adv-x="1306" 
d="M434 895h4q110 143 310 143q106 0 199.5 -45.5t156.5 -122.5q127 -159 127 -360q0 -98 -35 -194t-98 -169q-64 -77 -159 -122t-200 -45q-192 0 -301 133h-4v-615h-297v2054h297v-657zM500 696q-72 -72 -72 -186t72 -186q74 -74 178 -74q106 0 180 74q72 72 72 186
q0 111 -72 186q-72 72 -180 72q-109 0 -178 -72z" />
    <glyph glyph-name="ydieresis" unicode="&#xff;" horiz-adv-x="1165" 
d="M487 1225q-47 -47 -118 -47t-115 47q-49 49 -49 116q0 68 49 117q46 49 115 49t118 -49q48 -48 48 -117q0 -68 -48 -116zM942 1225q-47 -47 -119 -47q-69 0 -116 47q-48 51 -48 116q0 66 48 117q46 49 116 49t119 -49q47 -50 47 -117q0 -66 -47 -116zM453 109l-428 909
h327l254 -582l228 582h307l-619 -1520h-317z" />
    <glyph glyph-name="Amacron" unicode="&#x100;" horiz-adv-x="1509" 
d="M1102 1876v-221h-694v221h694zM432 319l-119 -319h-315l571 1493h371l573 -1493h-319l-119 319h-643zM969 606l-217 588l-217 -588h434z" />
    <glyph glyph-name="amacron" unicode="&#x101;" horiz-adv-x="1126" 
d="M887 1421v-223h-694v223h694zM418 -20q-138 0 -238 83q-100 84 -100 222v8q0 198 205 270q108 41 243 41h99q39 0 59.5 18.5t20.5 51.5q0 56 -42.5 91.5t-117.5 35.5q-67 0 -116 -37t-66 -102l-263 59q18 105 88 178q69 75 166 109q93 34 205 34q195 2 316.5 -106
t121.5 -305v-467q0 -58 9 -164h-277q-6 40 -6 127h-4q-107 -147 -303 -147zM504 197q91 0 147 59q56 56 56 137v25h-179q-52 0 -100 -31q-49 -30 -49 -86q0 -49 35 -76.5t90 -27.5z" />
    <glyph glyph-name="Abreve" unicode="&#x102;" horiz-adv-x="1509" 
d="M750 1638q-143 0 -246 95q-100 92 -115 245h221q11 -64 47 -100.5t93 -36.5q58 0 95.5 37t45.5 100h223q-15 -152 -117 -247q-101 -93 -247 -93zM432 319l-119 -319h-315l571 1493h371l573 -1493h-319l-119 319h-643zM969 606l-217 588l-217 -588h434z" />
    <glyph glyph-name="abreve" unicode="&#x103;" horiz-adv-x="1126" 
d="M567 1182q-144 0 -245 94q-102 94 -117 246h223q11 -65 46.5 -101.5t92.5 -36.5t95 37.5t47 100.5h223q-15 -155 -117 -246q-101 -94 -248 -94zM418 -20q-138 0 -238 83q-100 84 -100 222v8q0 198 205 270q108 41 243 41h99q39 0 59.5 18.5t20.5 51.5q0 56 -42.5 91.5
t-117.5 35.5q-67 0 -116 -37t-66 -102l-263 59q18 105 88 178q69 75 166 109q93 34 205 34q195 2 316.5 -106t121.5 -305v-467q0 -58 9 -164h-277q-6 40 -6 127h-4q-107 -147 -303 -147zM504 197q91 0 147 59q56 56 56 137v25h-179q-52 0 -100 -31q-49 -30 -49 -86
q0 -49 35 -76.5t90 -27.5z" />
    <glyph glyph-name="Aogonek" unicode="&#x104;" horiz-adv-x="1509" 
d="M1327 -215q0 -52 45 -78q44 -24 92 -24l41 2v-174q-58 -17 -145 -17q-170 0 -252 94q-43 49 -43 121q0 147 211 291h-82l-119 319h-643l-119 -319h-315l571 1493h371l573 -1493q-70 -45 -131 -102q-55 -58 -55 -113zM752 1194l-217 -588h434z" />
    <glyph glyph-name="aogonek" unicode="&#x105;" horiz-adv-x="1126" 
d="M823 -215q0 -52 45 -78q44 -24 95 -24q2 0 17 1t21 1v-174q-58 -17 -145 -17q-168 0 -252 94q-43 49 -43 121q0 147 211 291h-41q-6 40 -6 127h-4q-107 -147 -303 -147q-138 0 -238 83q-100 84 -100 222v8q0 198 205 270q108 41 243 41h99q39 0 59.5 18.5t20.5 51.5
q0 56 -42.5 91.5t-117.5 35.5q-67 0 -116 -37t-66 -102l-263 59q18 105 88 178q69 75 166 109q93 34 205 34q195 2 316.5 -106t121.5 -305v-467q0 -58 9 -164q-76 -48 -129 -104q-56 -59 -56 -111zM707 418h-179q-52 0 -100 -31q-49 -30 -49 -86q0 -49 35 -76.5t90 -27.5
q91 0 147 59q56 56 56 137v25z" />
    <glyph glyph-name="Cacute" unicode="&#x106;" horiz-adv-x="1611" 
d="M911 1987h342l-301 -357h-243zM852 -20q-151 0 -290.5 54.5t-246.5 153.5q-103 94 -170 244q-63 148 -63 313q0 195 88.5 359.5t237.5 267.5q202 144 452 144q119 0 226 -30.5t184 -82.5q77 -47 137 -113q109 -118 147 -258l-294 -100q-8 46 -49.5 105t-106.5 106
q-102 71 -248 71q-128 0 -231 -63q-105 -61 -164 -168q-58 -113 -58 -235q0 -128 58 -235t162 -171q107 -66 233 -66q70 0 136 20.5t112 53.5q37 25 80 72q64 75 84 153l295 -102q-30 -129 -142 -252q-62 -68 -139 -121q-71 -49 -190 -88q-106 -32 -240 -32z" />
    <glyph glyph-name="cacute" unicode="&#x107;" horiz-adv-x="1193" 
d="M709 1544h342l-301 -356h-246zM627 -23q-241 0 -396 152q-155 146 -155 379q0 109 42.5 208.5t117.5 172.5q77 72 179.5 112.5t217.5 40.5q167 0 309 -88q69 -42 118.5 -109.5t67.5 -150.5l-270 -82q-22 67 -80 111q-60 45 -149 45q-104 0 -174 -70q-72 -72 -72 -186
q0 -115 68 -186q71 -74 178 -74q88 0 148.5 44t86.5 114l271 -82q-29 -110 -111 -195q-79 -79 -182 -117q-98 -39 -215 -39z" />
    <glyph glyph-name="Ccircumflex" unicode="&#x108;" horiz-adv-x="1611" 
d="M860 1802l-115 -174h-253l229 332h278l230 -332h-252zM852 -20q-151 0 -290.5 54.5t-246.5 153.5q-103 94 -170 244q-63 148 -63 313q0 195 88.5 359.5t237.5 267.5q202 144 452 144q119 0 226 -30.5t184 -82.5q77 -47 137 -113q109 -118 147 -258l-294 -100
q-8 46 -49.5 105t-106.5 106q-102 71 -248 71q-128 0 -231 -63q-105 -61 -164 -168q-58 -113 -58 -235q0 -128 58 -235t162 -171q107 -66 233 -66q70 0 136 20.5t112 53.5q37 25 80 72q64 75 84 153l295 -102q-30 -129 -142 -252q-62 -68 -139 -121q-71 -49 -190 -88
q-106 -32 -240 -32z" />
    <glyph glyph-name="ccircumflex" unicode="&#x109;" horiz-adv-x="1193" 
d="M635 1364l-117 -174h-256l232 332h280l230 -332h-252zM627 -23q-241 0 -396 152q-155 146 -155 379q0 109 42.5 208.5t117.5 172.5q77 72 179.5 112.5t217.5 40.5q167 0 309 -88q69 -42 118.5 -109.5t67.5 -150.5l-270 -82q-22 67 -80 111q-60 45 -149 45
q-104 0 -174 -70q-72 -72 -72 -186q0 -115 68 -186q71 -74 178 -74q88 0 148.5 44t86.5 114l271 -82q-29 -110 -111 -195q-79 -79 -182 -117q-98 -39 -215 -39z" />
    <glyph glyph-name="Cdotaccent" unicode="&#x10a;" horiz-adv-x="1611" 
d="M686 1796q0 73 53 129q56 53 129 53q76 0 129 -53q56 -56 56 -129q0 -74 -56 -127q-52 -55 -129 -55q-74 0 -129 55q-53 53 -53 127zM852 -20q-151 0 -290.5 54.5t-246.5 153.5q-103 94 -170 244q-63 148 -63 313q0 195 88.5 359.5t237.5 267.5q202 144 452 144
q119 0 226 -30.5t184 -82.5q77 -47 137 -113q109 -118 147 -258l-294 -100q-8 46 -49.5 105t-106.5 106q-102 71 -248 71q-128 0 -231 -63q-105 -61 -164 -168q-58 -113 -58 -235q0 -128 58 -235t162 -171q107 -66 233 -66q70 0 136 20.5t112 53.5q37 25 80 72q64 75 84 153
l295 -102q-30 -129 -142 -252q-62 -68 -139 -121q-71 -49 -190 -88q-106 -32 -240 -32z" />
    <glyph glyph-name="cdotaccent" unicode="&#x10b;" horiz-adv-x="1193" 
d="M453 1360q0 74 53 127q50 53 127 53q78 0 131 -53t53 -127q0 -76 -53 -129t-131 -53q-77 0 -127 53q-53 53 -53 129zM627 -23q-241 0 -396 152q-155 146 -155 379q0 109 42.5 208.5t117.5 172.5q77 72 179.5 112.5t217.5 40.5q167 0 309 -88q69 -42 118.5 -109.5
t67.5 -150.5l-270 -82q-22 67 -80 111q-60 45 -149 45q-104 0 -174 -70q-72 -72 -72 -186q0 -115 68 -186q71 -74 178 -74q88 0 148.5 44t86.5 114l271 -82q-29 -110 -111 -195q-79 -79 -182 -117q-98 -39 -215 -39z" />
    <glyph glyph-name="Ccaron" unicode="&#x10c;" horiz-adv-x="1611" 
d="M492 1960h253l115 -174l117 174h252l-230 -332h-278zM852 -20q-151 0 -290.5 54.5t-246.5 153.5q-103 94 -170 244q-63 148 -63 313q0 195 88.5 359.5t237.5 267.5q202 144 452 144q119 0 226 -30.5t184 -82.5q77 -47 137 -113q109 -118 147 -258l-294 -100
q-8 46 -49.5 105t-106.5 106q-102 71 -248 71q-128 0 -231 -63q-105 -61 -164 -168q-58 -113 -58 -235q0 -128 58 -235t162 -171q107 -66 233 -66q70 0 136 20.5t112 53.5q37 25 80 72q64 75 84 153l295 -102q-30 -129 -142 -252q-62 -68 -139 -121q-71 -49 -190 -88
q-106 -32 -240 -32z" />
    <glyph glyph-name="ccaron" unicode="&#x10d;" horiz-adv-x="1193" 
d="M262 1522h256l117 -174l117 174h252l-230 -332h-280zM627 -23q-241 0 -396 152q-155 146 -155 379q0 109 42.5 208.5t117.5 172.5q77 72 179.5 112.5t217.5 40.5q167 0 309 -88q69 -42 118.5 -109.5t67.5 -150.5l-270 -82q-22 67 -80 111q-60 45 -149 45q-104 0 -174 -70
q-72 -72 -72 -186q0 -115 68 -186q71 -74 178 -74q88 0 148.5 44t86.5 114l271 -82q-29 -110 -111 -195q-79 -79 -182 -117q-98 -39 -215 -39z" />
    <glyph glyph-name="Dcaron" unicode="&#x10e;" horiz-adv-x="1560" 
d="M276 1960h254l115 -174l117 174h252l-230 -332h-278zM1475 750q0 -165 -58.5 -304.5t-167.5 -236.5q-109 -100 -269 -154.5t-353 -54.5h-453v1493h459q390 0 616 -197q226 -195 226 -546zM1163 750q0 214 -145 333t-373 119h-158v-909h152q238 0 381 119t143 338z" />
    <glyph glyph-name="dcaron" unicode="&#x10f;" horiz-adv-x="1343" 
d="M1315 1554h311l-131 -446h-209zM868 901h4v651h297v-1552h-288v129h-4q-103 -149 -316 -149q-105 0 -198 44t-156 119q-62 72 -96.5 168.5t-34.5 198.5q0 77 22.5 153.5t65.5 144t101.5 119t136.5 81.5t163 30q59 0 133 -20q94 -25 170 -117zM809 696q-72 72 -180 72
q-106 0 -178 -72q-74 -74 -74 -186t74 -186q71 -74 178 -74q106 0 180 74q72 75 72 186t-72 186z" />
    <glyph glyph-name="Dcroat" unicode="&#x110;" horiz-adv-x="1599" 
d="M215 1493h457q390 0 616 -197q225 -196 225 -546q0 -166 -58 -305t-167 -236q-110 -100 -270 -154.5t-352 -54.5h-451v610h-182v285h182v598zM522 293h152q238 0 381 119q143 122 143 338q0 144 -69 247.5t-185 154t-266 50.5h-156v-307h318v-285h-318v-317z" />
    <glyph glyph-name="dslash" unicode="&#x111;" horiz-adv-x="1308" 
d="M872 1554h297v-172h127v-202h-127v-1180h-288v129h-4q-103 -149 -316 -149q-105 0 -198 44t-156 119q-62 72 -96.5 168.5t-34.5 198.5q0 77 22.5 153.5t65.5 144t101.5 119t136.5 81.5t163 30q59 0 133 -20q94 -25 170 -117h4v279h-303v202h303v172zM809 324
q72 75 72 186t-72 186q-72 72 -180 72q-106 0 -178 -72q-74 -74 -74 -186t74 -186q71 -74 178 -74q106 0 180 74z" />
    <glyph glyph-name="Emacron" unicode="&#x112;" horiz-adv-x="1263" 
d="M1014 1876v-221h-697v221h697zM174 1493h977v-289h-672v-305h602v-289h-602v-321h678v-289h-983v1493z" />
    <glyph glyph-name="emacron" unicode="&#x113;" horiz-adv-x="1196" 
d="M266 1421h697v-223h-697v223zM1116 426h-739q12 -85 80 -141q69 -60 170 -60q64 0 131 39q63 38 86 98l243 -83q-49 -138 -165 -218q-125 -84 -289 -84q-123 0 -230.5 43.5t-179.5 118.5q-71 72 -110 169t-39 202q0 104 41 202t114 171q72 74 172.5 116.5t210.5 42.5
q118 0 218.5 -40.5t164.5 -110.5q134 -144 125 -352q3 -74 -4 -113zM385 625h436q-3 58 -53 114q-55 62 -164 62q-91 0 -149 -58q-61 -58 -70 -118z" />
    <glyph glyph-name="Edotaccent" unicode="&#x116;" horiz-adv-x="1263" 
d="M483 1796q0 72 54 129q53 53 127 53q75 0 131 -53q53 -56 53 -129q0 -74 -53 -127q-55 -55 -131 -55q-75 0 -127 55q-54 54 -54 127zM1081 610h-602v-321h678v-289h-983v1493h977v-289h-672v-305h602v-289z" />
    <glyph glyph-name="edotaccent" unicode="&#x117;" horiz-adv-x="1196" 
d="M434 1360q0 74 53 127q50 53 127 53q78 0 131 -53q54 -51 54 -127q0 -78 -54 -129q-53 -53 -131 -53q-77 0 -127 53q-53 53 -53 129zM1116 426h-739q12 -85 80 -141q69 -60 170 -60q64 0 131 39q63 38 86 98l243 -83q-49 -138 -165 -218q-125 -84 -289 -84
q-123 0 -230.5 43.5t-179.5 118.5q-71 72 -110 169t-39 202q0 104 41 202t114 171q72 74 172.5 116.5t210.5 42.5q118 0 218.5 -40.5t164.5 -110.5q134 -144 125 -352v-21q0 -72 -4 -92zM385 625h436q-3 58 -53 114q-55 62 -164 62q-91 0 -149 -58q-61 -58 -70 -118z" />
    <glyph glyph-name="Eogonek" unicode="&#x118;" horiz-adv-x="1263" 
d="M1157 289v-289q-65 -40 -131 -102q-55 -58 -55 -113q0 -51 43 -78q46 -24 94 -24q4 0 20 1t21 1v-174q-58 -17 -145 -17q-170 0 -252 94q-45 51 -45 121q0 146 213 291h-746v1493h977v-289h-672v-305h602v-289h-602v-321h678z" />
    <glyph glyph-name="eogonek" unicode="&#x119;" horiz-adv-x="1196" 
d="M604 -23q-117 4 -218.5 49t-170.5 119q-67 75 -104 169.5t-37 195.5q0 104 41 202t114 171q72 74 172.5 116.5t210.5 42.5q118 0 218.5 -40.5t164.5 -110.5q134 -144 125 -352q3 -74 -4 -113h-739q12 -85 80 -141q69 -60 170 -60q64 0 131 39q63 38 86 98l243 -83
q-38 -115 -143 -201q-248 -199 -248 -293q0 -50 45 -78q47 -24 95 -24q13 0 38 2v-174q-55 -17 -143 -17q-170 0 -252 94q-45 48 -45 121q0 130 170 268zM385 625h436q-3 58 -53 114q-55 62 -164 62q-91 0 -149 -58q-61 -58 -70 -118z" />
    <glyph glyph-name="Ecaron" unicode="&#x11a;" horiz-adv-x="1263" 
d="M295 1960h254l117 -174l116 174h252l-229 -332h-281zM1081 610h-602v-321h678v-289h-983v1493h977v-289h-672v-305h602v-289z" />
    <glyph glyph-name="ecaron" unicode="&#x11b;" horiz-adv-x="1196" 
d="M473 1190l-229 332h254l114 -174l117 174h254l-231 -332h-279zM1116 426h-737q12 -88 84 -145q71 -56 166 -56q65 0 129 39q66 40 86 98l246 -83q-50 -142 -177 -222t-280 -80q-151 0 -281 68q-125 64 -202 188q-76 127 -76 277q0 146 73 268q72 121 199 195
q120 69 268 69q226 0 367 -141t141 -369q0 -69 -6 -106zM385 625h438q-6 62 -53 114q-25 28 -68.5 45t-95.5 17q-90 0 -151 -58q-61 -61 -70 -118z" />
    <glyph glyph-name="Gcircumflex" unicode="&#x11c;" horiz-adv-x="1636" 
d="M862 1802l-114 -174h-256l231 332h278l230 -332h-252zM1243 522h-455v281h779v-117q0 -133 -38.5 -249t-107.5 -201q-71 -87 -157 -142q-174 -117 -406 -117q-170 0 -315 62q-146 58 -246 164q-101 104 -158 245t-57 297q0 212 106 392q105 175 285 278q177 101 387 101
q133 0 250.5 -37t202.5 -103q169 -131 219 -315l-301 -92q-24 100 -127 178q-103 74 -246 74q-125 0 -231 -62t-166 -170q-64 -110 -64 -241q0 -130 58.5 -239t165.5 -173q107 -66 237 -66q145 0 254 70q104 70 131 182z" />
    <glyph glyph-name="gcircumflex" unicode="&#x11d;" horiz-adv-x="1300" 
d="M643 1364l-115 -174h-254l230 332h278l232 -332h-254zM864 895h4v123h293v-967q0 -136 -41 -244t-116 -176q-153 -141 -400 -141q-107 0 -201.5 31t-158.5 84q-138 110 -162 252l274 80q16 -79 76 -134q56 -53 160 -53q116 0 194 67.5t78 200.5v117h-4
q-105 -135 -293 -135q-141 0 -256 68q-111 66 -174 186q-61 116 -61 260q0 199 131 356q61 75 153.5 119.5t196.5 44.5q56 0 137 -22q98 -30 170 -117zM872 514q0 113 -69 182q-69 72 -178 72q-105 0 -174 -72q-72 -69 -72 -182q0 -111 70 -184q72 -72 176 -72t176 72
q71 71 71 184z" />
    <glyph glyph-name="Gbreve" unicode="&#x11e;" horiz-adv-x="1634" 
d="M860 1638q-146 0 -246 95q-101 90 -116 245h223q11 -65 46.5 -101t92.5 -36q58 0 95 36.5t46 100.5h224q-15 -152 -117 -247q-104 -93 -248 -93zM1565 803v-117q0 -133 -38.5 -249t-107.5 -201q-71 -87 -157 -142q-174 -117 -406 -117q-170 0 -315 62q-145 59 -244 164
q-102 104 -158.5 244.5t-56.5 297.5q0 212 106 392q106 177 283 278t389 101q131 0 248.5 -37t202.5 -103q168 -128 219 -315l-301 -92q-24 100 -127 178q-103 74 -246 74q-122 0 -231 -62q-106 -62 -166 -170q-64 -110 -64 -241q0 -130 58.5 -239t164.5 -173
q107 -66 238 -66q145 0 254 70q104 70 131 182h-455v281h779z" />
    <glyph glyph-name="gbreve" unicode="&#x11f;" horiz-adv-x="1300" 
d="M645 1182q-145 0 -246 94q-101 93 -116 246h223q11 -65 46.5 -101.5t92.5 -36.5t94.5 37.5t46.5 100.5h224q-15 -155 -117 -246q-101 -94 -248 -94zM1161 1018v-967q0 -136 -41 -244t-116 -176q-153 -141 -400 -141q-107 0 -201.5 31t-158.5 84q-138 110 -162 252l274 80
q16 -79 76 -134q56 -53 160 -53q116 0 194 67.5t78 200.5v117h-4q-105 -135 -293 -135q-141 0 -256 68q-111 66 -174 186q-61 116 -61 260q0 199 131 356q61 75 153.5 119.5t196.5 44.5q56 0 137 -22q98 -30 170 -117h4v123h293zM872 514q0 113 -69 182q-69 72 -178 72
q-105 0 -174 -72q-72 -69 -72 -182q0 -111 70 -184q72 -72 176 -72t176 72q71 71 71 184z" />
    <glyph glyph-name="Gdotaccent" unicode="&#x120;" horiz-adv-x="1634" 
d="M678 1796q0 73 53 129q56 53 129 53t129 -53q55 -55 55 -129q0 -75 -55 -127q-55 -55 -129 -55t-129 55q-53 53 -53 127zM1565 803v-117q0 -133 -38.5 -249t-107.5 -201q-71 -87 -157 -142q-174 -117 -406 -117q-170 0 -315 62q-145 59 -244 164q-102 104 -158.5 244.5
t-56.5 297.5q0 212 106 392q106 177 283 278t389 101q131 0 248.5 -37t202.5 -103q168 -128 219 -315l-301 -92q-24 100 -127 178q-103 74 -246 74q-122 0 -231 -62q-106 -62 -166 -170q-64 -110 -64 -241q0 -130 58.5 -239t164.5 -173q107 -66 238 -66q145 0 254 70
q104 70 131 182h-455v281h779z" />
    <glyph glyph-name="gdotaccent" unicode="&#x121;" horiz-adv-x="1300" 
d="M436 1360q0 74 53 127q50 53 127 53q79 0 132 -53q53 -50 53 -127q0 -79 -53 -129q-53 -53 -132 -53q-77 0 -127 53q-53 53 -53 129zM1161 1018v-967q0 -136 -41 -244t-116 -176q-153 -141 -400 -141q-107 0 -201.5 31t-158.5 84q-138 110 -162 252l274 80
q16 -79 76 -134q56 -53 160 -53q116 0 194 67.5t78 200.5v117h-4q-105 -135 -293 -135q-141 0 -256 68q-111 66 -174 186q-61 116 -61 260q0 199 131 356q61 75 153.5 119.5t196.5 44.5q56 0 137 -22q98 -30 170 -117h4v123h293zM872 514q0 113 -69 182q-69 72 -178 72
q-105 0 -174 -72q-72 -69 -72 -182q0 -111 70 -184q72 -72 176 -72t176 72q71 71 71 184z" />
    <glyph glyph-name="Gcommaaccent" unicode="&#x122;" horiz-adv-x="1634" 
d="M1565 803v-117q0 -133 -38.5 -249t-107.5 -201q-71 -87 -157 -142q-174 -117 -406 -117q-170 0 -315 62q-145 59 -244 164q-102 104 -158.5 244.5t-56.5 297.5q0 212 106 392q106 177 283 278t389 101q131 0 248.5 -37t202.5 -103q168 -128 219 -315l-301 -92
q-24 100 -127 178q-103 74 -246 74q-122 0 -231 -62q-106 -62 -166 -170q-64 -110 -64 -241q0 -130 58.5 -239t164.5 -173q107 -66 238 -66q145 0 254 70q104 70 131 182h-455v281h779zM1006 -358q0 -149 -84 -256q-85 -102 -230 -123v114q137 46 164 177q-24 -7 -47 -7
q-65 0 -102 43q-41 44 -41 107q0 64 49 104q50 41 114 41q84 0 129 -57q48 -60 48 -143z" />
    <glyph glyph-name="gcommaaccent" unicode="&#x123;" horiz-adv-x="1300" 
d="M449 1376q0 155 83 254q81 103 230 125v-117q-139 -47 -166 -174q27 6 49 6q60 0 103 -43q38 -41 38 -106q0 -67 -49 -107q-46 -40 -114 -40q-81 0 -129 57q-45 57 -45 145zM1161 1018v-967q0 -136 -41 -244t-116 -176q-153 -141 -400 -141q-107 0 -201.5 31t-158.5 84
q-138 110 -162 252l274 80q16 -79 76 -134q56 -53 160 -53q116 0 194 67.5t78 200.5v117h-4q-105 -135 -293 -135q-141 0 -256 68q-111 66 -174 186q-61 116 -61 260q0 199 131 356q61 75 153.5 119.5t196.5 44.5q56 0 137 -22q98 -30 170 -117h4v123h293zM872 514
q0 113 -69 182q-69 72 -178 72q-105 0 -174 -72q-72 -69 -72 -182q0 -111 70 -184q72 -72 176 -72t176 72q71 71 71 184z" />
    <glyph glyph-name="Hbar" unicode="&#x126;" horiz-adv-x="1628" 
d="M193 1321v174h309v-174h624v174h308v-174h157v-211h-157v-1110h-308v604h-624v-604h-309v1110h-156v211h156zM502 903h624v207h-624v-207z" />
    <glyph glyph-name="hbar" unicode="&#x127;" 
d="M793 0v565q0 90 -45.5 144.5t-129.5 54.5q-92 0 -137 -57q-47 -59 -47 -140v-567h-297v1180h-127v202h127v172h297v-172h303v-202h-303v-281h2q60 84 154 115q73 24 127 24q189 0 284 -125q89 -119 89 -280v-633h-297z" />
    <glyph glyph-name="Itilde" unicode="&#x128;" horiz-adv-x="657" 
d="M479 1628q-88 0 -155 45q-72 45 -121 45q-57 0 -60 -90h-176l-2 49q-5 113 51 179.5t166 66.5q55 2 150.5 -44t120.5 -44q27 3 39 11.5t20 27.5q6 19 8 45h170l2 -47q5 -112 -50.5 -178t-162.5 -66zM483 1493v-1493h-309v1493h309z" />
    <glyph glyph-name="itilde" unicode="&#x129;" horiz-adv-x="573" 
d="M438 1190q-85 0 -157 45t-121 45q-57 0 -60 -88h-174l-2 47q-5 113 50 179.5t165 66.5q55 2 151.5 -44t121.5 -44q26 3 38.5 12t18.5 29q5 14 10 45h168l2 -49q5 -112 -50 -178t-161 -66zM137 1018h299v-1018h-299v1018z" />
    <glyph glyph-name="Imacron" unicode="&#x12a;" horiz-adv-x="657" 
d="M668 1876v-221h-680v221h680zM483 1493v-1493h-309v1493h309z" />
    <glyph glyph-name="imacron" unicode="&#x12b;" horiz-adv-x="573" 
d="M614 1421v-223h-653v223h653zM137 1018h299v-1018h-299v1018z" />
    <glyph glyph-name="Ibreve" unicode="&#x12c;" horiz-adv-x="657" 
d="M328 1638q-146 0 -246 95q-102 91 -117 245h223q11 -64 47 -100.5t93 -36.5q58 0 95 36.5t46 100.5h223q-15 -152 -117 -247q-104 -93 -247 -93zM483 1493v-1493h-309v1493h309z" />
    <glyph glyph-name="ibreve" unicode="&#x12d;" horiz-adv-x="573" 
d="M287 1182q-149 0 -248 96q-102 94 -117 244h223q11 -64 48 -101t94 -37t94.5 37.5t46.5 100.5h223q-15 -156 -116 -246q-101 -94 -248 -94zM137 1018h299v-1018h-299v1018z" />
    <glyph glyph-name="Iogonek" unicode="&#x12e;" horiz-adv-x="657" 
d="M483 1493v-1493q-73 -46 -129 -102q-57 -57 -57 -113q0 -52 45 -78q46 -24 94 -24q14 0 39 2v-174q-55 -17 -143 -17q-170 0 -252 94q-45 48 -45 121q0 147 211 291h-72v1493h309z" />
    <glyph glyph-name="iogonek" unicode="&#x12f;" horiz-adv-x="573" 
d="M285 1188q-74 0 -129 55q-54 54 -54 129q0 79 54 133q57 54 129 54q76 0 133 -54q53 -56 53 -133q0 -73 -53 -129q-55 -55 -133 -55zM436 1018v-1018q-76 -48 -129 -104q-57 -57 -57 -111q0 -52 45 -78q47 -24 94 -24q12 0 39 2v-174q-55 -17 -143 -17q-170 0 -252 94
q-45 48 -45 121q0 145 211 291h-62v1018h299z" />
    <glyph glyph-name="Idot" unicode="&#x130;" horiz-adv-x="657" 
d="M145 1796q0 73 56 129q53 53 127 53q75 0 131 -53q53 -56 53 -129q0 -74 -53 -127q-55 -55 -131 -55q-75 0 -127 55q-56 53 -56 127zM174 0v1493h309v-1493h-309z" />
    <glyph glyph-name="dotlessi" unicode="&#x131;" horiz-adv-x="573" 
d="M137 1018h299v-1018h-299v1018z" />
    <glyph glyph-name="IJ" unicode="&#x132;" horiz-adv-x="1327" 
d="M670 -20q-216 0 -365 137q-145 133 -145 350v78h309v-64q0 -106 55 -155q59 -50 138 -50q87 0 139 52q55 49 55 143v1022h309v-1026q0 -223 -137 -354q-136 -133 -358 -133zM469 754h-309v739h309v-739z" />
    <glyph glyph-name="Kcommaaccent" unicode="&#x136;" horiz-adv-x="1402" 
d="M481 0h-307v1493h307v-649l512 649h385l-569 -715l606 -778h-397l-537 709v-709zM899 -358q0 -149 -84 -256q-86 -102 -229 -123v114q137 47 164 177q-25 -7 -48 -7q-65 0 -102 43q-39 42 -39 107q0 64 49 104q50 41 115 41q82 0 127 -57q47 -56 47 -143z" />
    <glyph glyph-name="kcommaaccent" unicode="&#x137;" horiz-adv-x="1179" 
d="M434 481v-481h-297v1554h297v-936l354 400h379l-409 -469l420 -549h-375l-361 481h-8zM764 -358q0 -149 -84 -256q-86 -102 -229 -123v114q136 47 163 177q-24 -7 -47 -7q-65 0 -102 43q-41 44 -41 107q0 64 49 104q50 41 115 41q84 0 129 -57q47 -56 47 -143z" />
    <glyph glyph-name="Lacute" unicode="&#x139;" horiz-adv-x="1150" 
d="M430 1987h342l-301 -357h-246zM174 1493h307v-1198h639v-295h-946v1493z" />
    <glyph glyph-name="lacute" unicode="&#x13a;" horiz-adv-x="573" 
d="M367 2048h342l-301 -356h-244zM436 1554v-1554h-299v1554h299z" />
    <glyph glyph-name="Lcommaaccent" unicode="&#x13b;" horiz-adv-x="1150" 
d="M174 1493h307v-1198h639v-295h-946v1493zM811 -358q0 -149 -84 -256q-86 -102 -229 -123v114q137 47 164 177q-25 -7 -48 -7q-65 0 -102 43q-41 44 -41 107q0 64 49 104q50 41 115 41q84 0 129 -57q47 -56 47 -143z" />
    <glyph glyph-name="lcommaaccent" unicode="&#x13c;" horiz-adv-x="573" 
d="M436 1554v-1554h-299v1554h299zM451 -358q0 -149 -84 -256q-85 -102 -230 -123v114q137 47 164 177q-25 -7 -47 -7q-65 0 -102 43q-39 42 -39 107q0 66 47 104q50 41 116 41q82 0 127 -57q48 -57 48 -143z" />
    <glyph glyph-name="Lcaron" unicode="&#x13d;" horiz-adv-x="1171" 
d="M809 1536h311l-131 -446h-209zM174 1493h307v-1198h639v-295h-946v1493z" />
    <glyph glyph-name="lcaron" unicode="&#x13e;" horiz-adv-x="610" 
d="M436 1554v-1554h-299v1554h299zM580 1554h311l-131 -446h-207z" />
    <glyph glyph-name="Ldot" unicode="&#x13f;" horiz-adv-x="1169" 
d="M174 1493h307v-1198h639v-295h-946v1493zM803 612q-53 56 -53 131t53 131q54 54 129 54q79 0 133 -54q53 -53 53 -131t-53 -131t-133 -53q-76 0 -129 53z" />
    <glyph glyph-name="ldot" unicode="&#x140;" horiz-adv-x="903" 
d="M436 1554v-1554h-299v1554h299zM602 575q-53 53 -53 132q0 78 53 131q56 53 129 53q77 0 133 -53q54 -54 54 -131q0 -78 -54 -132q-53 -53 -133 -53q-76 0 -129 53z" />
    <glyph glyph-name="Lslash" unicode="&#x141;" horiz-adv-x="1230" 
d="M254 541l-197 -90v286l197 88v668h307v-528l391 178v-285l-391 -178v-383h637v-297h-944v541z" />
    <glyph glyph-name="lslash" unicode="&#x142;" horiz-adv-x="827" 
d="M76 354v287l194 104v809h297v-647l195 109v-285l-195 -106v-625h-297v461z" />
    <glyph glyph-name="Nacute" unicode="&#x143;" horiz-adv-x="1654" 
d="M944 1987h342l-301 -357h-244zM479 0h-305v1493h358l644 -1010v1010h305v-1493h-351l-651 1026v-1026z" />
    <glyph glyph-name="nacute" unicode="&#x144;" 
d="M668 1544h342l-303 -356h-244zM795 0v565q0 92 -45 144.5t-132 52.5q-91 0 -137 -55q-47 -59 -47 -142v-565h-297v1018h295v-133h4q26 46 69.5 80.5t90.5 48.5q79 24 127 24q93 0 165.5 -33.5t116 -91t65.5 -128.5t22 -152v-633h-297z" />
    <glyph glyph-name="Ncommaaccent" unicode="&#x145;" horiz-adv-x="1654" 
d="M479 0h-305v1493h358l644 -1010v1010h305v-1493h-351l-651 1026v-1026zM993 -358q0 -152 -82 -256q-86 -102 -231 -123v114q139 47 166 177q-28 -7 -47 -7q-66 0 -103 43q-41 41 -41 107q0 63 50 104t114 41q84 0 129 -57q45 -54 45 -143z" />
    <glyph glyph-name="ncommaaccent" unicode="&#x146;" 
d="M795 0v565q0 91 -46 144t-133 53q-89 0 -135 -55q-47 -59 -47 -142v-565h-297v1018h295v-133h2q27 46 70.5 80.5t89.5 48.5q81 24 129 24q93 0 165.5 -33.5t116 -91t65.5 -128.5t22 -152v-633h-297zM782 -358q0 -149 -84 -256q-86 -102 -229 -123v114q137 46 164 177
q-24 -7 -49 -7q-64 0 -101 43q-41 44 -41 107t50 104t114 41q84 0 129 -57q47 -59 47 -143z" />
    <glyph glyph-name="Ncaron" unicode="&#x147;" horiz-adv-x="1654" 
d="M504 1960h254l116 -174l117 174h252l-229 -332h-279zM1176 483v1010h305v-1493h-351l-651 1026v-1026h-305v1493h358z" />
    <glyph glyph-name="ncaron" unicode="&#x148;" 
d="M246 1522h254l114 -174l119 174h252l-229 -332h-281zM1092 633v-633h-297v565q0 92 -45 144.5t-132 52.5q-91 0 -137 -55q-47 -59 -47 -142v-565h-297v1018h295v-133h4q26 46 69.5 80.5t90.5 48.5q79 24 127 24q93 0 165.5 -33.5t116 -91t65.5 -128.5t22 -152z" />
    <glyph glyph-name="Eng" unicode="&#x14a;" horiz-adv-x="1654" 
d="M1176 1493h305v-1628q0 -164 -99 -266q-94 -101 -264 -101q-113 0 -180 23v246q61 -11 98 -11q68 0 104 35.5t36 102.5v90l-697 1054v-1038h-305v1493h358l644 -971v971z" />
    <glyph glyph-name="eng" unicode="&#x14b;" 
d="M1092 633v-768q0 -161 -97 -266q-94 -101 -258 -101q-115 0 -182 23v246q61 -11 98 -11q65 0 103.5 36.5t38.5 101.5v671q0 91 -46 144t-133 53q-89 0 -135 -55q-47 -59 -47 -142v-565h-297v1018h295v-133h2q27 46 70.5 80.5t89.5 48.5q81 24 129 24q93 0 165.5 -33.5
t116 -91t65.5 -128.5t22 -152z" />
    <glyph glyph-name="Omacron" unicode="&#x14c;" horiz-adv-x="1714" 
d="M1206 1876v-221h-694v221h694zM82 745q0 159 61 302t166 245q100 100 250 164q148 60 301 60q163 0 303 -60q142 -59 246 -160q103 -103 164 -243q59 -142 59 -301q0 -161 -61 -301q-63 -148 -166 -248q-107 -107 -248 -164q-145 -62 -303 -62q-159 0 -302 59.5t-246 162
t-163.5 245t-60.5 301.5zM459 983q-60 -111 -60 -235q0 -125 60 -236q61 -108 166 -172q107 -64 233 -64q128 0 232 64q105 62 167 172q60 111 60 236q3 125 -59 234t-169 173t-231 62q-126 0 -233 -64q-104 -61 -166 -170z" />
    <glyph glyph-name="omacron" unicode="&#x14d;" horiz-adv-x="1259" 
d="M979 1421v-223h-694v223h694zM74 506q0 145 76 272q75 126 202 195q132 69 281 69q155 0 278 -69q128 -68 201 -191q74 -121 74 -270q0 -148 -74 -272q-76 -125 -203 -193q-128 -70 -280 -70q-151 0 -281 68q-126 70 -198 191q-76 127 -76 270zM451 696q-72 -75 -72 -186
t72 -186q74 -74 180 -74q104 0 178 74q72 69 72 186q0 114 -72 186q-74 74 -180 74q-104 0 -178 -74z" />
    <glyph glyph-name="Ohungarumlaut" unicode="&#x150;" horiz-adv-x="1714" 
d="M735 1982h332l-301 -358h-236zM1155 1982h334l-303 -358h-234zM82 745q0 159 61 302t166 245q100 100 250 164q148 60 301 60q163 0 303 -60q142 -59 246 -160q103 -103 164 -243q59 -142 59 -301q0 -161 -61 -301q-63 -148 -166 -248q-107 -107 -248 -164
q-145 -62 -303 -62q-159 0 -302 59.5t-246 162t-163.5 245t-60.5 301.5zM459 983q-60 -111 -60 -235q0 -125 60 -236q61 -108 166 -172q107 -64 233 -64q128 0 232 64q105 62 167 172q60 111 60 236q3 125 -59 234t-169 173t-231 62q-126 0 -233 -64q-104 -61 -166 -170z
" />
    <glyph glyph-name="ohungarumlaut" unicode="&#x151;" horiz-adv-x="1259" 
d="M500 1544h331l-301 -356h-235zM920 1544h333l-303 -356h-233zM74 506q0 145 76 272q75 126 202 195q132 69 281 69q155 0 278 -69q128 -68 201 -191q74 -121 74 -270q0 -148 -74 -272q-76 -125 -203 -193q-128 -70 -280 -70q-151 0 -281 68q-126 70 -198 191
q-76 127 -76 270zM451 696q-72 -75 -72 -186t72 -186q74 -74 180 -74q104 0 178 74q72 69 72 186q0 114 -72 186q-74 74 -180 74q-104 0 -178 -74z" />
    <glyph glyph-name="OE" unicode="&#x152;" horiz-adv-x="2406" 
d="M1317 0v160q-92 -85 -212 -131.5t-253 -46.5q-166 0 -301 59q-145 59 -246 160q-102 96 -162 241q-61 140 -61 299q0 160 61 303q60 138 168 246q101 101 248 164q145 62 303 62q258 0 455 -179v156h977v-289h-676v-305h606v-289h-606v-321h682v-289h-983zM399 748
q-3 -124 59.5 -233.5t170.5 -174t231 -61.5q121 -3 229 61.5t171 174t61 233.5q2 125 -61 234.5t-170.5 174t-229.5 62.5q-124 2 -231.5 -62.5t-170 -174t-59.5 -234.5z" />
    <glyph glyph-name="oe" unicode="&#x153;" horiz-adv-x="2004" 
d="M1925 426h-739q12 -85 80 -141q69 -60 170 -60q67 0 131 39q66 40 86 98l245 -83q-48 -136 -167 -218q-125 -84 -289 -84q-252 0 -410 162q-79 -77 -183 -119.5t-220 -42.5q-151 0 -281 68q-126 70 -198 191q-76 127 -76 270q0 145 76 272q75 126 202 195q132 69 281 69
q117 0 221.5 -42t179.5 -119q164 161 389 161q226 0 367 -141t141 -369q0 -60 -6 -106zM1194 625h436q-3 60 -51 114q-25 28 -68.5 45t-95.5 17q-90 0 -151 -58q-62 -62 -70 -118zM451 324q74 -74 180 -74q104 0 178 74q72 69 72 186q0 114 -72 186q-74 74 -180 74
q-104 0 -178 -74q-72 -75 -72 -186t72 -186z" />
    <glyph glyph-name="Racute" unicode="&#x154;" horiz-adv-x="1392" 
d="M725 1987h342l-301 -357h-244zM991 0l-284 537h-224v-537h-309v1493h590q226 0 373 -117q72 -60 112.5 -151.5t40.5 -204.5q0 -156 -73 -264t-205 -162l315 -594h-336zM481 821h258q98 0 168 49q70 46 70 144q0 68 -36.5 111.5t-87.5 59t-116 15.5h-256v-379z" />
    <glyph glyph-name="racute" unicode="&#x155;" horiz-adv-x="808" 
d="M485 1544h342l-301 -356h-243zM768 1018v-291q-54 8 -96 8q-110 0 -176 -76.5t-66 -212.5v-446h-293v1018h283v-148h4q75 158 262 158q37 0 82 -10z" />
    <glyph glyph-name="Rcommaaccent" unicode="&#x156;" horiz-adv-x="1392" 
d="M991 0l-284 537h-224v-537h-309v1493h590q226 0 373 -117q72 -60 112.5 -151.5t40.5 -204.5q0 -156 -73 -264t-205 -162l315 -594h-336zM481 821h258q98 0 168 49q70 46 70 144q0 68 -36.5 111.5t-87.5 59t-116 15.5h-256v-379zM879 -358q0 -149 -84 -256
q-85 -102 -230 -123v114q137 47 164 177q-25 -7 -47 -7q-65 0 -102 43q-39 42 -39 107q0 66 47 104q50 41 117 41q81 0 126 -57q48 -57 48 -143z" />
    <glyph glyph-name="rcommaaccent" unicode="&#x157;" horiz-adv-x="806" 
d="M766 1018v-291q-54 8 -94 8q-112 0 -177 -76.5t-65 -212.5v-446h-293v1018h283v-148h2q75 158 264 158q35 0 80 -10zM457 -358q0 -149 -84 -256q-85 -102 -230 -123v114q137 47 164 177q-25 -7 -47 -7q-65 0 -102 43q-41 44 -41 107q0 64 49 104q50 41 115 41
q84 0 129 -57q47 -56 47 -143z" />
    <glyph glyph-name="Rcaron" unicode="&#x158;" horiz-adv-x="1392" 
d="M270 1960h254l115 -174l119 174h252l-232 -332h-278zM1012 594l315 -594h-336l-284 537h-224v-537h-309v1493h590q226 0 373 -117q72 -60 112.5 -151.5t40.5 -204.5q0 -156 -73 -264t-205 -162zM737 1200h-256v-379h258q98 0 168 49q70 46 70 144q0 68 -36.5 111.5
t-87.5 59t-116 15.5z" />
    <glyph glyph-name="rcaron" unicode="&#x159;" horiz-adv-x="808" 
d="M82 1522h256l115 -174l116 174h252l-229 -332h-279zM768 1018v-291q-54 8 -96 8q-110 0 -176 -76.5t-66 -212.5v-446h-293v1018h283v-148h4q75 158 262 158q37 0 82 -10z" />
    <glyph glyph-name="Sacute" unicode="&#x15a;" horiz-adv-x="1302" 
d="M719 1987h342l-303 -357h-244zM668 -23q-259 0 -412 123q-151 124 -188 340l290 68q18 -118 107 -186q84 -66 213 -66q108 0 164 47q59 47 59 121q0 56 -45.5 99.5t-122.5 56.5l-211 43q-181 34 -291 147q-106 112 -106 281q0 96 42 183t114 150q74 61 171 96.5t201 35.5
q121 0 222 -33.5t167 -91.5q129 -123 150 -273l-281 -82q-21 96 -87 149.5t-175 53.5q-91 0 -155 -49q-62 -50 -62 -115q0 -59 39 -99.5t115 -55.5l209 -39q205 -38 311 -156q111 -120 111 -283q0 -177 -142 -319q-69 -68 -175 -107t-232 -39z" />
    <glyph glyph-name="sacute" unicode="&#x15b;" horiz-adv-x="987" 
d="M551 1544h340l-301 -356h-244zM502 -23q-84 0 -158 21.5t-121 56.5q-50 35 -82 78q-62 73 -69 158l262 55q6 -56 49 -96q46 -43 115 -43q55 0 86.5 26.5t31.5 61.5q0 67 -98 88l-129 29q-144 32 -218.5 108.5t-74.5 188.5q0 141 111 235q113 98 278 98q115 0 200.5 -38.5
t135.5 -100.5q62 -73 72 -153l-258 -56q-11 56 -49 88.5t-99 32.5q-50 0 -81 -25t-31 -61q0 -59 80 -74l141 -30q149 -29 229 -111t80 -199q0 -133 -98 -231q-51 -49 -130.5 -78t-174.5 -29z" />
    <glyph glyph-name="Scircumflex" unicode="&#x15c;" horiz-adv-x="1302" 
d="M659 1802l-116 -174h-254l231 332h279l229 -332h-252zM668 -23q-259 0 -412 123q-151 124 -188 340l290 68q18 -118 107 -186q84 -66 213 -66q108 0 164 47q61 49 61 121q0 56 -46.5 99.5t-123.5 56.5l-211 43q-181 34 -291 147q-106 112 -106 281q0 96 42 183t114 150
q74 61 171 96.5t201 35.5q121 0 222 -33.5t167 -91.5q129 -123 150 -273l-281 -82q-21 96 -87 149.5t-175 53.5q-91 0 -155 -49q-62 -50 -62 -115q0 -59 39 -99.5t115 -55.5l209 -39q205 -38 311 -156q111 -120 111 -283q0 -177 -142 -319q-69 -68 -175 -107t-232 -39z" />
    <glyph glyph-name="scircumflex" unicode="&#x15d;" horiz-adv-x="987" 
d="M487 1364l-114 -174h-254l229 332h279l231 -332h-254zM502 -23q-170 0 -279 78q-50 35 -82 78q-66 77 -69 158l262 55q6 -57 51 -96q43 -43 115 -43q54 0 86 26.5t32 61.5q0 67 -100 88l-127 29q-145 34 -220 110t-75 187q0 141 113 235q110 98 276 98q115 0 200.5 -38.5
t135.5 -100.5q62 -73 72 -153l-258 -56q-11 56 -49 88.5t-99 32.5q-49 0 -80.5 -25t-31.5 -61q0 -59 80 -74l141 -30q149 -29 229 -111t80 -199q0 -133 -98 -231q-51 -49 -130.5 -78t-174.5 -29z" />
    <glyph glyph-name="Scedilla" unicode="&#x15e;" horiz-adv-x="1300" 
d="M1214 442q0 -158 -106 -282q-107 -128 -297 -168q39 -77 39 -185q0 -83 -27 -143t-76.5 -95t-112.5 -51t-142 -16q-77 0 -140 17v200q47 -8 99 -8q82 0 122.5 46.5t40.5 133.5q0 51 -14 89q-228 17 -363 136t-169 324l288 68q18 -118 107 -186q87 -66 213 -66
q108 0 164 47q61 49 61 121q0 56 -46.5 99.5t-123.5 56.5l-211 43q-182 35 -291 147q-106 112 -106 281q0 96 42 183t114 150q74 61 171 96.5t201 35.5q121 0 222 -33.5t167 -91.5q129 -120 150 -273l-281 -82q-21 96 -87 149.5t-175 53.5q-91 0 -155 -49q-62 -50 -62 -115
q0 -58 39.5 -99t114.5 -56l209 -39q204 -38 313 -156q108 -120 108 -283z" />
    <glyph glyph-name="scedilla" unicode="&#x15f;" horiz-adv-x="976" 
d="M897 315q0 -110 -72 -200q-71 -89 -204 -119q38 -75 38 -189q0 -83 -27 -143t-76.5 -95t-112.5 -51t-142 -16q-76 0 -139 17v200q47 -8 100 -8q80 0 121 47t41 133q0 53 -18 99q-79 10 -143.5 43.5t-104.5 79.5q-74 92 -86 178l260 55q8 -61 52 -98t112 -37q56 0 86 23
t30 59q0 30 -23 54t-71 34l-131 29q-143 30 -217 106.5t-74 188.5q0 139 111 233q108 96 274 96q229 -3 332 -139q55 -68 72 -150l-252 -55q-13 53 -51 85t-99 32q-47 0 -79.5 -24t-32.5 -58q0 -56 80 -74l141 -28q146 -30 225.5 -111.5t79.5 -196.5z" />
    <glyph glyph-name="Scaron" unicode="&#x160;" horiz-adv-x="1306" 
d="M272 1966h258l115 -174l117 174h252l-230 -332h-278zM672 -23q-264 0 -414 123q-152 122 -190 340l294 68q18 -118 107 -186q84 -66 213 -66q108 0 164 47q61 49 61 121q0 56 -46.5 99.5t-123.5 56.5l-211 43q-190 38 -295 149q-108 111 -108 279q0 130 74 239
q73 107 194 166q120 60 264 60q122 0 224 -33.5t168 -91.5q128 -122 149 -273l-281 -82q-21 95 -87.5 149t-174.5 54q-91 0 -155 -49q-62 -50 -62 -115q0 -59 39 -99.5t115 -55.5l209 -39q202 -38 311 -156q111 -120 111 -283q0 -177 -142 -319q-69 -68 -175.5 -107
t-231.5 -39z" />
    <glyph glyph-name="scaron" unicode="&#x161;" horiz-adv-x="989" 
d="M119 1526h258l115 -174l116 174h252l-229 -332h-279zM504 -23q-126 1 -219 44.5t-144 111.5q-62 76 -69 158l264 55q6 -57 51 -96q43 -43 115 -43q54 0 86.5 26.5t32.5 61.5q0 67 -101 88l-127 29q-145 33 -221 110t-76 187q0 141 113 235q113 98 278 98
q115 0 200.5 -38.5t135.5 -100.5q62 -73 72 -153l-258 -56q-11 56 -49 88.5t-99 32.5q-49 0 -80.5 -25t-31.5 -61q0 -59 80 -74l141 -30q149 -29 230 -111t81 -199q0 -136 -100 -231q-51 -49 -130.5 -78t-174.5 -29z" />
    <glyph glyph-name="uni0162" unicode="&#x162;" horiz-adv-x="1284" 
d="M838 -193q0 -83 -27 -143t-77 -95t-113 -51t-142 -16q-76 0 -139 17v200q47 -8 100 -8q80 0 121 47t41 133q0 57 -22 109h-93v1194h-446v299h1202v-299h-446v-1194q41 -80 41 -193z" />
    <glyph glyph-name="uni0163" unicode="&#x163;" horiz-adv-x="872" 
d="M535 760v-385q0 -63 36.5 -97t108.5 -34q41 0 104 8v-242q-71 -21 -159 -24q37 -78 37 -179q0 -158 -97 -233q-101 -72 -264 -72q-65 0 -108 9v204q62 -4 69 -4q81 0 122.5 47t41.5 133q0 85 -35 142q-153 86 -153 325v402h-197v258h203v319h291v-319h251v-258h-251z" />
    <glyph glyph-name="Tcaron" unicode="&#x164;" horiz-adv-x="1286" 
d="M274 1960h254l115 -174l117 174h254l-232 -332h-278zM41 1194v299h1204v-299h-446v-1194h-310v1194h-448z" />
    <glyph glyph-name="tcaron" unicode="&#x165;" horiz-adv-x="872" 
d="M692 1554h312l-132 -438h-206zM535 1018h251v-258h-251v-385q0 -63 36.5 -97t108.5 -34q41 0 104 8v-242q-74 -24 -178 -24q-368 0 -368 372v402h-197v258h203v319h291v-319z" />
    <glyph glyph-name="Tbar" unicode="&#x166;" horiz-adv-x="1314" 
d="M504 502h-248v252h248v440h-449v299h1205v-299h-449v-440h248v-252h-248v-502h-307v502z" />
    <glyph glyph-name="tbar" unicode="&#x167;" horiz-adv-x="880" 
d="M246 406h-187v196h187v158h-197v258h203v319h291v-319h252v-258h-252v-158h196v-196h-196v-31q0 -63 36.5 -97t108.5 -34q42 0 105 8v-242q-74 -24 -179 -24q-368 0 -368 372v48z" />
    <glyph glyph-name="Utilde" unicode="&#x168;" horiz-adv-x="1515" 
d="M909 1628q-88 0 -155 45q-72 45 -121 45q-57 0 -60 -90h-176l-2 49q-5 113 51 179.5t166 66.5q55 2 150.5 -44t120.5 -44q27 3 39 11.5t20 27.5q6 19 8 45h170l2 -47q5 -112 -50.5 -178t-162.5 -66zM1358 1493v-891q0 -289 -154 -457q-149 -165 -448 -165
q-305 0 -455 170q-141 160 -141 442v901h309l-2 -895q0 -158 82 -240q79 -82 209 -82q139 0 217 84q78 87 78 232v901h305z" />
    <glyph glyph-name="utilde" unicode="&#x169;" 
d="M756 1190q-86 0 -158 45t-121 45q-56 0 -59 -88h-174l-2 47q-5 113 50 179.5t165 66.5q55 2 151 -44t121 -44q26 3 38.5 12t18.5 29q7 20 11 45h168l2 -49q5 -112 -50 -178t-161 -66zM127 1018h297v-567q0 -92 44.5 -143.5t133.5 -51.5t135 55q47 56 47 140v567h297
v-1018h-293v127h-4q-102 -147 -282 -147q-91 0 -164.5 32t-118.5 90q-92 115 -92 277v639z" />
    <glyph glyph-name="Umacron" unicode="&#x16a;" horiz-adv-x="1515" 
d="M1106 1876v-221h-694v221h694zM1358 1493v-891q0 -289 -154 -457q-149 -165 -448 -165q-305 0 -455 170q-141 160 -141 442v901h309l-2 -895q0 -158 82 -240q79 -82 209 -82q139 0 217 84q78 87 78 232v901h305z" />
    <glyph glyph-name="umacron" unicode="&#x16b;" 
d="M952 1421v-223h-696v223h696zM127 1018h297v-567q0 -92 44.5 -143.5t133.5 -51.5t135 55q47 56 47 140v567h297v-1018h-293v127h-4q-102 -147 -282 -147q-91 0 -164.5 32t-118.5 90q-92 115 -92 277v639z" />
    <glyph glyph-name="Uring" unicode="&#x16e;" horiz-adv-x="1515" 
d="M1055 1868q0 -121 -86 -201q-85 -82 -209 -82q-122 0 -207 82q-88 82 -88 201q0 116 88 198q91 82 207 82q121 0 209 -82q86 -83 86 -198zM883 1868q0 44 -37 78q-36 36 -86 36q-53 0 -88 -33t-35 -81q0 -46 35 -84q36 -33 88 -33t88 33q35 38 35 84zM1358 1493v-891
q0 -289 -154 -457q-149 -165 -448 -165q-305 0 -455 170q-141 160 -141 442v901h309l-2 -895q0 -158 82 -240q79 -82 209 -82q139 0 217 84q78 87 78 232v901h305z" />
    <glyph glyph-name="uring" unicode="&#x16f;" 
d="M899 1432q0 -121 -88 -203t-209 -82q-120 0 -207 84q-88 85 -88 201q0 114 88 196t207 82q124 0 209 -82q88 -79 88 -196zM727 1432q0 44 -39 77q-37 37 -86 37q-52 0 -87.5 -33t-35.5 -81q0 -46 35 -84q38 -35 88 -35t88 35q37 37 37 84zM127 1018h297v-567
q0 -92 44.5 -143.5t133.5 -51.5t135 55q47 56 47 140v567h297v-1018h-293v127h-4q-102 -147 -282 -147q-91 0 -164.5 32t-118.5 90q-92 115 -92 277v639z" />
    <glyph glyph-name="Uhungarumlaut" unicode="&#x170;" horiz-adv-x="1515" 
d="M635 1982h334l-303 -358h-236zM1057 1982h334l-304 -358h-235zM1358 1493v-891q0 -289 -154 -457q-149 -165 -448 -165q-305 0 -455 170q-141 160 -141 442v901h309l-2 -895q0 -158 82 -240q79 -82 209 -82q139 0 217 84q78 87 78 232v901h305z" />
    <glyph glyph-name="uhungarumlaut" unicode="&#x171;" 
d="M471 1544h334l-303 -356h-236zM893 1544h334l-303 -356h-236zM127 1018h297v-567q0 -92 44.5 -143.5t133.5 -51.5t135 55q47 56 47 140v567h297v-1018h-293v127h-4q-102 -147 -282 -147q-91 0 -164.5 32t-118.5 90q-92 115 -92 277v639z" />
    <glyph glyph-name="Uogonek" unicode="&#x172;" horiz-adv-x="1515" 
d="M1358 1493v-897q0 -375 -262 -535q-117 -71 -185 -145q-73 -73 -73 -131q0 -52 45 -78q47 -24 94 -24q33 0 80 8v-172q-103 -25 -195 -25q-159 0 -241 94q-46 49 -46 121q0 138 181 273q-306 0 -453 170q-143 162 -143 442v899h309l-2 -895q0 -158 82 -240
q79 -82 209 -82q139 0 217 84q78 87 78 232v901h305z" />
    <glyph glyph-name="uogonek" unicode="&#x173;" 
d="M1081 1018v-1018q-76 -48 -129 -104q-57 -57 -57 -111q0 -50 45 -78q46 -24 94 -24l39 2v-174q-55 -17 -143 -17q-170 0 -252 94q-45 48 -45 121q0 145 211 291h-56v127h-4q-102 -147 -282 -147q-91 0 -164.5 32t-118.5 90q-92 115 -92 277v639h297v-567
q0 -92 44.5 -143.5t133.5 -51.5t135 55q47 56 47 140v567h297z" />
    <glyph glyph-name="Wcircumflex" unicode="&#x174;" horiz-adv-x="2271" 
d="M1137 1802l-115 -174h-256l231 332h281l229 -332h-252zM807 0h-334l-436 1493h330l284 -1061l322 1061h327l324 -1069l295 1069h317l-442 -1493h-334l-323 1083h-4z" />
    <glyph glyph-name="wcircumflex" unicode="&#x175;" horiz-adv-x="1701" 
d="M852 1364l-115 -174h-254l230 332h280l230 -332h-252zM1180 381l192 637h297l-317 -1018h-295l-207 649l-211 -649h-289l-315 1018h303l184 -631h2l191 631h274z" />
    <glyph glyph-name="Ycircumflex" unicode="&#x176;" horiz-adv-x="1454" 
d="M358 1960h254l115 -174l119 174h252l-230 -332h-280zM573 0v590l-546 903h356l344 -598l350 598h353l-547 -889v-604h-310z" />
    <glyph glyph-name="ycircumflex" unicode="&#x177;" horiz-adv-x="1165" 
d="M596 1364l-115 -174h-256l232 332h278l230 -332h-252zM453 109l-428 909h327l254 -582l228 582h307l-619 -1520h-317z" />
    <glyph glyph-name="Ydieresis" unicode="&#x178;" horiz-adv-x="1454" 
d="M592 1661q-47 -47 -117 -47q-73 0 -117 47q-49 49 -49 119q0 67 49 116q47 50 117 50q67 0 117 -50q49 -49 49 -116q0 -70 -49 -119zM948 1614q-70 0 -117 47t-47 119q0 69 47 116q47 50 117 50q67 0 117 -50q49 -49 49 -116q0 -70 -49 -119q-47 -47 -117 -47zM573 0v590
l-546 903h356l344 -598l350 598h353l-547 -889v-604h-310z" />
    <glyph glyph-name="Zacute" unicode="&#x179;" horiz-adv-x="1306" 
d="M702 1987h342l-303 -357h-243zM76 0v272l745 936h-710v285h1095v-266l-741 -940h756l2 -287h-1147z" />
    <glyph glyph-name="zacute" unicode="&#x17a;" horiz-adv-x="1030" 
d="M555 1544h342l-303 -356h-244zM557 764h-461v254h844v-227l-481 -537h483v-254h-860v231z" />
    <glyph glyph-name="Zdotaccent" unicode="&#x17b;" horiz-adv-x="1306" 
d="M469 1796q0 76 53 129t127 53q76 0 129 -53q56 -56 56 -129q0 -74 -56 -127q-52 -55 -129 -55q-75 0 -127 55q-53 50 -53 127zM111 1493h1095v-266l-741 -940h756l2 -287h-1145v272l743 936h-710v285z" />
    <glyph glyph-name="zdotaccent" unicode="&#x17c;" horiz-adv-x="1030" 
d="M330 1360q0 74 53 127q50 53 127 53q78 0 131 -53t53 -127q0 -76 -53 -129t-131 -53q-77 0 -127 53q-53 53 -53 129zM940 791l-479 -537h481v-254h-860v231l477 533h-461v254h842v-227z" />
    <glyph glyph-name="Zcaron" unicode="&#x17d;" horiz-adv-x="1310" 
d="M281 1960h258l114 -174l117 174h254l-231 -332h-279zM109 1493h1099v-266l-739 -940h756l2 -287h-1149v272l747 936h-716v285z" />
    <glyph glyph-name="zcaron" unicode="&#x17e;" horiz-adv-x="1030" 
d="M143 1522h254l115 -174l119 174h252l-232 -332h-278zM940 791l-481 -537h483v-254h-860v231l475 533h-461v254h844v-227z" />
    <glyph glyph-name="florin" unicode="&#x192;" horiz-adv-x="1179" 
d="M530 1018l25 119q25 117 86 202q38 50 84 82q106 78 272 78q103 0 156 -20v-250q-75 16 -127 16q-72 0 -120 -40t-62 -111l-15 -76h234v-254h-285l-82 -420q-34 -183 -170 -285q-108 -77 -278 -77q-87 0 -158 22v250q72 -16 129 -16q76 0 123 39t61 110l76 377h-188v254
h239z" />
    <glyph glyph-name="uni01B5" unicode="&#x1b5;" horiz-adv-x="1308" 
d="M80 0v266l280 357h-249v264h458l254 323h-712v283h1095v-260l-270 -346h270v-264h-477l-264 -338h758v-285h-1143z" />
    <glyph glyph-name="uni01B6" unicode="&#x1b6;" horiz-adv-x="1032" 
d="M942 0h-860v217l184 213h-170v158h305l156 180h-461v250h844v-213l-188 -217h188v-158h-324l-157 -180h483v-250z" />
    <glyph glyph-name="uni01CD" unicode="&#x1cd;" horiz-adv-x="1509" 
d="M379 1966h254l115 -174l118 174h252l-229 -332h-281zM-2 0l571 1493h371l573 -1493h-319l-119 319h-643l-119 -319h-315zM969 606l-217 588l-217 -588h434z" />
    <glyph glyph-name="uni01CE" unicode="&#x1ce;" horiz-adv-x="1126" 
d="M193 1522h253l115 -174l117 174h254l-232 -332h-278zM418 -20q-138 0 -238 83q-100 84 -100 222v8q0 198 205 270q108 41 243 41h99q39 0 59.5 18.5t20.5 51.5q0 56 -42.5 91.5t-117.5 35.5q-67 0 -116 -37t-66 -102l-263 59q18 105 88 178q69 75 166 109q93 34 205 34
q195 2 316.5 -106t121.5 -305v-467q0 -58 9 -164h-277q-6 40 -6 127h-4q-107 -147 -303 -147zM504 197q91 0 147 59q56 56 56 137v25h-179q-52 0 -100 -31q-49 -30 -49 -86q0 -49 35 -76.5t90 -27.5z" />
    <glyph glyph-name="uni01CF" unicode="&#x1cf;" horiz-adv-x="657" 
d="M-41 1960h254l115 -174l118 174h252l-229 -332h-281zM174 0v1493h309v-1493h-309z" />
    <glyph glyph-name="uni01D0" unicode="&#x1d0;" horiz-adv-x="573" 
d="M-82 1522h254l115 -174l116 174h252l-229 -332h-279zM436 0h-299v1018h299v-1018z" />
    <glyph glyph-name="uni01D1" unicode="&#x1d1;" horiz-adv-x="1714" 
d="M487 1960h254l117 -174l117 174h252l-230 -332h-280zM82 745q0 159 61 302t166 245q100 100 250 164q148 60 301 60q163 0 303 -60q142 -59 246 -160q103 -103 164 -243q59 -142 59 -301q0 -161 -61 -301q-63 -148 -166 -248q-107 -107 -248 -164q-145 -62 -303 -62
q-159 0 -302 59.5t-246 162t-163.5 245t-60.5 301.5zM459 983q-60 -111 -60 -235q0 -125 60 -236q61 -108 166 -172q107 -64 233 -64q128 0 232 64q105 62 167 172q60 111 60 236q3 125 -59 234t-169 173t-231 62q-126 0 -233 -64q-104 -61 -166 -170z" />
    <glyph glyph-name="uni01D2" unicode="&#x1d2;" horiz-adv-x="1259" 
d="M260 1522h254l117 -174l117 174h251l-229 -332h-278zM74 506q0 145 76 272q75 126 202 195q132 69 281 69q155 0 278 -69q128 -68 201 -191q74 -121 74 -270q0 -148 -74 -272q-76 -125 -203 -193q-128 -70 -280 -70q-151 0 -281 68q-126 70 -198 191q-76 127 -76 270z
M451 696q-72 -75 -72 -186t72 -186q74 -74 180 -74q104 0 178 74q72 69 72 186q0 114 -72 186q-74 74 -180 74q-104 0 -178 -74z" />
    <glyph glyph-name="uni01D3" unicode="&#x1d3;" horiz-adv-x="1515" 
d="M389 1960h254l115 -174l119 174h251l-229 -332h-281zM1358 1493v-891q0 -289 -154 -457q-149 -165 -448 -165q-305 0 -455 170q-141 160 -141 442v901h309l-2 -895q0 -158 82 -240q79 -82 209 -82q139 0 217 84q78 87 78 232v901h305z" />
    <glyph glyph-name="uni01D4" unicode="&#x1d4;" 
d="M236 1522h253l115 -174l117 174h252l-230 -332h-278zM127 1018h297v-567q0 -92 44.5 -143.5t133.5 -51.5t135 55q47 56 47 140v567h297v-1018h-293v127h-4q-102 -147 -282 -147q-91 0 -164.5 32t-118.5 90q-92 115 -92 277v639z" />
    <glyph glyph-name="uni01D5" unicode="&#x1d5;" horiz-adv-x="1515" 
d="M1358 1493v-891q0 -289 -154 -457q-149 -165 -448 -165q-305 0 -455 170q-141 160 -141 442v901h309l-2 -895q0 -158 82 -240q79 -82 209 -82q139 0 217 84q78 87 78 232v901h305zM1106 2212v-223h-694v223h694zM639 1616q-49 -49 -117 -49q-67 0 -116 49q-48 48 -48 115
t48 118q47 47 116 47q72 0 119 -47q47 -50 47 -118q0 -69 -49 -115zM995 1567q-68 0 -114 49q-50 47 -50 115q0 67 48 118q47 47 116 47q70 0 117 -47q49 -49 49 -118t-49 -115q-49 -49 -117 -49z" />
    <glyph glyph-name="uni01D6" unicode="&#x1d6;" 
d="M952 1737v-224h-696v224h696zM496 1159q-47 -47 -117 -47q-73 0 -117 47q-49 46 -49 117q0 67 47 117q46 49 119 49q68 0 117 -49q47 -47 47 -117t-47 -117zM831 1112q-70 0 -114 47q-49 46 -49 117q0 67 47 117q49 49 116 49q68 0 117 -49t49 -117t-49 -117
q-47 -47 -117 -47zM127 1018h297v-567q0 -92 44.5 -143.5t133.5 -51.5t135 55q47 56 47 140v567h297v-1018h-293v127h-4q-102 -147 -282 -147q-91 0 -164.5 32t-118.5 90q-92 115 -92 277v639z" />
    <glyph glyph-name="uni01D7" unicode="&#x1d7;" horiz-adv-x="1515" 
d="M1358 1493v-891q0 -289 -154 -457q-149 -165 -448 -165q-305 0 -455 170q-141 160 -141 442v901h307v-895q0 -158 82 -240q79 -82 209 -82q139 0 217 84q78 87 78 232v901h305zM821 2261h338l-287 -338h-243zM522 1548q-68 0 -114 49q-50 47 -50 115q0 66 48 117
q49 49 116 49q70 0 119 -49q47 -50 47 -117q0 -69 -49 -115q-49 -49 -117 -49zM995 1548q-68 0 -114 49q-50 47 -50 115q0 66 48 117q49 49 116 49q68 0 117 -49t49 -117q0 -69 -49 -115q-49 -49 -117 -49z" />
    <glyph glyph-name="uni01D8" unicode="&#x1d8;" 
d="M678 1843h342l-301 -358h-244zM496 1159q-47 -47 -117 -47q-73 0 -117 47q-49 46 -49 117q0 67 47 117q46 49 119 49q68 0 117 -49q47 -47 47 -117t-47 -117zM831 1112q-70 0 -114 47q-49 46 -49 117q0 67 47 117q49 49 116 49q68 0 117 -49t49 -117t-49 -117
q-47 -47 -117 -47zM127 1018h297v-567q0 -92 44.5 -143.5t133.5 -51.5t135 55q47 56 47 140v567h297v-1018h-293v127h-4q-102 -147 -282 -147q-91 0 -164.5 32t-118.5 90q-92 115 -92 277v639z" />
    <glyph glyph-name="uni01D9" unicode="&#x1d9;" horiz-adv-x="1515" 
d="M1358 1493v-891q0 -289 -154 -457q-149 -165 -448 -165q-305 0 -455 170q-141 160 -141 442v901h307v-895q0 -158 82 -240q79 -82 209 -82q139 0 217 84q78 87 78 232v901h305zM389 2236h254l115 -161l116 161h254l-229 -313h-278zM522 1548q-68 0 -114 49
q-50 47 -50 115q0 66 48 117q49 49 116 49q70 0 119 -49q47 -50 47 -117q0 -69 -49 -115q-49 -49 -117 -49zM995 1548q-68 0 -114 49q-50 47 -50 115q0 66 48 117q49 49 116 49q68 0 117 -49t49 -117q0 -69 -49 -115q-49 -49 -117 -49z" />
    <glyph glyph-name="uni01DA" unicode="&#x1da;" 
d="M236 1819h251l117 -177l117 177h254l-232 -334h-278zM496 1159q-47 -47 -117 -47q-73 0 -117 47q-49 46 -49 117q0 67 47 117q46 49 119 49q68 0 117 -49q47 -47 47 -117t-47 -117zM831 1112q-70 0 -114 47q-49 46 -49 117q0 67 47 117q49 49 116 49q68 0 117 -49
t49 -117t-49 -117q-47 -47 -117 -47zM127 1018h297v-567q0 -92 44.5 -143.5t133.5 -51.5t135 55q47 56 47 140v567h297v-1018h-293v127h-4q-102 -147 -282 -147q-91 0 -164.5 32t-118.5 90q-92 115 -92 277v639z" />
    <glyph glyph-name="uni01DB" unicode="&#x1db;" horiz-adv-x="1515" 
d="M1358 1493v-891q0 -289 -154 -457q-149 -165 -448 -165q-305 0 -455 170q-141 160 -141 442v901h309l-2 -895q0 -158 82 -240q79 -82 209 -82q139 0 217 84q78 87 78 232v901h305zM522 1548q68 0 117 49q49 46 49 115q0 67 -47 117q-49 49 -119 49q-67 0 -116 -49
q-48 -51 -48 -117q0 -68 50 -115q46 -49 114 -49zM891 1923h-244l-285 338h336zM995 1548q68 0 117 49q49 46 49 115q0 68 -49 117t-117 49q-67 0 -116 -49q-48 -51 -48 -117q0 -68 50 -115q46 -49 114 -49z" />
    <glyph glyph-name="uni01DC" unicode="&#x1dc;" 
d="M539 1843l202 -358h-243l-301 358h342zM496 1159q-47 -47 -117 -47q-73 0 -117 47q-49 46 -49 117q0 67 47 117q46 49 119 49q68 0 117 -49q47 -47 47 -117t-47 -117zM831 1112q-70 0 -114 47q-49 46 -49 117q0 67 47 117q49 49 116 49q68 0 117 -49t49 -117t-49 -117
q-47 -47 -117 -47zM127 1018h297v-567q0 -92 44.5 -143.5t133.5 -51.5t135 55q47 56 47 140v567h297v-1018h-293v127h-4q-102 -147 -282 -147q-91 0 -164.5 32t-118.5 90q-92 115 -92 277v639z" />
    <glyph glyph-name="Gcaron" unicode="&#x1e6;" horiz-adv-x="1636" 
d="M492 1960h256l114 -174l117 174h252l-230 -332h-278zM1243 522h-455v281h779v-117q0 -133 -38.5 -249t-107.5 -201q-71 -87 -157 -142q-174 -117 -406 -117q-170 0 -315 62q-146 58 -246 164q-101 104 -158 245t-57 297q0 212 106 392q105 175 285 278q177 101 387 101
q133 0 250.5 -37t202.5 -103q169 -131 219 -315l-301 -92q-24 100 -127 178q-103 74 -246 74q-125 0 -231 -62t-166 -170q-64 -110 -64 -241q0 -130 58.5 -239t165.5 -173q107 -66 237 -66q145 0 254 70q104 70 131 182z" />
    <glyph glyph-name="gcaron" unicode="&#x1e7;" horiz-adv-x="1300" 
d="M272 1522h254l115 -174l117 174h254l-232 -332h-278zM864 895h4v123h293v-967q0 -136 -41 -244t-116 -176q-153 -141 -400 -141q-107 0 -201.5 31t-158.5 84q-138 110 -162 252l274 80q16 -79 76 -134q56 -53 160 -53q116 0 194 67.5t78 200.5v117h-4
q-105 -135 -293 -135q-141 0 -256 68q-111 66 -174 186q-61 116 -61 260q0 199 131 356q61 75 153.5 119.5t196.5 44.5q56 0 137 -22q98 -30 170 -117zM872 514q0 113 -69 182q-69 72 -178 72q-105 0 -174 -72q-72 -69 -72 -182q0 -111 70 -184q72 -72 176 -72t176 72
q71 71 71 184z" />
    <glyph glyph-name="uni01E8" unicode="&#x1e8;" horiz-adv-x="1404" 
d="M389 1960h254l115 -174l119 174h251l-229 -332h-281zM993 1493h387l-571 -715l608 -778h-397l-539 709v-709h-307v1493h307v-649z" />
    <glyph glyph-name="uni01E9" unicode="&#x1e9;" horiz-adv-x="1179" 
d="M434 481v-481h-297v1554h297v-936l354 400h379l-409 -469l420 -549h-375l-361 481h-8zM891 1348l-115 174h-254l230 -332h280l230 332h-252z" />
    <glyph glyph-name="uni01F4" unicode="&#x1f4;" horiz-adv-x="1636" 
d="M938 1987h342l-301 -357h-246zM1567 803v-117q0 -133 -38.5 -249t-107.5 -201q-71 -87 -157 -142q-174 -117 -406 -117q-170 0 -315 62q-146 58 -246 164q-101 104 -158 245t-57 297q0 212 106 392q105 175 285 278q177 101 387 101q133 0 250.5 -37t202.5 -103
q169 -131 219 -315l-301 -92q-24 100 -127 178q-103 74 -246 74q-125 0 -231 -62t-166 -170q-64 -110 -64 -241q0 -130 58.5 -239t165.5 -173q107 -66 237 -66q145 0 254 70q104 70 131 182h-455v281h779z" />
    <glyph glyph-name="uni01F5" unicode="&#x1f5;" horiz-adv-x="1300" 
d="M670 1544h342l-303 -356h-244zM1161 1018v-967q0 -136 -41 -244t-116 -176q-153 -141 -400 -141q-107 0 -201.5 31t-158.5 84q-138 110 -162 252l274 80q16 -79 76 -134q56 -53 160 -53q116 0 194 67.5t78 200.5v117h-4q-105 -135 -293 -135q-141 0 -256 68
q-111 66 -174 186q-61 116 -61 260q0 199 131 356q61 75 153.5 119.5t196.5 44.5q56 0 137 -22q98 -30 170 -117h4v123h293zM872 514q0 113 -69 182q-69 72 -178 72q-105 0 -174 -72q-72 -69 -72 -182q0 -111 70 -184q72 -72 176 -72t176 72q71 71 71 184z" />
    <glyph glyph-name="Aringacute" unicode="&#x1fa;" horiz-adv-x="1509" 
d="M956 2062h342l-286 -338q37 -64 37 -135q0 -106 -74 -186l538 -1403h-319l-119 317h-645l-117 -317h-315l534 1401q-75 78 -75 188q0 117 88 199t207 82q42 0 88 -12zM752 1194l-217 -588h434zM752 1704q-54 0 -88.5 -32.5t-34.5 -82.5q0 -45 37 -82q34 -34 86 -34
q54 0 88 34q34 37 34 82q0 46 -34 80q-41 35 -88 35z" />
    <glyph glyph-name="aringacute" unicode="&#x1fb;" horiz-adv-x="1126" 
d="M766 1593h340l-279 -331q29 -66 29 -123q0 -83 -47 -154q190 -104 190 -354v-467q0 -58 9 -164h-277q-6 40 -6 127h-4q-107 -147 -303 -147q-138 0 -238 83q-100 84 -100 222v8q0 198 205 270q108 41 243 41h99q39 0 59.5 18.5t20.5 51.5q0 56 -42.5 91.5t-117.5 35.5
q-67 0 -116 -37t-66 -102l-263 59q30 180 209 266q-45 68 -45 152q0 115 86 198q88 82 209 82q43 0 96 -16zM707 418h-179q-52 0 -100 -31q-49 -30 -49 -86q0 -49 35 -76.5t90 -27.5q91 0 147 59q56 56 56 137v25zM561 1233q-44 0 -73 -27t-29 -67t29 -68.5t73 -28.5
q41 0 71 28.5t30 68.5q0 36 -29 65t-72 29z" />
    <glyph glyph-name="AEacute" unicode="&#x1fc;" horiz-adv-x="2009" 
d="M1165 1982h342l-301 -358h-243zM-25 0l758 1493h1161v-289h-659v-305h590v-289h-590v-321h666v-289h-971v297h-475l-148 -297h-332zM598 584h332v622h-19z" />
    <glyph glyph-name="aeacute" unicode="&#x1fd;" horiz-adv-x="1810" 
d="M975 1544h342l-303 -356h-244zM1731 426h-738q12 -88 84 -145q71 -56 166 -56q65 0 129 39q65 40 88 98l244 -83q-50 -142 -174 -222q-127 -80 -283 -80q-126 0 -234.5 46t-183.5 131q-160 -174 -401 -174h-10q-138 0 -238 83q-100 84 -100 222v8q0 198 205 270
q108 41 243 41h99q39 0 59.5 18.5t20.5 51.5q0 56 -42.5 91.5t-117.5 35.5q-67 0 -116 -37t-66 -102l-263 59q18 105 88 178q69 75 166 109q93 34 205 34q217 0 330 -122q146 122 338 122q224 0 366 -139q142 -142 142 -364q0 -67 -6 -113zM999 625h439q-6 60 -54 114
q-55 62 -163 62q-92 0 -150 -58q-64 -60 -72 -118zM504 197q91 0 147 59q56 56 56 137v25h-179q-52 0 -100 -31q-49 -30 -49 -86q0 -49 35 -76.5t90 -27.5z" />
    <glyph glyph-name="Oslashacute" unicode="&#x1fe;" horiz-adv-x="1720" 
d="M932 1987h342l-301 -357h-246zM1634 1411l-168 -176q168 -207 168 -483q0 -161 -61 -301q-63 -148 -166 -248q-107 -107 -248 -164q-145 -62 -303 -62q-247 0 -446 140l-170 -172l-154 143l168 174q-170 209 -170 483q0 161 63 302q61 143 166 245q101 101 248 164
q148 60 303 60q248 0 447 -138l170 176zM397 748q0 -138 74 -256l631 659q-112 68 -242 68q-123 2 -231 -62.5t-171.5 -174.5t-60.5 -234zM860 276q123 -4 231.5 61.5t171.5 176t60 234.5q0 143 -74 258l-633 -662q112 -68 244 -68z" />
    <glyph glyph-name="oslashacute" unicode="&#x1ff;" horiz-adv-x="1263" 
d="M707 1544h340l-302 -356h-243zM1186 956l-115 -114q117 -141 117 -330q0 -148 -74 -272q-76 -125 -203 -193q-128 -70 -280 -70q-184 0 -328 99l-121 -119l-108 106l116 115q-114 141 -114 328q0 145 76 272q79 127 204 195q129 69 279 69q180 0 323 -98l119 121z
M379 510q0 -66 24 -121l355 352q-60 31 -125 31q-106 0 -180 -74t-74 -188zM633 248q106 0 180 74q72 75 72 188q0 65 -25 123l-356 -352q64 -33 129 -33z" />
    <glyph glyph-name="Scommaaccent" unicode="&#x218;" horiz-adv-x="1300" 
d="M666 -23q-260 0 -410 123q-151 124 -188 340l288 68q18 -118 107 -186q87 -66 213 -66q108 0 164 47q61 49 61 121q0 56 -46.5 99.5t-123.5 56.5l-211 43q-182 35 -291 147q-106 112 -106 281q0 96 42 183t114 150q74 61 171 96.5t201 35.5q121 0 222 -33.5t167 -91.5
q129 -120 150 -273l-281 -82q-21 96 -87 149.5t-175 53.5q-91 0 -155 -49q-62 -50 -62 -115q0 -58 39.5 -99t114.5 -56l209 -39q204 -38 313 -156q108 -120 108 -283q0 -177 -139 -319q-71 -68 -177 -107t-232 -39zM819 -358q0 -149 -84 -256q-86 -102 -229 -123v114
q137 47 164 177q-24 -7 -47 -7q-66 0 -103 43q-39 42 -39 107q0 64 49 104q50 41 115 41q82 0 127 -57q47 -56 47 -143z" />
    <glyph glyph-name="scommaaccent" unicode="&#x219;" horiz-adv-x="987" 
d="M502 -23q-84 0 -158 21.5t-121 56.5q-50 35 -82 78q-62 73 -69 158l262 55q6 -56 49 -96q46 -43 115 -43q55 0 86.5 26.5t31.5 61.5q0 67 -98 88l-129 29q-144 32 -218.5 108.5t-74.5 188.5q0 141 111 235q113 98 278 98q115 0 200.5 -38.5t135.5 -100.5q62 -73 72 -153
l-258 -56q-11 56 -49 88.5t-99 32.5q-50 0 -81 -25t-31 -61q0 -59 80 -74l141 -30q149 -29 229 -111t80 -199q0 -133 -98 -231q-51 -49 -130.5 -78t-174.5 -29zM659 -358q0 -153 -84 -256q-82 -102 -229 -123v114q135 46 166 177q-28 -7 -49 -7q-63 0 -103 43
q-38 41 -38 107q0 64 49 104q50 41 114 41q84 0 129 -57q45 -54 45 -143z" />
    <glyph glyph-name="uni021A" unicode="&#x21a;" horiz-adv-x="1284" 
d="M487 0v1194h-446v299h1202v-299h-446v-1194h-310zM805 -358q0 -153 -84 -256q-82 -102 -229 -123v114q136 46 163 177q-25 -7 -47 -7q-65 0 -102 43q-41 44 -41 107q0 64 49 104q50 41 117 41q82 0 127 -57q47 -59 47 -143z" />
    <glyph glyph-name="uni021B" unicode="&#x21b;" horiz-adv-x="872" 
d="M786 1018v-258h-251v-385q0 -63 36.5 -97t108.5 -34q41 0 104 8v-242q-74 -24 -178 -24q-368 0 -368 372v402h-197v258h203v319h291v-319h251zM635 -358q0 87 -47 143q-45 57 -127 57q-65 0 -115 -41q-49 -40 -49 -104q0 -65 39 -107q37 -43 102 -43q22 0 47 7
q-27 -130 -163 -177v-114q143 21 229 123q84 107 84 256z" />
    <glyph glyph-name="uni0237" unicode="&#x237;" horiz-adv-x="587" 
d="M154 -106v1124h297v-1153q0 -163 -95 -266q-98 -101 -260 -101q-113 0 -180 23v246q60 -11 96 -11q66 0 104 36t38 102z" />
    <glyph glyph-name="gravecomb" unicode="&#x300;" horiz-adv-x="0" 
d="M193 1188h-244l-301 356h342z" />
    <glyph glyph-name="acutecomb" unicode="&#x301;" horiz-adv-x="0" 
d="M-70 1544h342l-301 -356h-243z" />
    <glyph glyph-name="uni0302" unicode="&#x302;" horiz-adv-x="0" 
d="M-369 1364l-116 -174h-254l229 332h281l229 -332h-252z" />
    <glyph glyph-name="tildecomb" unicode="&#x303;" horiz-adv-x="0" 
d="M152 1190q-86 0 -158 45t-121 45q-56 0 -59 -88h-174l-2 47q-5 113 50 179.5t165 66.5q55 2 151 -44t121 -44q26 3 38.5 12t18.5 29q7 20 11 45h167l2 -49q5 -112 -49.5 -178t-160.5 -66z" />
    <glyph glyph-name="uni0304" unicode="&#x304;" horiz-adv-x="0" 
d="M348 1421v-223h-696v223h696z" />
    <glyph glyph-name="uni0306" unicode="&#x306;" horiz-adv-x="0" 
d="M0 1182q-147 0 -248 94q-99 91 -114 246h221q11 -65 46.5 -101.5t94.5 -36.5q56 0 94 38t47 100h221q-15 -156 -116 -246q-98 -94 -246 -94z" />
    <glyph glyph-name="uni0307" unicode="&#x307;" horiz-adv-x="0" 
d="M-182 1360q0 74 53 127q50 53 127 53q78 0 131 -53t53 -127q0 -76 -53 -129t-131 -53q-77 0 -127 53q-53 53 -53 129z" />
    <glyph glyph-name="uni0308" unicode="&#x308;" horiz-adv-x="0" 
d="M-111 1225q-47 -47 -116 -47q-73 0 -117 47q-47 47 -47 116t45 117q49 49 119 49q67 0 116 -49q50 -50 50 -117q0 -66 -50 -116zM344 1225q-47 -47 -119 -47q-70 0 -114 47q-50 50 -50 116q0 67 50 117q46 49 114 49q70 0 119 -49q47 -47 47 -117q0 -69 -47 -116z" />
    <glyph glyph-name="uni030A" unicode="&#x30a;" horiz-adv-x="0" 
d="M295 1432q0 -120 -86 -203q-88 -82 -209 -82q-119 0 -209 84q-86 83 -86 201q0 117 88 196q85 82 207 82q121 0 209 -82q86 -80 86 -196zM123 1432q0 43 -37 77q-37 37 -86 37q-53 0 -88 -33t-35 -81q0 -49 35 -84t88 -35q50 0 88 35q35 38 35 84z" />
    <glyph glyph-name="uni030B" unicode="&#x30b;" horiz-adv-x="0" 
d="M-274 1544h331l-301 -356h-235zM145 1544h334l-303 -356h-233z" />
    <glyph glyph-name="uni030C" unicode="&#x30c;" horiz-adv-x="0" 
d="M-369 1522h254l115 -174l117 174h252l-230 -332h-278z" />
    <glyph glyph-name="uni0312" unicode="&#x312;" horiz-adv-x="0" 
d="M-170 1376q0 150 84 254q85 104 229 125v-117q-136 -47 -163 -174q27 6 47 6q62 0 102 -43q41 -44 41 -106q0 -67 -49 -107t-115 -40q-81 0 -129 57q-47 59 -47 145z" />
    <glyph glyph-name="uni0326" unicode="&#x326;" horiz-adv-x="0" 
d="M170 -358q0 -149 -84 -256q-86 -102 -229 -123v114q136 47 163 177q-24 -7 -47 -7q-65 0 -102 43q-41 44 -41 107q0 64 49 104q50 41 115 41q84 0 129 -57q47 -56 47 -143z" />
    <glyph glyph-name="uni0327" unicode="&#x327;" horiz-adv-x="0" 
d="M158 -193q0 -158 -97 -233q-101 -72 -264 -72q-77 0 -137 17v200q47 -8 98 -8q81 0 122.5 47t41.5 133q0 61 -22 109h215q43 -82 43 -193z" />
    <glyph glyph-name="uni0328" unicode="&#x328;" horiz-adv-x="0" 
d="M-12 0h237q-69 -42 -131 -104q-55 -58 -55 -111q0 -52 45 -78q43 -24 92 -24q14 0 41 2v-174q-58 -17 -145 -17q-170 0 -252 94q-45 51 -45 121q0 143 213 291z" />
    <glyph glyph-name="Theta" unicode="&#x398;" horiz-adv-x="1714" 
d="M854 -23q-159 0 -302 59.5t-246 162t-163.5 245t-60.5 301.5t61 302t166 245q100 100 250 164q148 60 301 60q163 0 303 -60q142 -59 246 -160q103 -103 164 -243q59 -142 59 -301q0 -161 -61 -301q-63 -148 -166 -248q-107 -107 -248 -164q-145 -62 -303 -62zM858 1217
q-94 0 -179.5 -37t-148.5 -101t-99 -151t-36 -180q0 -127 62 -236q64 -113 168 -172q107 -64 233 -64q127 0 234 64q104 59 168 172q61 107 61 236q0 128 -61 235q-62 109 -168 172q-109 62 -234 62zM1202 899v-289h-688v289h688z" />
    <glyph glyph-name="uni03A9" unicode="&#x3a9;" horiz-adv-x="1683" 
d="M430 823q0 -118 72 -227q36 -58 104 -102t158 -64v-430h-651v268h366v29q-87 37 -157.5 93t-112.5 116q-42 63 -64 121q-41 104 -41 204q0 147 60 279q58 127 158 217q100 89 235.5 139t286.5 50q204 0 371.5 -85t265.5 -241.5t98 -355.5q0 -100 -41 -207
q-24 -65 -63 -121q-40 -59 -111 -115.5t-158 -93.5v-29h365v-268h-649v430q89 20 157.5 64t104.5 102q69 104 69 227q2 78 -29 151t-85.5 127.5t-132.5 86.5t-164 31q-175 3 -295 -116t-117 -280z" />
    <glyph glyph-name="theta" unicode="&#x3b8;" horiz-adv-x="1398" 
d="M82 768q-2 173 55.5 340t163.5 281q74 80 178 125t223 45q117 0 220.5 -44.5t175.5 -121.5q69 -72 121 -179q100 -199 100 -438q2 -172 -57 -339.5t-166 -284.5q-74 -82 -177.5 -128.5t-222.5 -46.5q-118 0 -222 47.5t-175 127.5q-71 77 -121 180q-96 202 -96 436z
M391 901h617q-9 72 -32.5 139t-60.5 123t-93 89.5t-122 33.5q-67 0 -123 -32.5t-92 -88.5q-76 -118 -94 -264zM1008 651h-617q15 -153 90 -272q37 -60 95 -94.5t124 -34.5q54 0 101.5 23.5t82.5 63t62 91.5t42 108.5t20 114.5z" />
    <glyph glyph-name="pi" unicode="&#x3c0;" horiz-adv-x="1421" 
d="M547 0h-295v760h-205v258h1278v-258h-211v-393q0 -51 26 -79t77 -28q8 0 22 1t39.5 3t46.5 4v-248q-105 -30 -197 -30q-141 0 -227 86q-82 85 -82 231v453h-272v-760z" />
    <glyph glyph-name="uni0401" unicode="&#x401;" horiz-adv-x="1263" 
d="M422 1614q-71 0 -115 47q-49 49 -49 119q0 67 49 116q47 50 115 50q69 0 119 -50q47 -47 47 -116q0 -72 -47 -119t-119 -47zM897 1614q-73 0 -117 47q-49 49 -49 119q0 66 47 116q50 50 119 50q67 0 117 -50q49 -49 49 -116q0 -70 -49 -119q-47 -47 -117 -47zM174 1493
h977v-289h-672v-305h602v-289h-602v-321h678v-289h-983v1493z" />
    <glyph glyph-name="uni0402" unicode="&#x402;" horiz-adv-x="1609" 
d="M1063 -23q-79 0 -166 19v289q70 -9 88 -9q264 0 264 195q0 188 -276 188q-75 0 -154 -24q-75 -23 -129 -70v-565h-305v1206h-344v287h1204v-287h-555v-354q163 106 379 106q221 0 356 -129q138 -135 138 -352q0 -235 -131 -366q-134 -134 -369 -134z" />
    <glyph glyph-name="uni0403" unicode="&#x403;" horiz-adv-x="1148" 
d="M657 1982h342l-301 -358h-243zM174 0v1493h938v-293h-627v-1200h-311z" />
    <glyph glyph-name="uni0404" unicode="&#x404;" horiz-adv-x="1617" 
d="M1274 569l287 -100q-34 -131 -144 -252q-69 -72 -137 -119q-81 -55 -193.5 -88t-234.5 -33q-152 0 -291.5 55.5t-245.5 155.5q-103 94 -170 244q-63 148 -63 313q0 159 63 310q63 138 170 245q104 98 248 158q140 58 295 58q118 0 226 -29.5t184 -79.5q74 -48 135 -115
q107 -113 149 -256l-286 -94q-14 50 -55.5 108t-106.5 101q-103 68 -248 68q-156 0 -276 -91q-121 -92 -164 -235h592v-277h-598q44 -150 161 -247q121 -95 285 -95q106 0 190.5 39.5t139.5 102.5q64 69 88 153z" />
    <glyph glyph-name="uni0405" unicode="&#x405;" horiz-adv-x="1300" 
d="M666 -23q-260 0 -410 123q-151 124 -188 340l288 68q18 -118 107 -186q87 -66 213 -66q108 0 164 47q61 49 61 121q0 56 -46.5 99.5t-123.5 56.5l-211 43q-182 35 -291 147q-106 112 -106 281q0 96 42 183t114 150q74 61 171 96.5t201 35.5q121 0 222 -33.5t167 -91.5
q129 -120 150 -273l-281 -82q-21 96 -87 149.5t-175 53.5q-91 0 -155 -49q-62 -50 -62 -115q0 -58 39.5 -99t114.5 -56l209 -39q204 -38 313 -156q108 -120 108 -283q0 -177 -139 -319q-71 -68 -177 -107t-232 -39z" />
    <glyph glyph-name="uni0406" unicode="&#x406;" horiz-adv-x="657" 
d="M483 1493v-1493h-309v1493h309z" />
    <glyph glyph-name="uni0407" unicode="&#x407;" horiz-adv-x="657" 
d="M106 1614q-72 0 -116 47q-49 49 -49 119q0 67 49 116q47 50 116 50q67 0 117 -50q49 -49 49 -116q0 -70 -49 -119q-47 -47 -117 -47zM670 1661q-47 -47 -117 -47q-73 0 -117 47q-49 49 -49 119q0 66 47 116q50 50 119 50q67 0 117 -50q47 -47 47 -116q0 -72 -47 -119z
M483 1493v-1493h-309v1493h309z" />
    <glyph glyph-name="uni0408" unicode="&#x408;" horiz-adv-x="1220" 
d="M567 -20q-216 -3 -364 137t-144 350v168h299v-154q0 -106 58 -155.5t139 -49.5q83 0 141 52q56 50 56 143v1022h307v-1026q0 -225 -135 -354q-136 -133 -357 -133z" />
    <glyph glyph-name="uni0409" unicode="&#x409;" horiz-adv-x="2357" 
d="M1452 930h338q165 -1 277 -55.5t169 -147.5q70 -113 70 -254q2 -107 -41.5 -205t-132.5 -166q-134 -102 -360 -102h-629v1198h-447l-45 -512q-33 -375 -229 -557q-145 -135 -371 -135h-6v282q163 0 248 197q39 92 53 223l70 797h1036v-563zM1452 293h320q69 0 117 17
t70.5 46.5t31 57.5t8.5 61q0 59 -39 111q-51 61 -193 61h-315v-354z" />
    <glyph glyph-name="uni040A" unicode="&#x40a;" horiz-adv-x="2324" 
d="M481 0h-307v1493h307v-578h627v578h307v-578h350q160 -1 270 -54.5t165 -145.5q71 -111 71 -252q2 -107 -40.5 -203t-129.5 -162q-130 -98 -360 -98h-633v633h-627v-633zM1415 293h326q139 0 184 57q39 47 39 119q0 32 -8 58t-30 53t-69.5 42t-117.5 15h-324v-344z" />
    <glyph glyph-name="uni040B" unicode="&#x40b;" horiz-adv-x="1648" 
d="M1255 0v381q0 141 -64 209.5t-196 68.5q-179 0 -305 -100v-559h-305v1206h-344v287h1204v-287h-555v-354q163 106 379 106q222 0 356 -122q138 -129 138 -336v-500h-308z" />
    <glyph glyph-name="uni040C" unicode="&#x40c;" horiz-adv-x="1406" 
d="M829 1987h342l-301 -357h-243zM483 0h-309v1493h309v-649l512 649h387l-571 -715l608 -778h-399l-537 709v-709z" />
    <glyph glyph-name="uni040E" unicode="&#x40e;" horiz-adv-x="1390" 
d="M721 1632q-148 0 -250 94q-94 94 -121 256l174 31q56 -176 197 -176t194 176l172 -31q-27 -163 -120 -256q-97 -94 -246 -94zM1413 1493l-530 -1063q-9 -19 -19 -38t-20.5 -38.5t-14.5 -27.5q-10 -22 -51 -90q-44 -63 -61 -82q-45 -45 -68 -62q-110 -86 -303 -92h-215
v289h182q185 0 240 117l-547 1087h338l379 -766l356 766h334z" />
    <glyph glyph-name="uni040F" unicode="&#x40f;" horiz-adv-x="1576" 
d="M938 0v-313h-299v313h-465v1493h307v-1196h615v1196h307v-1493h-465z" />
    <glyph glyph-name="uni0410" unicode="&#x410;" horiz-adv-x="1509" 
d="M432 319l-119 -319h-315l571 1493h371l573 -1493h-319l-119 319h-643zM969 606l-217 588l-217 -588h434z" />
    <glyph glyph-name="uni0411" unicode="&#x411;" horiz-adv-x="1427" 
d="M481 1200v-301h371q161 0 270 -51.5t164 -140.5q70 -110 70 -250q0 -239 -170 -361q-130 -96 -365 -96h-647v1493h1088v-293h-781zM481 293h344q224 0 224 172q0 160 -228 160h-340v-332z" />
    <glyph glyph-name="uni0412" unicode="&#x412;" horiz-adv-x="1417" 
d="M1333 412q0 -88 -30 -159t-80.5 -117.5t-120 -77.5t-143.5 -44.5t-156 -13.5h-629v1493h619q190 0 327 -96q70 -49 110 -126t40 -173q0 -209 -209 -320v-2q137 -52 207 -137q65 -83 65 -227zM967 1051q0 58 -34 95t-79.5 49.5t-103.5 12.5h-275v-321h254q94 0 160 31
q78 37 78 133zM1032 453q0 165 -244 165h-313v-331h324q92 0 157 32q76 37 76 134z" />
    <glyph glyph-name="uni0413" unicode="&#x413;" horiz-adv-x="1146" 
d="M174 0v1493h936v-293h-629v-1200h-307z" />
    <glyph glyph-name="uni0414" unicode="&#x414;" horiz-adv-x="1728" 
d="M27 287h8q77 0 146 52t116 140q96 180 117 389l63 625h1008v-1206h155v-600h-299v313h-1015v-313h-299v600zM754 1210l-39 -374q-41 -393 -244 -547h707v921h-424z" />
    <glyph glyph-name="uni0415" unicode="&#x415;" horiz-adv-x="1263" 
d="M174 1493h977v-289h-672v-305h602v-289h-602v-321h678v-289h-983v1493z" />
    <glyph glyph-name="uni0416" unicode="&#x416;" horiz-adv-x="2115" 
d="M379 0h-381l561 768l-539 725h379l496 -700l8 2v698h309v-700h9l495 700h379l-539 -725l562 -768h-381l-516 725h-9v-725h-309v725h-8z" />
    <glyph glyph-name="uni0417" unicode="&#x417;" horiz-adv-x="1308" 
d="M61 463l312 49q9 -105 86 -176q73 -70 180 -70q104 -3 181 56.5t77 162.5q0 61 -38 108.5t-97 70.5q-53 20 -119 20q-70 0 -143 -31l-148 217l426 340h-672v283h1063v-289l-362 -289q180 -18 293 -137q114 -123 114 -297q0 -108 -46 -203t-130 -163q-165 -133 -395 -133
q-106 0 -206.5 33.5t-180.5 95.5q-83 63 -134.5 154t-60.5 198z" />
    <glyph glyph-name="uni0418" unicode="&#x418;" horiz-adv-x="1640" 
d="M479 1493v-1047l627 1047h360v-1493h-305v1055l-626 -1055h-361v1493h305z" />
    <glyph glyph-name="uni0419" unicode="&#x419;" horiz-adv-x="1640" 
d="M834 1632q-148 0 -250 94q-94 94 -121 256l174 31q56 -176 197 -176t194 176l172 -31q-27 -162 -121 -256q-97 -94 -245 -94zM1466 0h-305v1055l-626 -1055h-361v1493h305v-1047l627 1047h360v-1493z" />
    <glyph glyph-name="uni041A" unicode="&#x41a;" horiz-adv-x="1402" 
d="M481 0h-307v1493h307v-649l512 649h385l-569 -715l606 -778h-397l-537 709v-709z" />
    <glyph glyph-name="uni041B" unicode="&#x41b;" horiz-adv-x="1589" 
d="M690 1202l-53 -516q-71 -692 -586 -692h-6v282q169 3 240 201q38 95 51 223l82 793h997v-1493h-309l2 1202h-418z" />
    <glyph glyph-name="uni041C" unicode="&#x41c;" horiz-adv-x="2009" 
d="M1528 1018l-422 -1018h-207l-420 1012h-2v-1012h-303v1493h418l412 -993l403 993h428v-1493h-303v1018h-4z" />
    <glyph glyph-name="uni041D" unicode="&#x41d;" horiz-adv-x="1589" 
d="M481 604v-604h-307v1493h307v-590h627v590h307v-1493h-307v604h-627z" />
    <glyph glyph-name="uni041E" unicode="&#x41e;" horiz-adv-x="1714" 
d="M82 745q0 159 61 302t166 245q100 100 250 164q148 60 301 60q163 0 303 -60q142 -59 246 -160q103 -103 164 -243q59 -142 59 -301q0 -161 -61 -301q-63 -148 -166 -248q-107 -107 -248 -164q-145 -62 -303 -62q-159 0 -302 59.5t-246 162t-163.5 245t-60.5 301.5z
M459 983q-60 -111 -60 -235q0 -125 60 -236q61 -108 166 -172q107 -64 233 -64q128 0 232 64q105 62 167 172q60 111 60 236q3 125 -59 234t-169 173t-231 62q-126 0 -233 -64q-104 -61 -166 -170z" />
    <glyph glyph-name="uni041F" unicode="&#x41f;" horiz-adv-x="1576" 
d="M481 1202v-1202h-307v1493h1229v-1493h-307v1202h-615z" />
    <glyph glyph-name="uni0420" unicode="&#x420;" horiz-adv-x="1318" 
d="M1262 1014q0 -119 -40.5 -213.5t-115.5 -153.5q-148 -121 -389 -121h-234v-526h-309v1493h553q236 0 381 -121q73 -59 113.5 -151.5t40.5 -206.5zM950 1008q0 66 -35 112t-92 64q-55 18 -123 18h-217v-389h219q103 0 175.5 49t72.5 146z" />
    <glyph glyph-name="uni0421" unicode="&#x421;" horiz-adv-x="1609" 
d="M850 -20q-151 0 -290.5 54.5t-246.5 153.5q-102 96 -168 244q-63 148 -63 313q0 159 63 310q64 140 170 243q103 100 248 160q147 58 295 58q119 0 226 -30.5t186 -82.5q72 -44 135 -113q109 -118 147 -258l-292 -100q-10 47 -51.5 106t-106.5 105q-102 71 -248 71
q-128 0 -231 -63q-106 -62 -162 -168q-60 -111 -60 -235q0 -128 58 -235t162 -171q107 -66 233 -66q146 0 248 74q37 25 80 72q64 75 84 153l295 -102q-30 -129 -142 -252q-62 -68 -139 -121q-71 -49 -190 -88q-106 -32 -240 -32z" />
    <glyph glyph-name="uni0422" unicode="&#x422;" horiz-adv-x="1280" 
d="M485 0v1194h-446v299h1202v-299h-446v-1194h-310z" />
    <glyph glyph-name="uni0423" unicode="&#x423;" horiz-adv-x="1390" 
d="M1413 1493l-530 -1063q-9 -19 -19 -38t-20.5 -38.5t-14.5 -27.5q-10 -22 -51 -90q-44 -63 -61 -82q-45 -45 -68 -62q-110 -86 -303 -92h-215v289h182q185 0 240 117l-547 1087h338l379 -766l356 766h334z" />
    <glyph glyph-name="uni0424" unicode="&#x424;" horiz-adv-x="1927" 
d="M811 -47v158q-153 0 -281.5 39.5t-214.5 107.5q-82 64 -139 152q-104 164 -104 356q0 187 94 338q93 144 262 225q163 78 381 78v133h309v-133q159 2 296 -44.5t234.5 -130t152.5 -204.5t54 -262q0 -196 -104 -356q-59 -91 -137 -152q-84 -68 -213.5 -107.5t-282.5 -39.5
v-158h-307zM811 395v727q-193 0 -309 -98q-117 -99 -117 -262q0 -167 117 -266q119 -101 309 -101zM1118 1122v-727q192 0 309 99q117 102 117 268q0 163 -117 262q-116 98 -309 98z" />
    <glyph glyph-name="uni0425" unicode="&#x425;" horiz-adv-x="1439" 
d="M346 0h-348l537 768l-506 725h360l332 -485l334 485h358l-510 -723l539 -770h-361l-364 537z" />
    <glyph glyph-name="uni0426" unicode="&#x426;" horiz-adv-x="1648" 
d="M1096 293v1200h307v-1200h158v-606h-301v313h-1086v1493h307v-1200h615z" />
    <glyph glyph-name="uni0427" unicode="&#x427;" horiz-adv-x="1464" 
d="M981 0v580q-213 -109 -387 -109q-235 0 -363 125q-131 122 -131 367v530h310v-440q0 -279 249 -279q93 0 181 27q86 24 141 67v625h309v-1493h-309z" />
    <glyph glyph-name="uni0428" unicode="&#x428;" horiz-adv-x="2316" 
d="M481 1493v-1200h523v1200h307v-1200h522v1200h309v-1493h-1968v1493h307z" />
    <glyph glyph-name="uni0429" unicode="&#x429;" horiz-adv-x="2385" 
d="M481 1493v-1200h523v1200h307v-1200h522v1200h309v-1200h156v-606h-299v313h-1825v1493h307z" />
    <glyph glyph-name="uni042A" unicode="&#x42a;" horiz-adv-x="1613" 
d="M707 930h337q223 0 351 -99q53 -42 96 -104q70 -113 70 -254q2 -106 -42 -204.5t-133 -166.5q-134 -102 -360 -102h-629v1198h-356v295h666v-563zM707 293h319q69 0 116.5 17t70 46t31.5 57.5t9 61.5q0 59 -39 111q-51 61 -190 61h-317v-354z" />
    <glyph glyph-name="uni042B" unicode="&#x42b;" horiz-adv-x="2058" 
d="M481 930h340q222 0 350 -99q56 -44 97 -104q69 -111 69 -254q2 -107 -41.5 -205t-132.5 -166q-134 -102 -360 -102h-629v1493h307v-563zM1575 1493v-1493h309v1493h-309zM481 293h322q69 0 116.5 17t70 46t31.5 57.5t9 61.5q0 59 -39 111q-51 61 -192 61h-318v-354z" />
    <glyph glyph-name="uni042C" unicode="&#x42c;" horiz-adv-x="1390" 
d="M481 930h340q222 0 350 -99q56 -44 97 -104q69 -111 69 -254q2 -107 -41.5 -205t-132.5 -166q-134 -102 -360 -102h-629v1493h307v-563zM481 293h322q69 0 116.5 17t70 46t31.5 57.5t9 61.5q0 59 -39 111q-51 61 -192 61h-318v-354z" />
    <glyph glyph-name="uni042D" unicode="&#x42d;" horiz-adv-x="1617" 
d="M774 1516q215 0 387 -97q175 -99 273 -272q100 -172 100 -395q0 -178 -59 -316q-63 -148 -164 -243q-104 -103 -246 -159.5t-303 -56.5q-116 0 -225.5 33t-190.5 88q-70 48 -141 119q-120 132 -148 252l287 100q25 -97 129 -190q53 -48 131 -76.5t166 -28.5q163 0 281 95
q117 99 157 247h-598v277h592q-43 143 -158 235q-120 91 -274 91q-109 0 -194 -38t-140 -100q-68 -74 -84 -139l-286 94q24 96 102 196.5t194 172.5q173 111 412 111z" />
    <glyph glyph-name="uni042E" unicode="&#x42e;" horiz-adv-x="2267" 
d="M1434 1516q162 0 297 -60q139 -59 239 -162q102 -108 156 -245q57 -137 57 -301t-57 -304q-58 -140 -158 -243q-105 -105 -242 -162q-142 -62 -299 -62q-282 0 -489 177q-207 178 -254 454h-201v-608h-309v1493h309v-606h203q30 180 133 321q109 150 266 226
q158 82 349 82zM1434 276q120 -3 222.5 62.5t159.5 175t54 234.5q0 198 -127 331q-126 138 -316 138q-186 0 -311 -134q-125 -131 -125 -335q0 -129 58 -236q55 -108 157 -172q101 -64 228 -64z" />
    <glyph glyph-name="uni042F" unicode="&#x42f;" horiz-adv-x="1392" 
d="M66 0l317 594q-134 54 -207.5 162.5t-73.5 267.5q0 112 41.5 203t114.5 149q148 117 373 117h588v-1493h-308v537h-227l-281 -537h-337zM911 1200h-256q-93 0 -161 -39q-78 -43 -78 -151q1 -62 36.5 -106t88 -63.5t114.5 -17.5h256v377z" />
    <glyph glyph-name="uni0430" unicode="&#x430;" horiz-adv-x="1126" 
d="M418 -20q-138 0 -238 83q-100 84 -100 222v8q0 198 205 270q108 41 243 41h99q39 0 59.5 18.5t20.5 51.5q0 56 -42.5 91.5t-117.5 35.5q-67 0 -116 -37t-66 -102l-263 59q18 105 88 178q69 75 166 109q93 34 205 34q195 2 316.5 -106t121.5 -305v-467q0 -58 9 -164h-277
q-6 40 -6 127h-4q-107 -147 -303 -147zM504 197q91 0 147 59q56 56 56 137v25h-179q-52 0 -100 -31q-49 -30 -49 -86q0 -49 35 -76.5t90 -27.5z" />
    <glyph glyph-name="uni0431" unicode="&#x431;" horiz-adv-x="1284" 
d="M662 -20q-251 0 -406 165q-154 168 -154 469q0 124 13 246q9 68 24 123q32 125 105 223q86 115 211 183q148 79 354 118l299 56l51 -254l-350 -68q-98 -19 -181.5 -57.5t-135.5 -83.5q-47 -44 -82 -94q-55 -87 -62 -156l8 -2q50 59 112 100t122 56q88 26 155 26
q195 0 330 -141q133 -142 133 -361q0 -247 -153 -397q-154 -151 -393 -151zM659 768q-101 0 -174 -70q-75 -66 -75 -186q0 -123 73 -193q74 -71 179 -71q107 0 178 71t71 191q0 124 -75 190q-77 68 -177 68z" />
    <glyph glyph-name="uni0432" unicode="&#x432;" horiz-adv-x="1208" 
d="M137 1018h619q119 0 219 -53q54 -27 86.5 -79.5t32.5 -119.5q0 -160 -164 -234q196 -58 196 -253q0 -76 -32.5 -132t-88.5 -87t-119.5 -45.5t-135.5 -14.5h-613v1018zM428 618h256q58 0 86.5 28t28.5 69q0 37 -29 61.5t-82 24.5h-260v-183zM428 233h281q63 0 92.5 27
t29.5 70q0 41 -33.5 66.5t-97.5 25.5h-272v-189z" />
    <glyph glyph-name="uni0433" unicode="&#x433;" horiz-adv-x="935" 
d="M137 0v1018h762v-258h-463v-760h-299z" />
    <glyph glyph-name="uni0434" unicode="&#x434;" horiz-adv-x="1398" 
d="M53 258h2q85 0 150 100q61 98 76 258l41 402h864v-762h129v-569h-277v313h-708v-313h-277v571zM889 256v504h-299l-15 -150q-24 -248 -163 -352l2 -2h475z" />
    <glyph glyph-name="uni0435" unicode="&#x435;" horiz-adv-x="1196" 
d="M1116 426h-737q12 -88 84 -145q71 -56 166 -56q65 0 129 39q66 40 86 98l246 -83q-50 -142 -177 -222t-280 -80q-151 0 -281 68q-125 64 -202 188q-76 127 -76 277q0 146 73 268q72 121 199 195q120 69 268 69q226 0 367 -141t141 -369q0 -69 -6 -106zM385 625h438
q-6 62 -53 114q-25 28 -68.5 45t-95.5 17q-90 0 -151 -58q-61 -61 -70 -118z" />
    <glyph glyph-name="uni0436" unicode="&#x436;" horiz-adv-x="1751" 
d="M1024 549h6l342 469h350l-362 -498l371 -520h-359l-342 494h-6v-494h-297v494h-6l-340 -494h-361l371 520l-362 498h352l340 -469h6v469h297v-469z" />
    <glyph glyph-name="uni0437" unicode="&#x437;" horiz-adv-x="1042" 
d="M836 78q-118 -98 -322 -98q-175 0 -297 83q-124 86 -151 248l253 64q21 -71 69.5 -111.5t121.5 -40.5q60 0 111 31q47 27 47 86q0 53 -43 80q-47 24 -103 24q-60 0 -123 -26l-90 168l269 182h-486v250h838v-225l-248 -166q106 -16 182 -78q90 -74 90 -213
q0 -163 -118 -258z" />
    <glyph glyph-name="uni0438" unicode="&#x438;" horiz-adv-x="1241" 
d="M809 588l-373 -588h-299v1018h293v-592h2l375 592h297v-1018h-293v588h-2z" />
    <glyph glyph-name="uni0439" unicode="&#x439;" horiz-adv-x="1241" 
d="M623 1178q-148 0 -250 94q-98 98 -121 256l174 31q53 -177 197 -177q138 0 194 177l172 -31q-27 -162 -121 -256q-97 -94 -245 -94zM809 588l-373 -588h-299v1018h293v-592h2l375 592h297v-1018h-293v588h-2z" />
    <glyph glyph-name="uni043A" unicode="&#x43a;" horiz-adv-x="1187" 
d="M434 444v-444h-297v1018h297v-436h6l375 436h361l-437 -496l457 -522h-379l-377 444h-6z" />
    <glyph glyph-name="uni043B" unicode="&#x43b;" horiz-adv-x="1271" 
d="M543 760l-29 -285q-47 -485 -451 -485l-12 2v252q75 0 114 62.5t50 182.5l57 529h863v-1018h-297v760h-295z" />
    <glyph glyph-name="uni043C" unicode="&#x43c;" horiz-adv-x="1581" 
d="M1147 696l-252 -696h-209l-256 684h-2v-684h-291v1018h404l250 -666l245 666h408v-1018h-293v696h-4z" />
    <glyph glyph-name="uni043D" unicode="&#x43d;" horiz-adv-x="1228" 
d="M434 387v-387h-297v1018h297v-383h359v383h297v-1018h-297v387h-359z" />
    <glyph glyph-name="uni043E" unicode="&#x43e;" horiz-adv-x="1259" 
d="M74 506q0 145 76 272q75 126 202 195q132 69 281 69q155 0 278 -69q128 -68 201 -191q74 -121 74 -270q0 -148 -74 -272q-76 -125 -203 -193q-128 -70 -280 -70q-151 0 -281 68q-126 70 -198 191q-76 127 -76 270zM451 696q-72 -75 -72 -186t72 -186q74 -74 180 -74
q104 0 178 74q72 69 72 186q0 114 -72 186q-74 74 -180 74q-104 0 -178 -74z" />
    <glyph glyph-name="uni043F" unicode="&#x43f;" horiz-adv-x="1222" 
d="M436 760v-760h-299v1018h948v-1018h-297v760h-352z" />
    <glyph glyph-name="uni0440" unicode="&#x440;" horiz-adv-x="1306" 
d="M432 891h4q111 147 312 147q106 0 199.5 -45.5t156.5 -122.5q127 -159 127 -360q0 -98 -35 -194t-98 -169q-64 -77 -159 -122t-200 -45q-192 0 -301 133h-4v-615h-297v1520h295v-127zM500 696q-72 -72 -72 -186t72 -186q74 -74 178 -74q106 0 180 74q72 72 72 186
q0 111 -72 186q-72 72 -180 72q-109 0 -178 -72z" />
    <glyph glyph-name="uni0441" unicode="&#x441;" horiz-adv-x="1189" 
d="M625 -23q-116 -1 -219 40t-176 112t-114.5 170t-39.5 209q0 146 74 270q68 119 198 195q132 69 283 69q168 0 307 -88q70 -42 119 -109t69 -151l-272 -82q-18 63 -78 111q-60 45 -151 45q-102 0 -172 -70q-72 -72 -72 -186q0 -116 70 -186q68 -74 176 -74q87 0 147.5 44
t85.5 114l273 -82q-29 -110 -111 -195q-84 -81 -182 -117q-101 -39 -215 -39z" />
    <glyph glyph-name="uni0442" unicode="&#x442;" horiz-adv-x="991" 
d="M346 0v760h-307v258h913v-258h-307v-760h-299z" />
    <glyph glyph-name="uni0443" unicode="&#x443;" horiz-adv-x="1165" 
d="M453 109l-428 909h327l254 -582l228 582h307l-619 -1520h-317z" />
    <glyph glyph-name="uni0444" unicode="&#x444;" horiz-adv-x="1765" 
d="M733 -465v535q-28 -32 -94 -58q-65 -24 -129 -24q-104 0 -188 44.5t-136 119.5t-79 166.5t-27 191.5q0 78 16 152t51 142t85 119t122.5 81t159.5 30q58 0 125 -26q58 -25 94 -68v553h299v-553q36 43 94 68q67 26 125 26q87 0 160 -30t123 -81t85 -119t51 -143t16 -155
q1 -78 -15.5 -152.5t-51.5 -141t-85 -116.5t-121.5 -79.5t-155.5 -28.5q-67 0 -131 24q-66 25 -94 60v-537h-299zM594 768q-72 0 -119 -41q-49 -40 -67 -96q-21 -59 -21 -121q0 -93 45 -170q22 -41 65 -65.5t97 -24.5q68 0 141 45v428q-77 45 -141 45zM1174 768
q-68 0 -142 -45v-428q70 -45 142 -45q56 0 97.5 24.5t63.5 64.5t32.5 83.5t10.5 89.5q0 100 -52 178t-152 78z" />
    <glyph glyph-name="uni0445" unicode="&#x445;" horiz-adv-x="1095" 
d="M350 0h-330l367 512l-356 506h336l182 -287l188 287h328l-358 -498l368 -520h-334l-194 299z" />
    <glyph glyph-name="uni0446" unicode="&#x446;" horiz-adv-x="1298" 
d="M1214 -313h-276v313h-801v1018h299v-762h352v762h297v-762h129v-569z" />
    <glyph glyph-name="uni0447" unicode="&#x447;" horiz-adv-x="1161" 
d="M727 0v348q-134 -67 -283 -67q-153 0 -254 81q-110 89 -110 259v397h299v-311q0 -72 33 -121t112 -49q105 0 203 49v432h297v-1018h-297z" />
    <glyph glyph-name="uni0448" unicode="&#x448;" horiz-adv-x="1835" 
d="M436 1018v-762h332v762h297v-762h334v762h299v-1018h-1561v1018h299z" />
    <glyph glyph-name="uni0449" unicode="&#x449;" horiz-adv-x="1910" 
d="M1827 -315h-277v315h-1413v1018h299v-762h332v762h297v-762h334v762h299v-762h129v-571z" />
    <glyph glyph-name="uni044A" unicode="&#x44a;" horiz-adv-x="1363" 
d="M655 713h230q196 0 315 -90q115 -87 115 -263q0 -171 -109 -264q-108 -96 -305 -96h-543v762l-319 -2v258h616v-305zM655 236h205q156 0 156 131q0 58 -40 90t-116 32h-205v-253z" />
    <glyph glyph-name="uni044B" unicode="&#x44b;" horiz-adv-x="1720" 
d="M137 1018h297v-305h232q196 0 315 -90q115 -89 115 -263q0 -170 -111 -264q-108 -96 -303 -96h-545v1018zM1284 1018h299v-1018h-299v1018zM434 236h205q156 0 156 131q0 58 -39.5 90t-116.5 32h-205v-253z" />
    <glyph glyph-name="uni044C" unicode="&#x44c;" horiz-adv-x="1146" 
d="M137 1018h297v-305h232q196 0 315 -90q115 -89 115 -263q0 -170 -111 -264q-108 -96 -303 -96h-545v1018zM434 236h205q156 0 156 131q0 58 -39.5 90t-116.5 32h-205v-253z" />
    <glyph glyph-name="uni044D" unicode="&#x44d;" horiz-adv-x="1187" 
d="M573 1042q151 2 276 -68.5t196 -193t69 -268.5q0 -110 -40.5 -208.5t-112.5 -170.5q-73 -73 -176 -114.5t-220 -41.5q-177 0 -319 91q-139 87 -189 256l262 79q28 -70 93 -113.5t159 -43.5q84 0 143.5 44t84.5 122h-332v204h332q-26 74 -87.5 116t-140.5 42
q-92 0 -159 -45q-65 -47 -86 -108l-263 77q27 112 109 191q83 80 186 117q101 36 215 36z" />
    <glyph glyph-name="uni044E" unicode="&#x44e;" horiz-adv-x="1718" 
d="M1106 1042q112 1 212.5 -40t172 -112t112.5 -170t39 -208q3 -148 -68 -272.5t-195.5 -195t-272.5 -67.5q-199 0 -342 113q-144 111 -184 295h-144v-385h-299v1018h299v-385h144q41 182 186 295q144 114 340 114zM938 324q65 -74 170 -74q102 0 168 72q63 72 63 188
q0 114 -65 188q-66 72 -168 72q-106 0 -170 -70q-66 -72 -66 -190q0 -115 68 -186z" />
    <glyph glyph-name="uni044F" unicode="&#x44f;" horiz-adv-x="1228" 
d="M590 326l-203 -326h-334l242 381q-195 85 -195 297q0 152 105 246q104 94 307 94h578v-1018h-295v326h-205zM795 784h-238q-48 0 -96 -18q-64 -26 -64 -102q0 -55 42.5 -90t121.5 -35h234v245z" />
    <glyph glyph-name="uni0451" unicode="&#x451;" horiz-adv-x="1196" 
d="M500 1225q-47 -47 -117 -47q-73 0 -117 47q-47 50 -47 116q0 67 47 117q46 49 117 49q68 0 117 -49t49 -117q0 -67 -49 -116zM954 1225q-47 -47 -116 -47q-73 0 -117 47q-47 47 -47 116q0 70 47 117q46 49 117 49q67 0 116 -49q50 -50 50 -117q0 -66 -50 -116zM1116 426
h-737q12 -88 84 -145q71 -56 166 -56q65 0 129 39q66 40 86 98l246 -83q-50 -142 -177 -222t-280 -80q-151 0 -281 68q-125 64 -202 188q-76 127 -76 277q0 146 73 268q72 121 199 195q120 69 268 69q226 0 367 -141t141 -369q0 -69 -6 -106zM385 625h438q-6 62 -53 114
q-25 28 -68.5 45t-95.5 17q-90 0 -151 -58q-61 -61 -70 -118z" />
    <glyph glyph-name="uni0452" unicode="&#x452;" horiz-adv-x="1187" 
d="M557 0v242q24 -4 43 -4q89 0 141 58t52 161v108q0 90 -45.5 144.5t-129.5 54.5q-92 0 -137 -57q-47 -59 -47 -140v-567h-297v1180h-127v202h127v172h297v-172h303v-202h-303v-281h2q42 59 119 100q80 39 162 39q92 0 165.5 -33.5t118.5 -91.5q89 -116 89 -278v-266
q0 -181 -103 -287q-105 -105 -270 -105q-86 0 -160 23z" />
    <glyph glyph-name="uni0453" unicode="&#x453;" horiz-adv-x="937" 
d="M580 1544h342l-304 -356h-241zM137 0v1018h764v-258h-465v-760h-299z" />
    <glyph glyph-name="uni0454" unicode="&#x454;" horiz-adv-x="1187" 
d="M870 403l260 -79q-30 -111 -110 -191q-78 -78 -182 -119q-101 -37 -213 -37q-238 0 -396 152q-153 147 -153 379q0 146 74 270q68 119 198 195q132 69 283 69q163 0 307 -86q68 -42 117 -109t69 -149l-260 -77q-21 61 -86 108q-64 45 -153 45q-79 0 -142 -42t-90 -116
h330v-204h-332q27 -76 89.5 -121t146.5 -45q91 0 153 47q63 45 90 110z" />
    <glyph glyph-name="uni0455" unicode="&#x455;" horiz-adv-x="987" 
d="M502 -23q-84 0 -158 21.5t-121 56.5q-50 35 -82 78q-62 73 -69 158l262 55q6 -56 49 -96q46 -43 115 -43q55 0 86.5 26.5t31.5 61.5q0 67 -98 88l-129 29q-144 32 -218.5 108.5t-74.5 188.5q0 141 111 235q113 98 278 98q115 0 200.5 -38.5t135.5 -100.5q62 -73 72 -153
l-258 -56q-11 56 -49 88.5t-99 32.5q-50 0 -81 -25t-31 -61q0 -59 80 -74l141 -30q149 -29 229 -111t80 -199q0 -133 -98 -231q-51 -49 -130.5 -78t-174.5 -29z" />
    <glyph glyph-name="uni0456" unicode="&#x456;" horiz-adv-x="573" 
d="M156 1243q-54 54 -54 129q0 79 54 133q57 54 129 54q76 0 133 -54q53 -56 53 -133q0 -73 -53 -129q-55 -55 -133 -55q-74 0 -129 55zM436 0h-299v1018h299v-1018z" />
    <glyph glyph-name="uni0457" unicode="&#x457;" horiz-adv-x="573" 
d="M63 1178q-69 0 -116 47q-49 49 -49 116q0 68 49 117q46 49 116 49q68 0 117 -49t49 -117q0 -67 -49 -116q-47 -47 -117 -47zM625 1225q-44 -47 -117 -47q-70 0 -117 47t-47 116q0 70 47 117q46 49 117 49t117 -49q49 -49 49 -117q0 -67 -49 -116zM137 1018h299v-1018
h-299v1018z" />
    <glyph glyph-name="uni0458" unicode="&#x458;" horiz-adv-x="587" 
d="M170 1243q-53 53 -53 129q0 80 53 133q57 54 129 54q76 0 133 -54q53 -53 53 -133q0 -76 -53 -129q-55 -55 -133 -55q-74 0 -129 55zM154 -106v1124h297v-1153q0 -163 -95 -266q-98 -101 -260 -101q-113 0 -180 23v246q60 -11 96 -11q66 0 104 36t38 102z" />
    <glyph glyph-name="uni0459" unicode="&#x459;" horiz-adv-x="1845" 
d="M541 760l-27 -285q-47 -485 -451 -485l-12 2v252q74 0 112.5 62.5t51.5 182.5l57 529h861v-287h223q202 0 321 -94q117 -91 117 -268q0 -171 -113 -269q-109 -100 -307 -100h-538v760h-295zM1133 236h198q164 0 164 141q0 60 -42 95.5t-122 35.5h-198v-272z" />
    <glyph glyph-name="uni045A" unicode="&#x45a;" horiz-adv-x="1800" 
d="M793 477h-359v-477h-297v1018h297v-316h359v316h297v-316h231q197 0 313 -88q117 -85 117 -260q0 -168 -111 -262q-112 -92 -303 -92h-544v477zM1090 236h204q156 0 156 124q0 58 -39.5 89.5t-116.5 31.5h-204v-245z" />
    <glyph glyph-name="uni045B" unicode="&#x45b;" 
d="M793 0v565q0 90 -45.5 144.5t-129.5 54.5q-92 0 -137 -57q-47 -59 -47 -140v-567h-297v1180h-127v202h127v172h297v-172h303v-202h-303v-281h2q60 84 154 115q73 24 127 24q189 0 284 -125q89 -119 89 -280v-633h-297z" />
    <glyph glyph-name="uni045C" unicode="&#x45c;" horiz-adv-x="1187" 
d="M700 1544h342l-301 -356h-243zM436 444v-444h-299v1018h299v-436h4l375 436h363l-437 -496l457 -522h-381l-375 444h-6z" />
    <glyph glyph-name="uni045E" unicode="&#x45e;" horiz-adv-x="1165" 
d="M584 1178q-151 0 -248 94q-98 98 -121 256l174 31q53 -177 195 -177q141 0 194 177l174 -31q-26 -159 -123 -256q-94 -94 -245 -94zM453 109l-428 909h327l254 -582l228 582h307l-619 -1520h-317z" />
    <glyph glyph-name="uni045F" unicode="&#x45f;" horiz-adv-x="1222" 
d="M750 0v-313h-277v313h-336v1018h299v-762h352v762h297v-1018h-335z" />
    <glyph glyph-name="uni0490" unicode="&#x490;" horiz-adv-x="1146" 
d="M174 0v1493h637v309h299v-602h-629v-1200h-307z" />
    <glyph glyph-name="uni0491" unicode="&#x491;" horiz-adv-x="935" 
d="M137 0v1018h486v319h276v-577h-463v-760h-299z" />
    <glyph glyph-name="uni0496" unicode="&#x496;" horiz-adv-x="2166" 
d="M2118 -313h-299v313h-82l-516 725h-9v-725h-309v725h-8l-516 -725h-381l561 768l-539 725h379l496 -700l8 2v698h309v-700h9l495 700h379l-539 -725l349 -475h213v-606z" />
    <glyph glyph-name="uni0497" unicode="&#x497;" horiz-adv-x="1792" 
d="M1731 -313h-277v313h-82l-342 494h-6v-494h-297v494h-6l-340 -494h-361l371 520l-362 498h352l340 -469h6v469h297v-469h6l342 469h350l-362 -498l186 -264h185v-569z" />
    <glyph glyph-name="uni0498" unicode="&#x498;" horiz-adv-x="1308" 
d="M793 -313h-299v313q-240 55 -361 248q-60 96 -72 215l312 49q9 -105 86 -176q73 -70 180 -70q104 -3 181 56.5t77 162.5q0 61 -38 108.5t-97 70.5q-53 20 -119 20q-70 0 -143 -31l-148 217l426 340h-672v283h1063v-289l-362 -289q180 -18 293 -137q114 -123 114 -297
q0 -108 -46 -203t-130 -163q-102 -83 -245 -117v-311z" />
    <glyph glyph-name="uni0499" unicode="&#x499;" horiz-adv-x="1042" 
d="M653 -313h-276v307q-125 28 -206.5 109t-104.5 208l253 64q21 -71 69.5 -111.5t121.5 -40.5q60 0 111 31q47 27 47 86q0 53 -43 80q-47 24 -103 24q-60 0 -123 -26l-90 168l269 182h-486v250h838v-225l-248 -166q106 -16 182 -78q90 -74 90 -213q0 -163 -118 -258
q-77 -61 -183 -84v-307z" />
    <glyph glyph-name="uni049A" unicode="&#x49a;" horiz-adv-x="1458" 
d="M1415 -313h-299v313h-98l-537 709v-709h-307v1493h307v-649l512 649h385l-569 -715l379 -485h227v-606z" />
    <glyph glyph-name="uni049B" unicode="&#x49b;" horiz-adv-x="1236" 
d="M1196 -313h-276l2 313h-105l-377 444h-6v-444h-297v1018h297v-436h6l375 436h361l-437 -496l234 -266h223v-569z" />
    <glyph glyph-name="uni04A2" unicode="&#x4a2;" horiz-adv-x="1658" 
d="M1571 -313h-299v313h-164v604h-627v-604h-307v1493h307v-590h627v590h307v-1200h156v-606z" />
    <glyph glyph-name="uni04A3" unicode="&#x4a3;" horiz-adv-x="1302" 
d="M1219 -313h-277l2 313h-151v387h-359v-387h-297v1018h297v-383h359v383h297v-762h129v-569z" />
    <glyph glyph-name="uni04AA" unicode="&#x4aa;" horiz-adv-x="1609" 
d="M1001 -313h-301v305q-127 25 -239.5 89.5t-196.5 160.5q-86 97 -134 227t-48 276q0 159 63 310q64 140 170 243q103 100 248 160q147 58 295 58q119 0 226 -30.5t186 -82.5q72 -44 135 -113q109 -118 147 -258l-292 -100q-10 47 -51.5 106t-106.5 105q-102 71 -248 71
q-128 0 -231 -63q-106 -62 -162 -168q-60 -111 -60 -235q0 -128 58 -235t162 -171q107 -66 233 -66q146 0 248 74q37 25 80 72q64 75 84 153l295 -102q-31 -134 -164 -276q-69 -73 -173 -128.5t-223 -76.5v-305z" />
    <glyph glyph-name="uni04AB" unicode="&#x4ab;" horiz-adv-x="1189" 
d="M760 -313h-277v305q-183 43 -295 182t-112 334q0 146 74 270q68 119 198 195q132 69 283 69q168 0 307 -88q70 -42 119 -109t69 -151l-272 -82q-18 63 -78 111q-60 45 -151 45q-102 0 -172 -70q-72 -72 -72 -186q0 -116 70 -186q68 -74 176 -74q87 0 147.5 44t85.5 114
l273 -82q-42 -137 -138 -217q-105 -91 -235 -117v-307z" />
    <glyph glyph-name="uni04AC" unicode="&#x4ac;" horiz-adv-x="1290" 
d="M952 -313h-301v313h-166v1194h-446v299h1202v-299h-446v-901h157v-606z" />
    <glyph glyph-name="uni04AD" unicode="&#x4ad;" horiz-adv-x="1001" 
d="M774 -313h-276v313h-152v760h-307v258h913v-258h-307v-504h129v-569z" />
    <glyph glyph-name="uni04B2" unicode="&#x4b2;" horiz-adv-x="1490" 
d="M1442 -313h-301v313h-60l-364 537l-371 -537h-348l537 768l-506 725h360l332 -485l334 485h358l-510 -723l334 -477h205v-606z" />
    <glyph glyph-name="uni04B3" unicode="&#x4b3;" horiz-adv-x="1136" 
d="M1075 -313h-276v313h-58l-194 299l-197 -299h-330l367 512l-356 506h336l182 -287l188 287h328l-358 -498l186 -264h182v-569z" />
    <glyph glyph-name="uni04B6" unicode="&#x4b6;" horiz-adv-x="1533" 
d="M1446 -313h-299v313h-166v580q-213 -109 -387 -109q-235 0 -363 125q-131 122 -131 367v530h310v-440q0 -279 249 -279q93 0 181 27q86 24 141 67v625h309v-1200h156v-606z" />
    <glyph glyph-name="uni04B7" unicode="&#x4b7;" horiz-adv-x="1236" 
d="M1153 -313h-276v313h-150v348q-134 -67 -283 -67q-153 0 -254 81q-110 89 -110 259v397h299v-311q0 -72 33 -121t112 -49q105 0 203 49v432h297v-762h129v-569z" />
    <glyph glyph-name="uni04C0" unicode="&#x4c0;" horiz-adv-x="657" 
d="M483 1493v-1493h-309v1493h309z" />
    <glyph glyph-name="uni04C1" unicode="&#x4c1;" horiz-adv-x="2115" 
d="M1059 1632q-151 0 -248 94q-98 98 -121 256l174 31q53 -176 195 -176q141 0 194 176l172 -31q-23 -158 -118 -256q-97 -94 -248 -94zM379 0h-381l561 768l-539 725h379l496 -700l8 2v698h309v-700h9l495 700h379l-539 -725l562 -768h-381l-516 725h-9v-725h-309v725h-8z
" />
    <glyph glyph-name="uni04C2" unicode="&#x4c2;" horiz-adv-x="1751" 
d="M877 1178q-151 0 -248 94q-97 93 -121 256l174 31q53 -177 195 -177q141 0 194 177l172 -31q-23 -157 -119 -256q-97 -94 -247 -94zM1024 549h6l342 469h350l-362 -498l371 -520h-359l-342 494h-6v-494h-297v494h-6l-340 -494h-361l371 520l-362 498h352l340 -469h6v469
h297v-469z" />
    <glyph glyph-name="uni04CF" unicode="&#x4cf;" horiz-adv-x="573" 
d="M137 1018h299v-1018h-299v1018z" />
    <glyph glyph-name="uni04D0" unicode="&#x4d0;" horiz-adv-x="1509" 
d="M758 1632q-148 0 -250 94q-98 98 -121 256l174 31q53 -176 197 -176q138 0 194 176l172 -31q-26 -159 -120 -256q-97 -94 -246 -94zM432 319l-119 -319h-315l571 1493h371l573 -1493h-319l-119 319h-643zM969 606l-217 588l-217 -588h434z" />
    <glyph glyph-name="uni04D1" unicode="&#x4d1;" horiz-adv-x="1126" 
d="M559 1178q-151 0 -248 94q-97 93 -121 256l175 31q53 -177 194 -177q142 0 195 177l172 -31q-23 -157 -119 -256q-97 -94 -248 -94zM418 -20q-138 0 -238 83q-100 84 -100 222v8q0 198 205 270q108 41 243 41h99q39 0 59.5 18.5t20.5 51.5q0 56 -42.5 91.5t-117.5 35.5
q-67 0 -116 -37t-66 -102l-263 59q18 105 88 178q69 75 166 109q93 34 205 34q195 2 316.5 -106t121.5 -305v-467q0 -58 9 -164h-277q-6 40 -6 127h-4q-107 -147 -303 -147zM504 197q91 0 147 59q56 56 56 137v25h-179q-52 0 -100 -31q-49 -30 -49 -86q0 -49 35 -76.5
t90 -27.5z" />
    <glyph glyph-name="uni04D2" unicode="&#x4d2;" horiz-adv-x="1509" 
d="M635 1661q-44 -47 -117 -47q-70 0 -117 47t-47 119q0 69 47 116q47 50 117 50t117 -50q49 -49 49 -116q0 -70 -49 -119zM991 1614q-70 0 -114 47q-50 50 -50 119q0 66 47 116t117 50q67 0 117 -50q49 -49 49 -116q0 -70 -49 -119q-47 -47 -117 -47zM432 319l-119 -319
h-315l571 1493h371l573 -1493h-319l-119 319h-643zM969 606l-217 588l-217 -588h434z" />
    <glyph glyph-name="uni04D3" unicode="&#x4d3;" horiz-adv-x="1126" 
d="M451 1225q-47 -47 -119 -47q-70 0 -117 47q-47 50 -47 116q0 67 47 117q46 49 117 49q70 0 119 -49q47 -50 47 -117q0 -66 -47 -116zM903 1225q-47 -47 -117 -47q-69 0 -116 47q-47 50 -47 116q0 67 47 117q46 49 116 49q68 0 117 -49t49 -117q0 -67 -49 -116zM418 -20
q-138 0 -238 83q-100 84 -100 222v8q0 198 205 270q108 41 243 41h99q39 0 59.5 18.5t20.5 51.5q0 56 -42.5 91.5t-117.5 35.5q-67 0 -116 -37t-66 -102l-263 59q18 105 88 178q69 75 166 109q93 34 205 34q195 2 316.5 -106t121.5 -305v-467q0 -58 9 -164h-277
q-6 40 -6 127h-4q-107 -147 -303 -147zM504 197q91 0 147 59q56 56 56 137v25h-179q-52 0 -100 -31q-49 -30 -49 -86q0 -49 35 -76.5t90 -27.5z" />
    <glyph glyph-name="uni04D4" unicode="&#x4d4;" horiz-adv-x="2009" 
d="M-25 0l758 1493h1161v-289h-659v-305h590v-289h-590v-321h666v-289h-971v297h-475l-148 -297h-332zM598 584h332v622h-19z" />
    <glyph glyph-name="uni04D5" unicode="&#x4d5;" horiz-adv-x="1810" 
d="M1731 426h-738q12 -88 84 -145q71 -56 166 -56q65 0 129 39q65 40 88 98l244 -83q-50 -142 -174 -222q-127 -80 -283 -80q-126 0 -234.5 46t-183.5 131q-160 -174 -401 -174h-10q-138 0 -238 83q-100 84 -100 222v8q0 198 205 270q108 41 243 41h99q39 0 59.5 18.5
t20.5 51.5q0 56 -42.5 91.5t-117.5 35.5q-67 0 -116 -37t-66 -102l-263 59q18 105 88 178q69 75 166 109q93 34 205 34q217 0 330 -122q146 122 338 122q224 0 366 -139q142 -142 142 -364q0 -67 -6 -113zM999 625h439q-6 60 -54 114q-55 62 -163 62q-92 0 -150 -58
q-64 -60 -72 -118zM504 197q91 0 147 59q56 56 56 137v25h-179q-52 0 -100 -31q-49 -30 -49 -86q0 -49 35 -76.5t90 -27.5z" />
    <glyph glyph-name="uni04D6" unicode="&#x4d6;" horiz-adv-x="1263" 
d="M666 1632q-151 0 -248 94q-98 98 -121 256l174 31q53 -176 195 -176q141 0 194 176l174 -31q-26 -158 -121 -256q-97 -94 -247 -94zM174 1493h977v-289h-672v-305h602v-289h-602v-321h678v-289h-983v1493z" />
    <glyph glyph-name="uni04D7" unicode="&#x4d7;" horiz-adv-x="1196" 
d="M621 1178q-148 0 -250 94q-98 98 -121 256l174 31q56 -177 197 -177q138 0 194 177l172 -31q-27 -162 -121 -256q-97 -94 -245 -94zM1116 426h-737q12 -88 84 -145q71 -56 166 -56q65 0 129 39q66 40 86 98l246 -83q-50 -142 -177 -222t-280 -80q-151 0 -281 68
q-125 64 -202 188q-76 127 -76 277q0 146 73 268q72 121 199 195q120 69 268 69q226 0 367 -141t141 -369q0 -69 -6 -106zM385 625h438q-6 62 -53 114q-25 28 -68.5 45t-95.5 17q-90 0 -151 -58q-61 -61 -70 -118z" />
    <glyph glyph-name="uni04DC" unicode="&#x4dc;" horiz-adv-x="2115" 
d="M379 0h-381l561 768l-539 725h379l496 -700l8 2v698h309v-700h9l495 700h379l-539 -725l562 -768h-381l-516 725h-9v-725h-309v725h-8zM821 1614q-70 0 -114 47q-50 50 -50 119q0 65 48 116q47 50 116 50q67 0 117 -50q49 -49 49 -116q0 -70 -49 -119q-47 -47 -117 -47z
M1294 1614q-69 0 -116 47q-48 51 -48 119q0 65 48 116q47 50 116 50q67 0 117 -50q49 -49 49 -116q0 -70 -49 -119q-47 -47 -117 -47z" />
    <glyph glyph-name="uni04DD" unicode="&#x4dd;" horiz-adv-x="1751" 
d="M766 1225q-47 -47 -119 -47q-71 0 -115 47q-49 49 -49 116q0 68 49 117q46 49 115 49q70 0 119 -49q47 -47 47 -117q0 -69 -47 -116zM1219 1225q-44 -47 -117 -47q-70 0 -117 47q-47 50 -47 116q0 67 47 117q46 49 117 49t117 -49q49 -49 49 -117q0 -67 -49 -116z
M1024 549h6l342 469h350l-362 -498l371 -520h-359l-342 494h-6v-494h-297v494h-6l-340 -494h-361l371 520l-362 498h352l340 -469h6v469h297v-469z" />
    <glyph glyph-name="uni04DE" unicode="&#x4de;" horiz-adv-x="1308" 
d="M406 1614q-70 0 -117 47t-47 119q0 69 47 116q47 50 117 50q66 0 116 -50q49 -49 49 -116q0 -70 -49 -119q-47 -47 -116 -47zM879 1614q-70 0 -117 47t-47 119q0 69 47 116q47 50 117 50q66 0 116 -50q49 -49 49 -116q0 -70 -49 -119q-47 -47 -116 -47zM61 463l312 49
q9 -105 86 -176q73 -70 180 -70q104 -3 181 56.5t77 162.5q0 61 -38 108.5t-97 70.5q-53 20 -119 20q-70 0 -143 -31l-148 217l426 340h-672v283h1063v-289l-362 -289q180 -18 293 -137q114 -123 114 -297q0 -108 -46 -203t-130 -163q-165 -133 -395 -133
q-106 0 -206.5 33.5t-180.5 95.5q-83 63 -134.5 154t-60.5 198z" />
    <glyph glyph-name="uni04DF" unicode="&#x4df;" horiz-adv-x="1042" 
d="M399 1225q-47 -47 -116 -47q-73 0 -117 47q-47 47 -47 116q0 70 47 117q46 49 117 49q67 0 116 -49q50 -50 50 -117q0 -66 -50 -116zM854 1225q-47 -47 -117 -47q-72 0 -116 47q-48 48 -48 116q0 69 48 117q46 49 116 49q68 0 117 -49q47 -47 47 -117q0 -69 -47 -116z
M836 78q-118 -98 -322 -98q-175 0 -297 83q-124 86 -151 248l253 64q21 -71 69.5 -111.5t121.5 -40.5q60 0 111 31q47 27 47 86q0 53 -43 80q-47 24 -103 24q-60 0 -123 -26l-90 168l269 182h-486v250h838v-225l-248 -166q106 -16 182 -78q90 -74 90 -213q0 -163 -118 -258z
" />
    <glyph glyph-name="uni04E2" unicode="&#x4e2;" horiz-adv-x="1640" 
d="M479 1493v-1047l627 1047h360v-1493h-305v1055l-626 -1055h-361v1493h305zM1167 1876v-221h-694v221h694z" />
    <glyph glyph-name="uni04E3" unicode="&#x4e3;" horiz-adv-x="1241" 
d="M967 1421v-223h-695v223h695zM809 588l-373 -588h-299v1018h293v-592h2l375 592h297v-1018h-293v588h-2z" />
    <glyph glyph-name="uni04E4" unicode="&#x4e4;" horiz-adv-x="1640" 
d="M584 1614q-70 0 -117 47t-47 119q0 69 47 116q47 50 117 50q66 0 116 -50q48 -48 48 -116q0 -71 -48 -119q-47 -47 -116 -47zM1055 1614q-68 0 -115 47q-49 49 -49 119q0 67 49 116q47 50 115 50q69 0 119 -50q47 -47 47 -116q0 -72 -47 -119t-119 -47zM479 1493v-1047
l627 1047h360v-1493h-305v1055l-626 -1055h-361v1493h305z" />
    <glyph glyph-name="uni04E5" unicode="&#x4e5;" horiz-adv-x="1241" 
d="M510 1225q-47 -47 -117 -47q-73 0 -117 47q-47 50 -47 116q0 67 47 117q46 49 117 49q68 0 117 -49t49 -117q0 -67 -49 -116zM965 1225q-47 -47 -117 -47q-73 0 -117 47q-47 47 -47 116q0 70 47 117q46 49 117 49q68 0 117 -49t49 -117q0 -67 -49 -116zM809 588
l-373 -588h-299v1018h293v-592h2l375 592h297v-1018h-293v588h-2z" />
    <glyph glyph-name="uni04E6" unicode="&#x4e6;" horiz-adv-x="1714" 
d="M623 1614q-71 0 -115 47q-49 49 -49 119q0 66 47 116t117 50q66 0 116 -50q49 -49 49 -116q0 -70 -49 -119q-47 -47 -116 -47zM1096 1614q-71 0 -115 47q-49 49 -49 119q0 66 47 116t117 50q66 0 116 -50t50 -116q0 -69 -50 -119q-47 -47 -116 -47zM82 745q0 159 61 302
t166 245q100 100 250 164q148 60 301 60q163 0 303 -60q142 -59 246 -160q103 -103 164 -243q59 -142 59 -301q0 -161 -61 -301q-63 -148 -166 -248q-107 -107 -248 -164q-145 -62 -303 -62q-159 0 -302 59.5t-246 162t-163.5 245t-60.5 301.5zM459 983q-60 -111 -60 -235
q0 -125 60 -236q61 -108 166 -172q107 -64 233 -64q128 0 232 64q105 62 167 172q60 111 60 236q3 125 -59 234t-169 173t-231 62q-126 0 -233 -64q-104 -61 -166 -170z" />
    <glyph glyph-name="uni04E7" unicode="&#x4e7;" horiz-adv-x="1259" 
d="M522 1225q-47 -47 -119 -47q-69 0 -116 47q-47 50 -47 116q0 67 47 117q46 49 116 49t119 -49q47 -50 47 -117q0 -66 -47 -116zM975 1225q-47 -47 -117 -47t-117 47q-47 50 -47 116q0 67 47 117q46 49 117 49q68 0 117 -49t49 -117q0 -67 -49 -116zM74 506q0 145 76 272
q75 126 202 195q132 69 281 69q155 0 278 -69q128 -68 201 -191q74 -121 74 -270q0 -148 -74 -272q-76 -125 -203 -193q-128 -70 -280 -70q-151 0 -281 68q-126 70 -198 191q-76 127 -76 270zM451 696q-72 -75 -72 -186t72 -186q74 -74 180 -74q104 0 178 74q72 69 72 186
q0 114 -72 186q-74 74 -180 74q-104 0 -178 -74z" />
    <glyph glyph-name="uni04E8" unicode="&#x4e8;" horiz-adv-x="1714" 
d="M82 745q0 159 61 302t166 245q100 100 250 164q148 60 301 60q163 0 303 -60q142 -59 246 -160q103 -103 164 -243q59 -142 59 -301q0 -161 -61 -301q-63 -148 -166 -248q-107 -107 -248 -164q-145 -62 -303 -62q-159 0 -302 59.5t-246 162t-163.5 245t-60.5 301.5z
M408 883h901q-38 148 -164 243q-126 99 -287 99t-287 -99q-128 -99 -163 -243zM1309 616h-901q37 -153 163 -249q125 -101 287 -101t289 103q128 101 162 247z" />
    <glyph glyph-name="uni04E9" unicode="&#x4e9;" horiz-adv-x="1259" 
d="M74 506q0 145 76 272q75 126 202 195q132 69 281 69q155 0 278 -69q128 -68 201 -191q74 -121 74 -270q0 -148 -74 -272q-76 -125 -203 -193q-128 -70 -280 -70q-151 0 -281 68q-126 70 -198 191q-76 127 -76 270zM373 604h516q-24 84 -96 135q-70 52 -164 52
q-92 0 -162 -52q-70 -49 -94 -135zM887 410h-512q25 -86 96 -134q71 -47 160 -47t160 50q71 48 96 131z" />
    <glyph glyph-name="uni04EA" unicode="&#x4ea;" horiz-adv-x="1714" 
d="M623 1614q-71 0 -115 47q-49 49 -49 119q0 66 47 116t117 50q66 0 116 -50q49 -49 49 -116q0 -70 -49 -119q-47 -47 -116 -47zM1096 1614q-71 0 -115 47q-49 49 -49 119q0 66 47 116t117 50q66 0 116 -50t50 -116q0 -69 -50 -119q-47 -47 -116 -47zM82 745q0 159 61 302
t166 245q100 100 250 164q148 60 301 60q163 0 303 -60q142 -59 246 -160q103 -103 164 -243q59 -142 59 -301q0 -161 -61 -301q-63 -148 -166 -248q-107 -107 -248 -164q-145 -62 -303 -62q-159 0 -302 59.5t-246 162t-163.5 245t-60.5 301.5zM408 883h901
q-38 148 -164 243q-126 99 -287 99t-287 -99q-128 -99 -163 -243zM1309 616h-901q37 -153 163 -249q125 -101 287 -101t289 103q128 101 162 247z" />
    <glyph glyph-name="uni04EB" unicode="&#x4eb;" horiz-adv-x="1259" 
d="M522 1225q-47 -47 -119 -47q-69 0 -116 47q-47 50 -47 116q0 67 47 117q46 49 116 49t119 -49q47 -50 47 -117q0 -66 -47 -116zM975 1225q-47 -47 -117 -47t-117 47q-47 50 -47 116q0 67 47 117q46 49 117 49q68 0 117 -49t49 -117q0 -67 -49 -116zM74 506q0 145 76 272
q75 126 202 195q132 69 281 69q155 0 278 -69q128 -68 201 -191q74 -121 74 -270q0 -148 -74 -272q-76 -125 -203 -193q-128 -70 -280 -70q-151 0 -281 68q-126 70 -198 191q-76 127 -76 270zM373 604h516q-24 84 -96 135q-70 52 -164 52q-92 0 -162 -52q-70 -49 -94 -135z
M887 410h-512q25 -86 96 -134q71 -47 160 -47t160 50q71 48 96 131z" />
    <glyph glyph-name="uni04EC" unicode="&#x4ec;" horiz-adv-x="1617" 
d="M541 1614q-70 0 -117 47t-47 119q0 69 47 116q47 50 117 50q66 0 116 -50t50 -116q0 -69 -50 -119q-47 -47 -116 -47zM1014 1614q-70 0 -117 47t-47 119q0 69 47 116q47 50 117 50q66 0 116 -50q48 -48 48 -116q0 -71 -48 -119q-47 -47 -116 -47zM774 1516q215 0 387 -97
q175 -99 273 -272q100 -172 100 -395q0 -178 -59 -316q-63 -148 -164 -243q-104 -103 -246 -159.5t-303 -56.5q-116 0 -225.5 33t-190.5 88q-70 48 -141 119q-120 132 -148 252l287 100q25 -97 129 -190q53 -48 131 -76.5t166 -28.5q163 0 281 95q117 99 157 247h-598v277
h592q-43 143 -158 235q-120 91 -274 91q-109 0 -194 -38t-140 -100q-68 -74 -84 -139l-286 94q24 96 102 196.5t194 172.5q173 111 412 111z" />
    <glyph glyph-name="uni04ED" unicode="&#x4ed;" horiz-adv-x="1187" 
d="M457 1225q-47 -47 -119 -47q-71 0 -115 47q-49 49 -49 116q0 68 49 117q46 49 115 49q70 0 119 -49q47 -47 47 -117q0 -69 -47 -116zM911 1225q-47 -47 -118 -47q-70 0 -117 47q-47 50 -47 116q0 67 47 117q46 49 117 49q69 0 118 -49q47 -50 47 -117q0 -66 -47 -116z
M573 1042q151 2 276 -68.5t196 -193t69 -268.5q0 -110 -40.5 -208.5t-112.5 -170.5q-73 -73 -176 -114.5t-220 -41.5q-177 0 -319 91q-139 87 -189 256l262 79q28 -70 93 -113.5t159 -43.5q84 0 143.5 44t84.5 122h-332v204h332q-26 74 -87.5 116t-140.5 42q-92 0 -159 -45
q-65 -47 -86 -108l-263 77q27 112 109 191q83 80 186 117q101 36 215 36z" />
    <glyph glyph-name="uni04EE" unicode="&#x4ee;" horiz-adv-x="1390" 
d="M1413 1493l-530 -1063q-9 -19 -19 -38t-20.5 -38.5t-14.5 -27.5q-10 -22 -51 -90q-44 -63 -61 -82q-45 -45 -68 -62q-110 -86 -303 -92h-215v289h182q185 0 240 117l-547 1087h338l379 -766l356 766h334zM1063 1876v-221h-694v221h694z" />
    <glyph glyph-name="uni04EF" unicode="&#x4ef;" horiz-adv-x="1165" 
d="M932 1421v-223h-694v223h694zM453 109l-428 909h327l254 -582l228 582h307l-619 -1520h-317z" />
    <glyph glyph-name="uni04F0" unicode="&#x4f0;" horiz-adv-x="1390" 
d="M481 1614q-67 0 -114 47q-50 50 -50 119q0 66 50 116q47 50 114 50q69 0 119 -50q47 -47 47 -116q0 -72 -47 -119t-119 -47zM954 1614q-70 0 -114 47q-49 49 -49 119q0 67 49 116q47 50 114 50q69 0 119 -50q47 -47 47 -116q0 -72 -47 -119t-119 -47zM1413 1493
l-530 -1063q-9 -19 -19 -38t-20.5 -38.5t-14.5 -27.5q-10 -22 -51 -90q-44 -63 -61 -82q-45 -45 -68 -62q-110 -86 -303 -92h-215v289h182q185 0 240 117l-547 1087h338l379 -766l356 766h334z" />
    <glyph glyph-name="uni04F1" unicode="&#x4f1;" horiz-adv-x="1165" 
d="M475 1225q-47 -47 -117 -47q-72 0 -116 47q-47 47 -47 116q0 70 47 117q46 49 116 49q68 0 117 -49q47 -47 47 -117q0 -69 -47 -116zM930 1225q-47 -47 -119 -47q-71 0 -115 47q-49 49 -49 116q0 68 49 117q46 49 115 49q70 0 119 -49q47 -47 47 -117q0 -69 -47 -116z
M453 109l-428 909h327l254 -582l228 582h307l-619 -1520h-317z" />
    <glyph glyph-name="uni04F2" unicode="&#x4f2;" horiz-adv-x="1390" 
d="M582 1982h331l-301 -358h-235zM1004 1982h331l-301 -358h-235zM1413 1493l-530 -1063q-9 -19 -19 -38t-20.5 -38.5t-14.5 -27.5q-10 -22 -51 -90q-44 -63 -61 -82q-45 -45 -68 -62q-110 -86 -303 -92h-215v289h182q185 0 240 117l-547 1087h338l379 -766l356 766h334z
" />
    <glyph glyph-name="uni04F3" unicode="&#x4f3;" horiz-adv-x="1165" 
d="M451 1544h331l-301 -356h-235zM870 1544h334l-303 -356h-235zM453 109l-428 909h327l254 -582l228 582h307l-619 -1520h-317z" />
    <glyph glyph-name="uni04F4" unicode="&#x4f4;" horiz-adv-x="1464" 
d="M459 1614q-70 0 -117 47t-47 119q0 69 47 116q47 50 117 50q66 0 116 -50t50 -116q0 -69 -50 -119q-47 -47 -116 -47zM932 1614q-70 0 -117 47t-47 119q0 69 47 116q47 50 117 50q67 0 117 -50q47 -47 47 -116q0 -72 -47 -119t-117 -47zM981 0v580q-213 -109 -387 -109
q-235 0 -363 125q-131 122 -131 367v530h310v-440q0 -279 249 -279q93 0 181 27q86 24 141 67v625h309v-1493h-309z" />
    <glyph glyph-name="uni04F5" unicode="&#x4f5;" horiz-adv-x="1161" 
d="M440 1225q-44 -47 -116 -47q-70 0 -117 47q-47 50 -47 116q0 67 47 117q46 49 117 49q70 0 116 -49q49 -49 49 -117q0 -67 -49 -116zM895 1225q-47 -47 -117 -47q-69 0 -116 47q-48 51 -48 116q0 66 48 117q46 49 116 49q68 0 117 -49t49 -117q0 -67 -49 -116zM727 0v348
q-134 -67 -283 -67q-153 0 -254 81q-110 89 -110 259v397h299v-311q0 -72 33 -121t112 -49q105 0 203 49v432h297v-1018h-297z" />
    <glyph glyph-name="uni04F8" unicode="&#x4f8;" horiz-adv-x="2058" 
d="M481 930h340q222 0 350 -99q56 -44 97 -104q69 -111 69 -254q2 -107 -41.5 -205t-132.5 -166q-134 -102 -360 -102h-629v1493h307v-563zM1575 1493v-1493h309v1493h-309zM481 293h322q69 0 116.5 17t70 46t31.5 57.5t9 61.5q0 59 -39 111q-51 61 -192 61h-318v-354z
M786 1614q-70 0 -114 47q-49 49 -49 119q0 66 47 116t116 50q67 0 117 -50q49 -49 49 -116q0 -70 -49 -119q-47 -47 -117 -47zM1260 1614q-71 0 -115 47q-49 49 -49 119q0 66 47 116t117 50q66 0 116 -50q49 -49 49 -116q0 -70 -49 -119q-47 -47 -116 -47z" />
    <glyph glyph-name="uni04F9" unicode="&#x4f9;" horiz-adv-x="1720" 
d="M750 1225q-47 -47 -117 -47q-73 0 -117 47q-47 47 -47 116q0 70 47 117q46 49 117 49q68 0 117 -49t49 -117q0 -67 -49 -116zM1204 1225q-47 -47 -119 -47q-70 0 -114 47q-49 49 -49 116q0 68 49 117q46 49 114 49q70 0 119 -49q47 -47 47 -117q0 -69 -47 -116zM137 1018
h297v-305h232q196 0 315 -90q115 -89 115 -263q0 -170 -111 -264q-108 -96 -303 -96h-545v1018zM1284 1018h299v-1018h-299v1018zM434 236h205q156 0 156 131q0 58 -39.5 90t-116.5 32h-205v-253z" />
    <glyph glyph-name="uni0E3F" unicode="&#xe3f;" horiz-adv-x="1425" 
d="M1061 778v-2q141 -54 207 -137q67 -82 67 -227q0 -88 -30 -159t-81 -117.5t-120 -77.5t-144 -44.5t-157 -13.5h-8v-195h-158v195h-463v1493h463v207h158v-207q92 0 175.5 -24.5t151.5 -72t108 -124.5t40 -174q0 -209 -209 -320zM641 885v323h-166v-323h166zM969 1049
q0 73 -47.5 113t-128.5 46v-319q176 18 176 160zM641 285v336h-164v-336h164zM793 285h10q60 0 109 13.5t85.5 53t36.5 101.5q0 97 -80 135q-65 33 -161 33v-336z" />
    <glyph glyph-name="uni1E20" unicode="&#x1e20;" horiz-adv-x="1636" 
d="M1208 1858v-222h-694v222h694zM1567 803v-117q0 -133 -38.5 -249t-107.5 -201q-71 -87 -157 -142q-174 -117 -406 -117q-170 0 -315 62q-146 58 -246 164q-101 104 -158 245t-57 297q0 212 106 392q105 175 285 278q177 101 387 101q133 0 250.5 -37t202.5 -103
q169 -131 219 -315l-301 -92q-24 100 -127 178q-103 74 -246 74q-125 0 -231 -62t-166 -170q-64 -110 -64 -241q0 -130 58.5 -239t165.5 -173q107 -66 237 -66q145 0 254 70q104 70 131 182h-455v281h779z" />
    <glyph glyph-name="uni1E21" unicode="&#x1e21;" horiz-adv-x="1300" 
d="M981 1421v-223h-694v223h694zM1161 1018v-967q0 -136 -41 -244t-116 -176q-153 -141 -400 -141q-107 0 -201.5 31t-158.5 84q-138 110 -162 252l274 80q16 -79 76 -134q56 -53 160 -53q116 0 194 67.5t78 200.5v117h-4q-105 -135 -293 -135q-141 0 -256 68
q-111 66 -174 186q-61 116 -61 260q0 199 131 356q61 75 153.5 119.5t196.5 44.5q56 0 137 -22q98 -30 170 -117h4v123h293zM872 514q0 113 -69 182q-69 72 -178 72q-105 0 -174 -72q-72 -69 -72 -182q0 -111 70 -184q72 -72 176 -72t176 72q71 71 71 184z" />
    <glyph glyph-name="uni1E30" unicode="&#x1e30;" horiz-adv-x="1406" 
d="M829 1987h342l-301 -357h-243zM483 0h-309v1493h309v-649l512 649h387l-571 -715l608 -778h-399l-537 709v-709z" />
    <glyph glyph-name="uni1E31" unicode="&#x1e31;" horiz-adv-x="1179" 
d="M434 481v-481h-297v1554h297v-936l354 400h379l-409 -469l420 -549h-375l-361 481h-8zM786 1544h342l-301 -356h-243z" />
    <glyph glyph-name="uni1E60" unicode="&#x1e60;" horiz-adv-x="1302" 
d="M477 1796q0 76 53 129t127 53q75 0 131 -53q54 -57 54 -129q0 -73 -54 -127q-55 -55 -131 -55q-75 0 -127 55q-53 50 -53 127zM668 -23q-259 0 -412 123q-151 124 -188 340l290 68q18 -118 107 -186q84 -66 213 -66q108 0 164 47q61 49 61 121q0 56 -46.5 99.5
t-123.5 56.5l-211 43q-181 34 -291 147q-106 112 -106 281q0 96 42 183t114 150q74 61 171 96.5t201 35.5q121 0 222 -33.5t167 -91.5q129 -123 150 -273l-281 -82q-21 96 -87 149.5t-175 53.5q-91 0 -155 -49q-62 -50 -62 -115q0 -59 39 -99.5t115 -55.5l209 -39
q205 -38 311 -156q111 -120 111 -283q0 -177 -142 -319q-69 -68 -175 -107t-232 -39z" />
    <glyph glyph-name="uni1E61" unicode="&#x1e61;" horiz-adv-x="987" 
d="M307 1360q0 76 51 127q53 53 129 53q79 0 129 -53q56 -53 56 -127q0 -76 -56 -129q-50 -53 -129 -53q-76 0 -129 53q-51 51 -51 129zM502 -23q-170 0 -279 78q-50 35 -82 78q-62 73 -69 158l262 55q6 -57 51 -96q43 -43 115 -43q54 0 86 26.5t32 61.5q0 67 -100 88
l-127 29q-145 32 -220 109t-75 188q0 141 113 235q110 98 276 98q115 0 200.5 -38.5t135.5 -100.5q62 -73 72 -153l-258 -56q-11 56 -49 88.5t-99 32.5q-49 0 -80.5 -25t-31.5 -61q0 -59 80 -74l141 -30q149 -29 230 -111t81 -199q0 -136 -100 -231q-51 -49 -130.5 -78
t-174.5 -29z" />
    <glyph glyph-name="Wgrave" unicode="&#x1e80;" horiz-adv-x="2271" 
d="M1059 1987l203 -357h-244l-301 357h342zM807 0h-334l-436 1493h330l284 -1061l322 1061h327l324 -1069l295 1069h317l-442 -1493h-334l-323 1083h-4z" />
    <glyph glyph-name="wgrave" unicode="&#x1e81;" horiz-adv-x="1701" 
d="M975 1188h-244l-301 356h342zM1180 381l192 637h297l-317 -1018h-295l-207 649l-211 -649h-289l-315 1018h303l184 -631h2l191 631h274z" />
    <glyph glyph-name="Wacute" unicode="&#x1e82;" horiz-adv-x="2271" 
d="M1223 1987h342l-303 -357h-244zM807 0h-334l-436 1493h330l284 -1061l322 1061h327l324 -1069l295 1069h317l-442 -1493h-334l-323 1083h-4z" />
    <glyph glyph-name="wacute" unicode="&#x1e83;" horiz-adv-x="1701" 
d="M930 1544h342l-301 -356h-244zM1180 381l192 637h297l-317 -1018h-295l-207 649l-211 -649h-289l-315 1018h303l184 -631h2l191 631h274z" />
    <glyph glyph-name="Wdieresis" unicode="&#x1e84;" horiz-adv-x="2271" 
d="M899 1614q-71 0 -115 47q-49 49 -49 119q0 66 47 116t117 50q67 0 117 -50q49 -49 49 -116q0 -70 -49 -119q-47 -47 -117 -47zM1372 1614q-71 0 -115 47q-49 49 -49 119q0 66 47 116t117 50q67 0 117 -50q49 -49 49 -116q0 -70 -49 -119q-47 -47 -117 -47zM807 0h-334
l-436 1493h330l284 -1061l322 1061h327l324 -1069l295 1069h317l-442 -1493h-334l-323 1083h-4z" />
    <glyph glyph-name="wdieresis" unicode="&#x1e85;" horiz-adv-x="1701" 
d="M741 1225q-47 -47 -116 -47q-70 0 -117 47q-47 50 -47 116q0 67 47 117q46 49 117 49q67 0 116 -49q50 -50 50 -117q0 -66 -50 -116zM1196 1225q-47 -47 -117 -47q-72 0 -116 47q-48 51 -48 116q0 66 48 117q46 49 116 49q68 0 117 -49t49 -117q0 -67 -49 -116zM1180 381
l192 637h297l-317 -1018h-295l-207 649l-211 -649h-289l-315 1018h303l184 -631h2l191 631h274z" />
    <glyph glyph-name="uni1E90" unicode="&#x1e90;" horiz-adv-x="1306" 
d="M649 1802l-114 -174h-254l229 332h278l232 -332h-252zM111 1493h1095v-266l-741 -940h756l2 -287h-1147v272l745 936h-710v285z" />
    <glyph glyph-name="uni1E91" unicode="&#x1e91;" horiz-adv-x="1030" 
d="M512 1364l-115 -174h-254l230 332h278l230 -332h-252zM940 791l-481 -537h483v-254h-860v231l475 533h-461v254h844v-227z" />
    <glyph glyph-name="uni1EBC" unicode="&#x1ebc;" horiz-adv-x="1263" 
d="M817 1628q-91 0 -158 45q-72 45 -120 45q-57 0 -60 -90h-174l-2 49q-5 113 50 179.5t165 66.5q55 2 151.5 -44t121.5 -44q26 3 38.5 11.5t18.5 27.5q5 17 10 45h168l2 -47q5 -113 -49.5 -178.5t-161.5 -65.5zM174 1493h977v-289h-672v-305h602v-289h-602v-321h678v-289
h-983v1493z" />
    <glyph glyph-name="uni1EBD" unicode="&#x1ebd;" horiz-adv-x="1196" 
d="M764 1190q-82 0 -158 45q-72 45 -121 45q-53 0 -59 -88h-174l-2 47q-5 113 51 179.5t164 66.5q55 2 151 -44t121 -44q29 0 47 18q9 14 11 23q5 14 10 45h168l2 -49q6 -111 -49 -177.5t-162 -66.5zM1116 426h-737q12 -88 84 -145q71 -56 166 -56q65 0 129 39q66 40 86 98
l246 -83q-50 -142 -177 -222t-280 -80q-151 0 -281 68q-125 64 -202 188q-76 127 -76 277q0 146 73 268q72 121 199 195q120 69 268 69q226 0 367 -141t141 -369q0 -69 -6 -106zM385 625h438q-6 62 -53 114q-25 28 -68.5 45t-95.5 17q-90 0 -151 -58q-61 -61 -70 -118z" />
    <glyph glyph-name="Ygrave" unicode="&#x1ef2;" horiz-adv-x="1454" 
d="M662 1987l204 -357h-243l-304 357h343zM573 0v590l-546 903h356l344 -598l350 598h353l-547 -889v-604h-310z" />
    <glyph glyph-name="ygrave" unicode="&#x1ef3;" horiz-adv-x="1165" 
d="M723 1188h-244l-301 356h342zM453 109l-428 909h327l254 -582l228 582h307l-619 -1520h-317z" />
    <glyph glyph-name="uni2000" unicode="&#x2000;" horiz-adv-x="1130" 
 />
    <glyph glyph-name="uni2001" unicode="&#x2001;" horiz-adv-x="2260" 
 />
    <glyph glyph-name="uni2002" unicode="&#x2002;" horiz-adv-x="1130" 
 />
    <glyph glyph-name="uni2003" unicode="&#x2003;" horiz-adv-x="2260" 
 />
    <glyph glyph-name="uni2004" unicode="&#x2004;" horiz-adv-x="753" 
 />
    <glyph glyph-name="uni2005" unicode="&#x2005;" horiz-adv-x="565" 
 />
    <glyph glyph-name="uni2006" unicode="&#x2006;" horiz-adv-x="376" 
 />
    <glyph glyph-name="uni2007" unicode="&#x2007;" horiz-adv-x="376" 
 />
    <glyph glyph-name="uni2008" unicode="&#x2008;" horiz-adv-x="282" 
 />
    <glyph glyph-name="uni2009" unicode="&#x2009;" horiz-adv-x="450" 
 />
    <glyph glyph-name="uni200A" unicode="&#x200a;" horiz-adv-x="124" 
 />
    <glyph glyph-name="uni2010" unicode="&#x2010;" horiz-adv-x="874" 
d="M123 471v295h629v-295h-629z" />
    <glyph glyph-name="uni2011" unicode="&#x2011;" horiz-adv-x="874" 
d="M123 471v295h629v-295h-629z" />
    <glyph glyph-name="figuredash" unicode="&#x2012;" horiz-adv-x="874" 
d="M123 471v295h629v-295h-629z" />
    <glyph glyph-name="endash" unicode="&#x2013;" horiz-adv-x="1177" 
d="M1055 762v-287h-932v287h932z" />
    <glyph glyph-name="emdash" unicode="&#x2014;" horiz-adv-x="1908" 
d="M1786 762v-287h-1663v287h1663z" />
    <glyph glyph-name="quoteleft" unicode="&#x2018;" horiz-adv-x="595" 
d="M88 1047q0 186 102 309q100 124 279 151v-141q-166 -52 -201 -211q30 6 60 6q78 0 123 -51q49 -52 49 -131q0 -81 -60 -129q-62 -49 -139 -49q-98 0 -158 69q-55 70 -55 177z" />
    <glyph glyph-name="quoteright" unicode="&#x2019;" horiz-adv-x="600" 
d="M520 1260q0 -186 -102 -312q-106 -125 -281 -151v141q167 56 201 213q-40 -8 -57 -8q-75 0 -125 53q-50 50 -50 131q0 76 60 127q58 49 141 49q99 0 156 -69q57 -66 57 -174z" />
    <glyph glyph-name="quotesinglbase" unicode="&#x201a;" horiz-adv-x="612" 
d="M510 100q0 -186 -102 -309q-100 -123 -279 -151v141q169 53 199 211q-27 -6 -58 -6q-75 0 -123 51q-49 52 -49 131q0 81 60 129q62 49 139 49q98 0 156 -70q57 -69 57 -176z" />
    <glyph glyph-name="quotedblleft" unicode="&#x201c;" horiz-adv-x="1118" 
d="M88 1047q0 186 102 309q100 124 279 151v-141q-166 -52 -201 -211q30 6 60 6q78 0 123 -51q49 -52 49 -131q0 -81 -60 -129q-62 -49 -139 -49q-98 0 -158 69q-55 70 -55 177zM608 1047q0 185 103 309q100 124 280 151v-141q-165 -52 -200 -211q27 6 57 6q77 0 125 -51
q49 -52 49 -131t-59 -129q-65 -49 -142 -49q-95 0 -155 69q-58 70 -58 177z" />
    <glyph glyph-name="quotedblright" unicode="&#x201d;" horiz-adv-x="1120" 
d="M520 1260q0 -186 -102 -312q-106 -125 -281 -151v141q167 56 201 213q-40 -8 -57 -8q-75 0 -125 53q-50 50 -50 131q0 76 60 127q58 49 141 49q99 0 156 -69q57 -66 57 -174zM1040 1260q0 -186 -102 -312q-103 -124 -279 -151v141q167 56 201 213q-40 -8 -59 -8
q-73 0 -123 53q-49 49 -49 131q0 80 59 127q58 49 139 49q102 0 156 -69q57 -66 57 -174z" />
    <glyph glyph-name="quotedblbase" unicode="&#x201e;" horiz-adv-x="1134" 
d="M510 100q0 -186 -102 -309q-100 -123 -279 -151v141q169 53 199 211q-27 -6 -58 -6q-75 0 -123 51q-49 52 -49 131q0 81 60 129q62 49 139 49q98 0 156 -70q57 -69 57 -176zM1032 100q0 -186 -102 -309q-103 -124 -281 -151v141q166 52 201 211q-30 -6 -57 -6
q-77 0 -125 51q-50 53 -50 131t60 129q62 49 141 49q95 0 156 -70q57 -69 57 -176z" />
    <glyph glyph-name="dagger" unicode="&#x2020;" horiz-adv-x="1335" 
d="M516 0v778h-358v273h358v362h303v-362h359v-273h-359v-778h-303z" />
    <glyph glyph-name="daggerdbl" unicode="&#x2021;" horiz-adv-x="1335" 
d="M516 -393v393h-403v272h403v476h-403v270h403v393h303v-393h406v-270h-406v-476h406v-272h-406v-393h-303z" />
    <glyph glyph-name="bullet" unicode="&#x2022;" horiz-adv-x="919" 
d="M461 362q-141 0 -236 99q-96 96 -96 235q0 135 96 236q97 100 236 100q136 0 233 -100q97 -102 97 -236q0 -138 -97 -235q-99 -99 -233 -99z" />
    <glyph glyph-name="ellipsis" unicode="&#x2026;" horiz-adv-x="1910" 
d="M301 -23q-86 0 -145 62q-62 59 -62 143q0 85 60 148q62 59 147 59q86 0 148 -59q59 -62 59 -148q0 -84 -59 -143q-62 -62 -148 -62zM954 -23q-83 0 -145 62q-61 58 -61 143q0 87 61 148q62 59 145 59q86 0 148 -59q59 -62 59 -148q0 -84 -59 -143q-62 -62 -148 -62z
M1610 -23q-84 0 -146 62q-61 58 -61 143q0 87 61 148q62 59 146 59q85 0 147 -59q60 -63 60 -148q0 -83 -60 -143q-62 -62 -147 -62z" />
    <glyph glyph-name="uni202F" unicode="&#x202f;" horiz-adv-x="450" 
 />
    <glyph glyph-name="perthousand" unicode="&#x2030;" horiz-adv-x="2422" 
d="M406 834q-142 0 -240 98q-98 101 -98 239q0 139 98 240q98 98 240 98q139 0 237 -98q98 -101 98 -240q0 -138 -98 -239q-98 -98 -237 -98zM229 0l973 1493h258l-971 -1493h-260zM406 1288q-52 0 -84 -35q-35 -32 -35 -82q0 -46 35 -84q35 -32 84 -32t81 32q35 35 35 84
q0 50 -35 82q-32 35 -81 35zM1290 -8q-139 0 -237 98q-101 98 -101 238q0 141 101 239q96 99 237 99q144 0 240 -99q98 -98 98 -239q0 -140 -98 -238t-240 -98zM1290 446q-48 0 -82 -34q-34 -31 -34 -84q0 -48 34 -82q35 -35 82 -35q49 0 84 35t35 82q0 49 -35 84
q-34 34 -84 34zM2021 -8q-138 0 -239 98q-99 99 -99 238q0 140 99 239t239 99q141 0 240 -99q98 -98 98 -239q0 -140 -98 -238q-101 -98 -240 -98zM2021 446q-47 0 -84 -34q-32 -32 -32 -84q0 -51 34 -82q35 -35 82 -35q46 0 84 35q35 35 35 82q0 49 -35 84q-37 34 -84 34z
" />
    <glyph glyph-name="guilsinglleft" unicode="&#x2039;" horiz-adv-x="759" 
d="M500 1014l159 -158l-284 -281l287 -282l-164 -158l-445 438z" />
    <glyph glyph-name="guilsinglright" unicode="&#x203a;" horiz-adv-x="757" 
d="M98 856l162 158l445 -441l-445 -438l-162 158l285 280z" />
    <glyph glyph-name="uni203D" unicode="&#x203d;" horiz-adv-x="1126" 
d="M682 889h4q33 26 54.5 72.5t21.5 89.5q0 95 -55.5 148.5t-153.5 53.5q-94 0 -158 -55q-63 -57 -69 -147l-263 28q3 130 72 234q72 104 178 151q110 52 240 52q187 0 330 -105q70 -52 110.5 -130.5t40.5 -170.5q0 -144 -63 -248q-53 -80 -135 -155q-46 -41 -69 -64.5
t-46 -59.5t-25 -69l-4 -47h-266l-20 596h280zM690 33q53 53 53 131t-53 131q-56 53 -133 53q-74 0 -127 -53q-55 -55 -55 -131t55 -131q50 -53 127 -53q80 0 133 53z" />
    <glyph glyph-name="uni2042" unicode="&#x2042;" horiz-adv-x="1753" 
d="M1018 788l-141 193l-142 -193l-141 105l137 192l-225 72l57 168l221 -74v242h183v-242l223 74l57 -168l-223 -72l137 -192zM571 -33l-141 193l-141 -193l-142 105l138 190l-226 74l56 166l223 -72v242h182v-242l223 72l58 -166l-223 -74l137 -190zM1464 -33l-141 193
l-141 -193l-142 105l138 190l-226 74l58 166l219 -72v242h184v-242l225 72l56 -166l-224 -74l138 -190z" />
    <glyph glyph-name="fraction" unicode="&#x2044;" horiz-adv-x="1236" 
d="M4 0l973 1493h258l-971 -1493h-260z" />
    <glyph glyph-name="uni2051" unicode="&#x2051;" horiz-adv-x="927" 
d="M606 788l-143 193l-139 -193l-144 105l137 192l-225 72l58 168l223 -74v242h182v-242l223 74l58 -168l-226 -72l138 -192zM606 -33l-143 193l-139 -193l-144 105l137 190l-225 74l58 166l223 -72v242h182v-242l223 72l58 -166l-226 -74l138 -190z" />
    <glyph glyph-name="uni205F" unicode="&#x205f;" horiz-adv-x="565" 
 />
    <glyph glyph-name="lira" unicode="&#x20a4;" horiz-adv-x="1351" 
d="M981 485l301 -26q-21 -206 -123 -328q-109 -131 -317 -131h-725v268q92 47 151 103q66 60 78 139h-221v162h203q-16 51 -41 114h-162v164h106q-12 52 -12 105q0 131 70 235q64 102 180 160q110 55 240 55q208 0 340 -114q131 -116 149 -322l-307 -49q-15 83 -51 135
q-43 59 -127 59q-72 0 -123 -45q-49 -46 -49 -118q0 -54 16 -101h348v-164h-284q26 -66 38 -114h246v-162h-243q-23 -131 -119 -211h284q50 3 78.5 22.5t46.5 59.5q20 52 29 104z" />
    <glyph glyph-name="uni20A9" unicode="&#x20a9;" horiz-adv-x="2398" 
d="M2290 989v-196h-199l-33 -113h232v-199h-289l-143 -481h-334l-326 1083h-2l-326 -1083h-333l-142 481h-284v199h227l-33 113h-194v196h137l-148 504h330l285 -1061l319 1061h330l324 -1069l294 1069h318l-150 -504h140z" />
    <glyph glyph-name="dong" unicode="&#x20ab;" horiz-adv-x="1374" 
d="M870 1554h297v-172h117v-202h-117v-1180h-290v129h-5q-100 -149 -315 -149q-105 0 -197 44t-155 119q-62 73 -97.5 169t-35.5 198q0 96 35.5 190t99.5 170q63 77 157 122.5t199 45.5q57 0 133 -20q95 -27 170 -117h4v279h-286v202h286v172zM805 324q72 75 72 186t-72 186
q-69 72 -178 72t-178 -72q-74 -74 -74 -186q0 -115 71 -186q74 -74 179 -74q106 0 180 74zM1208 -133v-256h-1065v256h1065z" />
    <glyph glyph-name="Euro" unicode="&#x20ac;" horiz-adv-x="1771" 
d="M1407 573l293 -100q-30 -130 -141 -252q-61 -67 -140 -119q-80 -55 -192.5 -87.5t-235.5 -32.5q-252 0 -454 141q-205 142 -277 379h-184v190h149q-2 23 -2 53q0 42 2 62h-149v192h188q80 231 283 373q203 144 450 144q117 0 225 -30t185 -81q79 -51 137 -115
q109 -115 148 -256l-293 -102q-12 49 -52.5 107t-105.5 104q-102 71 -248 71q-121 0 -221.5 -57.5t-163.5 -157.5h520l-61 -192h-524q-2 -18 -2 -59q0 -38 2 -56h493l-61 -190h-369q59 -102 160.5 -160.5t226.5 -58.5q87 0 164 28.5t129 75.5q95 88 121 186z" />
    <glyph glyph-name="uni20AE" unicode="&#x20ae;" horiz-adv-x="1370" 
d="M848 922l360 122v-202l-360 -121v-127l360 121v-203l-360 -121v-391h-305v289l-361 -121v201l361 123v126l-361 -120v200l361 121v375h-449v299h1204v-299h-450v-272z" />
    <glyph glyph-name="uni20B1" unicode="&#x20b1;" horiz-adv-x="1546" 
d="M1483 922h-150q-30 -192 -176 -295.5t-362 -100.5h-234v-526h-309v922h-160v172h160v399h553q209 3 355.5 -103.5t172.5 -295.5h150v-172zM561 1090h453q-44 114 -223 114h-230v-114zM561 811h232q169 0 221 115h-453v-115z" />
    <glyph glyph-name="uni20B4" unicode="&#x20b4;" horiz-adv-x="1441" 
d="M96 1016h819q19 25 19 69q0 67 -66 115q-62 45 -172 45q-60 0 -133 -31q-70 -29 -121 -98l-235 172q72 106 211 168q142 60 284 60q144 3 264.5 -53.5t190.5 -160.5t68 -231q0 -19 -4 -55h116v-197h-1241v197zM1337 502h-829q-25 -39 -25 -84q0 -77 63.5 -122.5
t180.5 -45.5q221 0 346 158l236 -177q-122 -148 -271 -204q-132 -50 -321 -50q-128 0 -233 36.5t-171 99.5q-133 124 -133 303q0 47 8 86h-92v196h1243z" />
    <glyph glyph-name="uni20B8" unicode="&#x20b8;" horiz-adv-x="1382" 
d="M1292 1198h-1202v295h1202v-295zM537 0v784h-447v295h1202v-295h-446v-784h-309z" />
    <glyph glyph-name="uni20B9" unicode="&#x20b9;" horiz-adv-x="1234" 
d="M1157 1227h-270q51 -60 65 -127h205v-176h-201q-41 -239 -270 -330l305 -594h-340l-266 537h-279v282h343q141 0 188 105h-531v176h535q-43 102 -195 102h-340v291h1051v-266z" />
    <glyph glyph-name="uni20BA" unicode="&#x20ba;" horiz-adv-x="1415" 
d="M1057 670l293 -31q-8 -312 -204 -475.5t-573 -163.5h-249v504l-211 -94v211l211 94v131l-211 -94v211l211 94v436h307v-299l444 201v-211l-444 -201v-131l444 201v-211l-444 -199v-358q242 6 332 112q45 53 66.5 116.5t27.5 156.5z" />
    <glyph glyph-name="uni20BD" unicode="&#x20bd;" horiz-adv-x="1425" 
d="M598 414h336v-189h-336v-225h-309v225h-176v189h176v112h-176v279h176v688h536q234 0 379 -121q73 -60 114.5 -152.5t41.5 -205.5q0 -119 -41 -213.5t-115 -153.5q-148 -121 -391 -121h-215v-112zM598 813h221q101 0 173.5 49t72.5 146q0 101 -72 147q-71 47 -176 47
h-219v-389z" />
    <glyph glyph-name="uni2113" unicode="&#x2113;" horiz-adv-x="911" 
d="M471 483v-51q0 -111 42 -159t146 -48q75 0 154 31v-231q-85 -43 -199 -43q-179 0 -286 104q-107 101 -113 283q-81 -25 -149 -37v246q76 16 149 49v448q0 148 86 254q85 98 240 98q151 0 235 -90q84 -93 84 -245q0 -117 -57 -240q-62 -125 -141 -209q-87 -93 -191 -160z
M543 1190q-72 0 -72 -103v-299q139 136 139 316q0 86 -67 86z" />
    <glyph glyph-name="uni2116" unicode="&#x2116;" horiz-adv-x="2551" 
d="M481 0h-307v1493h361l641 -1010v1010h305v-1493h-351l-649 1026v-1026zM2337 1196q108 -108 108 -260q0 -154 -106 -260q-109 -109 -271 -109q-159 0 -268 109q-108 108 -108 260t108 260q107 107 268 107q159 0 269 -107zM2202 936q0 58 -41 96q-42 39 -93 39
q-50 0 -92 -39q-41 -38 -41 -96q0 -57 39 -96q35 -41 94 -41q56 0 97 41q37 40 37 96zM1704 414h731v-230h-731v230z" />
    <glyph glyph-name="trademark" unicode="&#x2122;" horiz-adv-x="2027" 
d="M315 633v672h-243v188h694v-188h-244v-672h-207zM1669 1208l-209 -575h-139l-213 569h-6v-569h-199v860h289l199 -543l188 543h299v-860h-203v575h-6z" />
    <glyph glyph-name="estimated" unicode="&#x212e;" horiz-adv-x="1642" 
d="M836 -23q-169 0 -310.5 60t-236.5 168q-93 107 -144 249.5t-51 303.5q0 155 54 294t151 242q92 99 233 162q145 60 304 60q215 0 383 -101q173 -104 262 -272q92 -173 92 -381v-17h-1153v-483q79 -79 190 -123q110 -45 226 -45q193 0 332.5 82t215.5 236l101 -56
q-75 -173 -250 -276q-174 -103 -399 -103zM1251 862v377q-75 78 -188 121q-118 41 -232 41q-240 0 -411 -160v-379h831z" />
    <glyph glyph-name="uni2153" unicode="&#x2153;" horiz-adv-x="2136" 
d="M78 629v67q0 63 19 116.5t69 111.5q52 60 133 108l119 66q96 56 96 127q0 37 -27.5 61.5t-76.5 24.5q-51 0 -80 -34t-29 -95l-219 32q6 129 96 216q92 86 236 86t237 -84q92 -83 92 -205q0 -83 -46.5 -156.5t-129.5 -120.5l-141 -82q-36 -20 -57 -41h379v-198h-670z
M1669 1493l-971 -1493h-258l973 1493h256zM2032 270q0 -131 -103 -211q-101 -82 -241 -82q-144 0 -240 78q-96 74 -102 213l217 33q0 -56 32.5 -90.5t87.5 -34.5q51 0 86 26t35 70q0 45 -35 66q-37 24 -81 24q-33 0 -68 -14l-96 152l213 166h-379v194h663v-178l-198 -154
q92 -24 149 -96q60 -75 60 -162z" />
    <glyph glyph-name="uni2154" unicode="&#x2154;" horiz-adv-x="1986" 
d="M606 627h-252v610l-198 -113l-99 181l328 188h221v-866zM1522 1493l-969 -1493h-260l971 1493h258zM1884 270q0 -131 -102 -211q-101 -82 -242 -82q-144 0 -240 78q-96 74 -102 213l215 33q2 -56 35 -90.5t88 -34.5q50 0 85.5 26t35.5 70q0 45 -37 66q-34 24 -82 24
q-33 0 -65 -14l-97 152l213 166h-381v194h666v-178l-199 -154q90 -24 150 -96q59 -74 59 -162z" />
    <glyph glyph-name="oneeighth" unicode="&#x215b;" horiz-adv-x="1927" 
d="M608 629h-252v608l-200 -113l-99 181l328 188h223v-864zM1530 1493l-971 -1493h-260l973 1493h258zM1133 252q0 68 38.5 117t102.5 75q-60 31 -89.5 77.5t-29.5 96.5q0 66 32.5 119.5t86.5 85.5q109 64 221 64q117 0 223 -62q53 -32 85 -85.5t32 -118.5q0 -51 -29.5 -98
t-89.5 -79q64 -25 103 -74t39 -116q0 -69 -33 -125.5t-88 -87.5q-110 -61 -242 -61t-242 61q-55 31 -87.5 86.5t-32.5 124.5zM1413 670q-34 -26 -34 -61t34 -60q34 -27 82 -27q43 0 82 27q34 25 34 60t-34 61q-35 24 -82 24t-82 -24zM1360 264q0 -42 41 -65q40 -29 94 -29
q52 0 96 29q39 23 39 65q0 40 -39 66q-42 28 -96 28q-52 0 -94 -28q-41 -25 -41 -66z" />
    <glyph glyph-name="threeeighths" unicode="&#x215c;" horiz-adv-x="2007" 
d="M762 903q0 -133 -103 -213t-241 -80q-147 0 -240 78q-96 74 -102 213l217 33q0 -56 33 -90.5t88 -34.5q52 0 86.5 25.5t34.5 70.5q0 42 -37 66q-34 22 -82 22q-28 0 -66 -12l-96 152l213 163h-379v197h664v-180l-199 -154q88 -20 149 -94q60 -75 60 -162zM1608 1493
l-971 -1493h-258l973 1493h256zM1214 252q0 68 38.5 116.5t101.5 75.5q-60 31 -89.5 77.5t-29.5 96.5q0 54 22 100t57.5 76.5t81 52t91.5 31t90 9.5q118 0 221 -62q54 -32 85.5 -85t31.5 -119q0 -51 -29 -98t-90 -79q63 -25 102 -74t39 -116q0 -69 -32.5 -125.5t-87.5 -87.5
q-110 -61 -242 -61q-135 0 -242 61q-55 31 -87 86.5t-32 124.5zM1493 670q-34 -26 -34 -61t34 -60q39 -27 82 -27t82 27q34 25 34 60t-32 61q-37 24 -84 24t-82 -24zM1440 264q0 -41 41 -65q40 -29 94 -29q53 0 96 29q39 23 39 65q0 40 -39 66q-42 28 -94 28q-54 0 -96 -28
q-41 -27 -41 -66z" />
    <glyph glyph-name="fiveeighths" unicode="&#x215d;" horiz-adv-x="1986" 
d="M406 610q-188 0 -285 129q-49 60 -55 152l213 41q8 -57 39 -90t83 -33q51 0 86 32t35 81q0 51 -33.5 80.5t-87.5 29.5q-76 0 -114 -59l-191 59l111 461h510v-197h-359l-30 -125q56 35 137 35q128 0 205 -80q78 -75 78 -204q2 -87 -47.5 -161t-128.5 -114t-166 -37z
M1587 1493l-971 -1493h-258l973 1493h256zM1225 127q-35 56 -35 125t41 119q45 52 100 73q-59 31 -89 77.5t-30 96.5q0 54 22 100t57.5 76.5t81 52t91.5 31t90 9.5q116 0 222 -62q53 -32 84.5 -85.5t31.5 -118.5q0 -115 -118 -177q63 -25 102 -74t39 -116q0 -69 -33 -125.5
t-88 -87.5q-110 -61 -242 -61q-240 4 -327 147zM1470 670q-34 -26 -34 -61t34 -60q39 -27 82 -27t82 27q34 25 34 60t-32 61q-38 24 -84 24q-47 0 -82 -24zM1417 264q0 -41 41 -65q44 -29 94 -29q54 0 97 29q39 23 39 65q0 40 -39 66q-42 28 -95 28q-54 0 -96 -28
q-41 -27 -41 -66z" />
    <glyph glyph-name="seveneighths" unicode="&#x215e;" horiz-adv-x="1818" 
d="M1419 1493l-968 -1493h-261l971 1493h258zM391 629h-262l367 663h-420v201h678v-201zM1024 252q0 68 38.5 117t102.5 75q-60 31 -89 77t-29 97q0 67 33 121t85 85t109 47t112 16q118 0 224 -62q54 -31 85 -84.5t31 -119.5q0 -51 -29 -98t-89 -79q63 -25 102 -74t39 -116
q0 -70 -33.5 -125t-88 -86.5t-116 -47t-125.5 -15.5q-132 0 -239 61q-57 31 -90 86.5t-33 124.5zM1305 670q-34 -26 -34 -61t34 -60q39 -27 81 -27q43 0 82 27q35 25 35 60t-35 61q-34 24 -82 24q-46 0 -81 -24zM1251 264q0 -40 39 -65q44 -29 96 -29q54 0 97 29
q39 25 39 65q0 38 -39 66q-42 28 -97 28q-52 0 -94 -28q-41 -27 -41 -66z" />
    <glyph glyph-name="arrowleft" unicode="&#x2190;" horiz-adv-x="1265" 
d="M594 1321l180 -174q-202 -218 -293 -309h717v-287h-717q78 -76 217 -227q53 -58 78 -84l-182 -172l-557 604v43z" />
    <glyph glyph-name="arrowup" unicode="&#x2191;" horiz-adv-x="1265" 
d="M1260 719l-175 -180q-219 200 -309 290v-716h-287v716q-143 -139 -229 -217q-55 -49 -84 -75l-170 182l604 557h43z" />
    <glyph glyph-name="arrowright" unicode="&#x2192;" horiz-adv-x="1265" 
d="M1229 672l-557 -604l-183 172q32 32 76 84q88 92 107 112q87 92 110 115h-716v287h716q-146 151 -290 309l180 174l557 -606v-43z" />
    <glyph glyph-name="arrowdown" unicode="&#x2193;" horiz-adv-x="1265" 
d="M6 672l172 180q188 -172 311 -291v715h287v-715q85 85 228 217q21 19 48 44t35 32l173 -182l-605 -559h-43z" />
    <glyph glyph-name="uni2196" unicode="&#x2196;" horiz-adv-x="1265" 
d="M1069 1143l6 -250q-273 -12 -428 -12l508 -508l-203 -203l-506 506q0 -175 -8 -314q-3 -74 -6 -114l-248 8l31 821l31 31z" />
    <glyph glyph-name="uni2197" unicode="&#x2197;" horiz-adv-x="1265" 
d="M1049 1077l32 -821l-250 -8q-1 9 -1.5 24.5t-1 41.5t-1.5 46q-6 82 -6 158q-2 51 -2 158l-508 -506l-200 203l505 508q-153 0 -426 12l5 250l823 -35z" />
    <glyph glyph-name="uni2198" unicode="&#x2198;" horiz-adv-x="1265" 
d="M195 170l-5 250q313 12 424 12l-505 508l202 203l508 -508q0 151 6 315q4 53 4 113l252 -8l-32 -819l-31 -31z" />
    <glyph glyph-name="uni2199" unicode="&#x2199;" horiz-adv-x="1265" 
d="M217 236l-33 819l250 8q0 -33 6 -113q4 -106 4 -155q2 -51 2 -160l506 508l205 -203l-508 -508q115 0 426 -12l-6 -250l-823 35z" />
    <glyph glyph-name="uni21A9" unicode="&#x21a9;" horiz-adv-x="2150" 
d="M502 545h891q160 0 264 94q104 91 104 238q0 151 -102 243q-104 90 -273 90h-372v283h391q144 0 268.5 -46.5t212.5 -129.5q87 -84 134.5 -198t47.5 -242q0 -129 -47.5 -243t-134.5 -198q-86 -84 -211 -131t-270 -47h-903q79 -79 215 -227q19 -22 45.5 -49.5t32.5 -34.5
l-183 -172l-557 604v43l557 606l181 -174q-127 -139 -291 -309z" />
    <glyph glyph-name="uni21B0" unicode="&#x21b0;" horiz-adv-x="1638" 
d="M1227 0v565q0 141 -91.5 217t-254.5 76h-379q61 -61 293 -311l-181 -172l-559 606v43l559 604l183 -172q-26 -25 -78 -84q-8 -9 -105 -112q-52 -58 -112 -115h391q297 0 471 -148q170 -144 170 -407v-590h-307z" />
    <glyph glyph-name="uni21B1" unicode="&#x21b1;" horiz-adv-x="1638" 
d="M106 0v590q0 263 170 407q171 148 469 148h392q-113 113 -215 227q-20 22 -46 49.5t-32 34.5l182 172l557 -604v-43l-557 -606l-180 172q3 3 10 11t20.5 23t26.5 29q46 53 70 76q7 8 69 74q16 16 47.5 49t47.5 49h-379q-163 0 -253.5 -76t-90.5 -217v-565h-308z" />
    <glyph glyph-name="uni21B2" unicode="&#x21b2;" horiz-adv-x="1638" 
d="M1534 1493v-588q0 -262 -170 -409q-177 -148 -471 -148h-391q81 -77 217 -225q70 -78 78 -86l-183 -170l-559 604v41l559 606l181 -172q-227 -245 -293 -311h379q164 0 255 76t91 217v565h307z" />
    <glyph glyph-name="uni21B3" unicode="&#x21b3;" horiz-adv-x="1638" 
d="M412 1493v-565q0 -141 91 -217t255 -76h379q-165 172 -166 174q-5 6 -28.5 31t-39.5 43q-54 58 -59 63l180 172l559 -606v-41l-559 -604l-182 170q8 8 78 86q51 53 104 113q65 69 113 112h-392q-295 0 -469 148q-172 147 -172 409v588h308z" />
    <glyph glyph-name="uni21B4" unicode="&#x21b4;" horiz-adv-x="1761" 
d="M78 1495h590q263 0 407 -170q148 -174 148 -471v-391q109 109 229 217q16 15 35 32t30.5 27.5t18.5 16.5l170 -183l-604 -557h-43l-606 557l174 181q205 -188 309 -291v379q0 163 -75.5 254.5t-215.5 91.5h-567v307z" />
    <glyph glyph-name="partialdiff" unicode="&#x2202;" horiz-adv-x="1296" 
d="M604 -18q-150 0 -268.5 59t-188.5 172q-69 112 -69 264q0 135 72 248q71 108 186 166q114 57 252 57q161 0 291 -80q-22 161 -112 265t-241 104q-55 0 -139 -23q-83 -25 -139 -61l-115 250q85 55 201 82q118 31 209 31q134 0 247 -45t191 -125q74 -77 127 -183
q98 -197 98 -471q0 -117 -21.5 -220.5t-68.5 -194t-116 -155.5t-170.5 -102.5t-225.5 -37.5zM653 686q-114 0 -188 -53q-74 -56 -74 -160q0 -89 68 -151q65 -62 157 -62q89 0 153 46t93 122t29 162q-48 45 -111 69q-76 27 -127 27z" />
    <glyph glyph-name="uni2206" unicode="&#x2206;" horiz-adv-x="1632" 
d="M1001 1493l572 -1493h-1514l572 1493h370zM1147 287l-334 897l-332 -897h666z" />
    <glyph glyph-name="product" unicode="&#x220f;" horiz-adv-x="1525" 
d="M911 0v1210h-297v-1210h-307v1210h-235v283h1382v-283h-237v-1210h-306z" />
    <glyph glyph-name="summation" unicode="&#x2211;" horiz-adv-x="1284" 
d="M96 279l494 485l-469 450v279h1057v-283h-652l478 -446l-494 -481h668v-283h-1082v279z" />
    <glyph glyph-name="minus" unicode="&#x2212;" horiz-adv-x="1206" 
d="M129 836h948v-277h-948v277z" />
    <glyph glyph-name="radical" unicode="&#x221a;" horiz-adv-x="1503" 
d="M31 1186h475l285 -836l456 1477h244l-563 -1827h-279l-352 948h-266v238z" />
    <glyph glyph-name="infinity" unicode="&#x221e;" horiz-adv-x="1929" 
d="M1407 199q-127 0 -248 84q-86 64 -98 75q-7 6 -98 93q-91 -87 -158 -144q-141 -105 -293 -108h-12q-182 0 -293 120q-113 122 -113 299q0 181 123 304q120 120 303 120q97 0 201 -55q38 -20 90 -59q49 -40 80 -68q40 -36 76 -72q113 110 163 148q142 106 300 106
q179 1 293.5 -123t111.5 -301q0 -178 -123 -301q-121 -118 -305 -118zM752 668q-23 24 -66 63q-29 23 -72 47q-47 21 -84 21q-76 0 -127 -51q-53 -53 -53 -127q0 -71 53 -127q54 -54 123 -54q72 0 146 56q17 12 59 49q23 20 57 57l15 12q-12 15 -51 54zM1407 799
q-51 0 -123 -39q-26 -18 -59 -45q-10 -9 -21.5 -19.5t-17.5 -16t-10 -9.5q-3 -4 -10.5 -11t-19 -18t-20.5 -20q19 -19 39 -37q28 -31 43 -43q5 -5 41 -37q50 -40 99 -53q25 -11 53 -11q71 0 125 54q53 53 53 124q0 76 -51 130q-48 51 -121 51z" />
    <glyph glyph-name="integral" unicode="&#x222b;" horiz-adv-x="862" 
d="M829 1516v-277q-97 0 -153 -20q-38 -17 -51 -37q-43 -50 -43 -156v-1065q0 -250 -113 -360q-113 -107 -348 -107h-90v277q100 0 155 22q31 11 52 35q41 44 41 156v1065q0 259 120 364q114 103 342 103h88z" />
    <glyph glyph-name="uni2236" unicode="&#x2236;" horiz-adv-x="669" 
d="M336 797q-87 0 -146 59q-61 61 -61 145q0 85 61 146q58 61 146 61q86 0 145 -59q62 -62 62 -148q0 -83 -62 -145q-62 -59 -145 -59zM336 143q-87 0 -146 62q-61 61 -61 143q0 86 59 148q61 61 148 61t145 -61q62 -59 62 -148q0 -81 -62 -143t-145 -62z" />
    <glyph glyph-name="approxequal" unicode="&#x2248;" horiz-adv-x="1249" 
d="M971 1096l159 -150q-120 -205 -305 -205q-51 0 -112 25q-53 21 -105 53q-60 38 -96 53q-52 25 -88 25q-70 0 -145 -96l-158 149q117 203 303 203q58 0 125 -25q58 -20 106 -53q58 -36 93 -53q48 -25 77 -25q75 0 146 99zM825 242q-53 0 -112 24q-56 19 -105 53
q-82 48 -96 54q-50 24 -88 24q-72 0 -145 -98l-158 150q117 202 303 202q60 0 125 -24q55 -19 106 -54q59 -36 93 -51q46 -24 77 -24q74 0 146 96l159 -150q-120 -202 -305 -202z" />
    <glyph glyph-name="notequal" unicode="&#x2260;" horiz-adv-x="1208" 
d="M662 573h425v-276h-573l-162 -311l-188 100l112 211h-155v276h301l131 246h-432v275h573l156 292l190 -94l-106 -198h153v-275h-296z" />
    <glyph glyph-name="lessequal" unicode="&#x2264;" horiz-adv-x="1257" 
d="M1112 1341v-280l-647 -203v-6l647 -207v-283l-993 363v258zM119 264v-264h997v264h-997z" />
    <glyph glyph-name="greaterequal" unicode="&#x2265;" horiz-adv-x="1257" 
d="M791 850v4l-646 205v282l994 -358v-258l-994 -363v281zM141 264v-264h998v264h-998z" />
    <glyph glyph-name="filledbox" unicode="&#x25a0;" horiz-adv-x="1730" 
d="M1544 0h-1351v1356h1351v-1356z" />
    <glyph glyph-name="uni25A1" unicode="&#x25a1;" horiz-adv-x="1730" 
d="M1544 1356v-1356h-1351v1356h1351zM399 201h932v954h-932v-954z" />
    <glyph glyph-name="triagup" unicode="&#x25b2;" horiz-adv-x="1597" 
d="M803 1393l794 -1393h-1597z" />
    <glyph glyph-name="uni25B3" unicode="&#x25b3;" horiz-adv-x="1597" 
d="M1593 0h-1587l793 1384zM1235 203l-436 766l-439 -766h875z" />
    </font>
</defs>
</svg>
