<?xml version="1.0" standalone="no"?>
<!DOCTYPE svg PUBLIC "-//W3C//DTD SVG 1.1//EN" "http://www.w3.org/Graphics/SVG/1.1/DTD/svg11.dtd" >
<svg xmlns="http://www.w3.org/2000/svg">
<metadata>Generated by IcoMoon</metadata>
<defs>
<font id="icomoon" horiz-adv-x="1024">
<font-face units-per-em="1024" ascent="960" descent="-64" />
<missing-glyph horiz-adv-x="1024" />
<glyph unicode="&#x20;" horiz-adv-x="512" d="" />
<glyph unicode="&#xe900;" d="M645.159 646.193c0-173.305-140.493-313.807-313.807-313.807-173.305 0-313.807 140.502-313.807 313.807 0 173.315 140.502 313.807 313.807 313.807 173.315 0 313.807-140.493 313.807-313.807z" />
<glyph unicode="&#xe901;" d="M661.679 315.875h189.938c77.533 0 140.379 62.847 140.379 140.379 0 77.542-62.847 140.389-140.379 140.389-3.308 0-6.54-0.265-9.791-0.491 0.936 8.298 1.531 16.709 1.531 25.271 0 123.141-99.827 222.968-222.968 222.968-81.549 0-152.656-43.917-191.535-109.249-24.165 26.471-58.83 43.18-97.502 43.18-72.968 0-132.129-59.151-132.129-132.129 0-17.833 3.582-34.816 9.989-50.343-70.577-7.39-125.599-67.052-125.599-139.595 0-77.533 62.856-140.379 140.389-140.379h129.369z" />
<glyph unicode="&#xe902;" d="M851.617 299.355h-189.938c-9.12 0-16.52 7.39-16.52 16.52 0 9.12 7.4 16.51 16.52 16.51h189.938c68.3 0 123.869 55.57 123.869 123.869 0 68.309-55.57 123.879-123.869 123.879-2.486 0-4.905-0.189-7.324-0.369-4.952-0.274-10.339 1.465-13.741 4.999-3.402 3.553-5.699 8.373-5.141 13.25 0.964 8.449 1.427 16.094 1.427 23.409 0 113.833-92.616 206.448-206.448 206.448-73.346 0-139.642-37.821-177.341-101.169-2.675-4.489-7.315-7.466-12.513-7.986-5.255-0.643-10.348 1.427-13.883 5.292-21.916 24.023-53.018 37.793-85.301 37.793-63.744 0-115.609-51.865-115.609-115.609 0-15.178 2.939-29.996 8.732-44.040 1.985-4.81 1.588-10.282-1.077-14.752s-7.286-7.428-12.475-7.976c-63.158-6.615-110.789-59.567-110.789-123.17 0-68.3 55.56-123.869 123.869-123.869h129.379c9.12 0 16.51-7.39 16.51-16.51 0-9.129-7.39-16.52-16.51-16.52h-129.379c-86.52 0-156.908 70.388-156.908 156.899 0 73.696 50.504 136.098 120.372 152.627-3.157 12.144-4.754 24.638-4.754 37.311 0 81.965 66.683 148.649 148.639 148.649 34.561 0 68.035-12.248 94.525-34.126 44.72 62.261 117.499 100.186 194.512 100.186 132.044 0 239.478-107.434 239.478-239.478 0-2.788-0.057-5.595-0.17-8.468 82.768-4.224 148.819-72.893 148.819-156.7 0-86.511-70.388-156.899-156.899-156.899z" />
<glyph unicode="&#xe903;" d="M496.52 68.128h-363.357c-9.12 0-16.52 7.4-16.52 16.52v99.099c0 9.12 7.4 16.51 16.52 16.51s16.51-7.39 16.51-16.51v-82.589h330.327v429.426c0 9.12 7.39 16.51 16.52 16.51h165.159c9.12 0 16.51-7.39 16.51-16.51s-7.39-16.52-16.51-16.52h-148.649v-429.417c0-9.12-7.39-16.52-16.51-16.52z" />
<glyph unicode="&#xe904;" d="M430.451 183.746h-115.609c-9.12 0-16.52 7.39-16.52 16.51s7.4 16.52 16.52 16.52h99.090v175.696l-78.742 94.506c-5.84 7.003-4.895 17.417 2.107 23.258 7.022 5.85 17.427 4.905 23.267-2.117l82.579-99.090c2.476-2.977 3.827-6.71 3.827-10.575v-198.198c0-9.12-7.4-16.51-16.52-16.51z" />
<glyph unicode="&#xe905;" d="M958.966 183.746h-363.357c-9.12 0-16.51 7.39-16.51 16.51v165.159c0 9.129 7.39 16.52 16.51 16.52s16.52-7.39 16.52-16.52v-148.639h346.837c9.12 0 16.52-7.4 16.52-16.52s-7.4-16.51-16.52-16.51z" />
<glyph unicode="&#xe906;" d="M760.778 530.583c0-27.369-22.19-49.55-49.55-49.55-27.369 0-49.55 22.181-49.55 49.55 0 27.36 22.181 49.55 49.55 49.55 27.36 0 49.55-22.19 49.55-49.55z" />
<glyph unicode="&#xe907;" d="M711.228 464.514c-36.432 0-66.069 29.637-66.069 66.069 0 36.423 29.637 66.060 66.069 66.060 36.423 0 66.060-29.637 66.060-66.060 0-36.432-29.637-66.069-66.060-66.069zM711.228 563.613c-18.221 0-33.039-14.819-33.039-33.030 0-18.221 14.819-33.039 33.039-33.039 18.211 0 33.030 14.819 33.030 33.039 0 18.211-14.819 33.030-33.030 33.030z" />
<glyph unicode="&#xe908;" d="M364.391 530.583c0-27.369-22.19-49.55-49.55-49.55-27.369 0-49.55 22.181-49.55 49.55 0 27.36 22.181 49.55 49.55 49.55 27.36 0 49.55-22.19 49.55-49.55z" />
<glyph unicode="&#xe909;" d="M314.841 464.514c-36.432 0-66.069 29.637-66.069 66.069 0 36.423 29.637 66.060 66.069 66.060 36.423 0 66.060-29.637 66.060-66.060 0-36.432-29.637-66.069-66.060-66.069zM314.841 563.613c-18.221 0-33.039-14.819-33.039-33.030 0-18.221 14.819-33.039 33.039-33.039 18.211 0 33.030 14.819 33.030 33.039 0 18.211-14.819 33.030-33.030 33.030z" />
<glyph unicode="&#xe90a;" d="M645.159 414.965c0-27.36-22.181-49.55-49.55-49.55-27.36 0-49.55 22.19-49.55 49.55 0 27.369 22.19 49.55 49.55 49.55 27.369 0 49.55-22.181 49.55-49.55z" />
<glyph unicode="&#xe90b;" d="M595.61 348.905c-36.423 0-66.060 29.637-66.060 66.060 0 36.432 29.637 66.069 66.060 66.069 36.432 0 66.069-29.637 66.069-66.069 0-36.423-29.637-66.060-66.069-66.060zM595.61 448.004c-18.211 0-33.030-14.819-33.030-33.039 0-18.211 14.819-33.030 33.030-33.030 18.221 0 33.039 14.819 33.039 33.030 0 18.221-14.819 33.039-33.039 33.039z" />
<glyph unicode="&#xe90c;" d="M182.713 216.776c0-27.369-22.19-49.55-49.55-49.55-27.369 0-49.55 22.181-49.55 49.55 0 27.36 22.181 49.55 49.55 49.55 27.36 0 49.55-22.19 49.55-49.55z" />
<glyph unicode="&#xe90d;" d="M133.163 150.707c-36.432 0-66.069 29.637-66.069 66.069 0 36.423 29.637 66.060 66.069 66.060 36.423 0 66.060-29.637 66.060-66.060 0-36.432-29.637-66.069-66.060-66.069zM133.163 249.806c-18.221 0-33.030-14.819-33.030-33.030 0-18.221 14.809-33.030 33.030-33.030 18.211 0 33.030 14.809 33.030 33.030 0 18.211-14.819 33.030-33.030 33.030z" />
<glyph unicode="&#xe90e;" d="M942.456-14.452h-132.129c-5.935 0-11.407 3.175-14.346 8.326l-61.306 107.283h-139.066c-9.12 0-16.51 7.4-16.51 16.52s7.39 16.52 16.51 16.52h148.649c5.926 0 11.407-3.185 14.337-8.326l61.306-107.293h122.555c9.12 0 16.51-7.39 16.51-16.51s-7.39-16.52-16.51-16.52z" />
<glyph unicode="&#xe90f;" d="M727.738-14.452h-578.065c-9.12 0-16.51 7.4-16.51 16.52s7.39 16.51 16.51 16.51h578.065c9.12 0 16.52-7.39 16.52-16.51s-7.4-16.52-16.52-16.52z" />
<glyph unicode="&#xe910;" d="M661.679 2.068c0-27.369-22.181-49.55-49.55-49.55s-49.55 22.181-49.55 49.55c0 27.359 22.181 49.55 49.55 49.55s49.55-22.19 49.55-49.55z" />
<glyph unicode="&#xe911;" d="M612.129-64.001c-36.423 0-66.069 29.637-66.069 66.069 0 36.423 29.647 66.060 66.069 66.060s66.060-29.637 66.060-66.060c0-36.432-29.637-66.069-66.060-66.069zM612.129 35.098c-18.221 0-33.030-14.819-33.030-33.030 0-18.221 14.809-33.039 33.030-33.039s33.030 14.819 33.030 33.039c0 18.211-14.809 33.030-33.030 33.030z" />
<glyph unicode="&#xe912;" glyph-name="phone" d="M977.6 287.656l-64.851 64.851c-59.891 59.891-157.344 59.891-217.226 0l-16.297-16.297c-37.266-37.258-96.523-40.703-137.859-8.016-27.266 21.57-53.805 45.219-78.883 70.289-25.094 25.102-48.742 51.641-70.289 78.891h-0.008c-32.687 41.328-29.234 100.594 8.023 137.859l16.289 16.289c28.922 28.914 44.844 67.484 44.844 108.609s-15.922 79.703-44.836 108.617l-64.851 64.851c-43.812 43.812-97.508 56.93-155.281 37.937-42.070-13.836-85.476-45.312-122.203-88.625-31.711-37.406-53.687-77.859-59.25-108.922-25.586-79.789-18.172-177.359 21.5-282.367 39.797-105.336 108.781-208.969 199.508-299.695s194.359-159.711 299.703-199.508c64.117-24.227 125.461-36.422 181.679-36.422 35.844 0 69.617 4.961 100.68 14.922 31.062 5.57 71.516 27.539 108.922 59.25 43.32 36.727 74.789 80.133 88.625 122.203 18.992 57.773 5.875 111.469-37.937 155.281zM640.499 785.656c-16.211 3.328-32.086-7.102-35.43-23.328s7.102-32.086 23.328-35.43c40.117-8.266 76.633-27.945 105.594-56.906 28.539-28.531 48.094-64.469 56.555-103.922 3.023-14.078 15.461-23.711 29.297-23.711 2.086 0 4.203 0.219 6.32 0.672 16.195 3.477 26.508 19.422 23.031 35.617-10.891 50.781-36.062 97.039-72.789 133.765-37.273 37.273-84.273 62.601-135.906 73.242zM520.203 848.554c109.64 22.195 222.343-11.789 301.453-90.898 78.961-78.961 112.976-191.469 91-300.953-3.266-16.242 7.258-32.047 23.5-35.312 1.992-0.398 3.977-0.594 5.937-0.594 13.992 0 26.508 9.852 29.375 24.094 25.945 129.211-14.203 261.992-107.391 355.179-93.367 93.367-226.367 133.461-355.773 107.281-16.234-3.289-26.727-19.117-23.445-35.352 3.289-16.234 19.109-26.742 35.344-23.445z" />
<glyph unicode="&#xe913;" glyph-name="mail" d="M512 484.68l472.484 333.32h-944.969zM529.289 423.453c-5.18-3.656-11.234-5.484-17.289-5.484s-12.109 1.828-17.289 5.484l-494.711 349v-485.813c0-115.797 94.203-210 210-210h604c115.797 0 210 94.203 210 210v485.813z" />
<glyph unicode="&#xe914;" glyph-name="search" d="M990 27.6l-235.6 235.6c58.4 71.2 93.6 162.4 93.6 261.8 0 228-185 413-413 413-228.2 0-413-185-413-413s184.8-413 413-413c99.4 0 190.4 35 261.6 93.4l235.6-235.4c16-16 41.8-16 57.8 0 16 15.8 16 41.8 0 57.6zM435 194.2c-182.6 0-331 148.4-331 330.8s148.4 331 331 331c182.4 0 331-148.6 331-331s-148.6-330.8-331-330.8z" />
<glyph unicode="&#xe915;" glyph-name="back" d="M413.363 447.784l383.076 383.093c10.548 10.523 16.351 24.593 16.351 39.595 0 15.010-5.803 29.072-16.351 39.611l-33.567 33.551c-10.531 10.556-24.609 16.367-39.611 16.367s-29.063-5.811-39.603-16.367l-456.113-456.105c-10.581-10.573-16.376-24.701-16.334-39.72-0.042-15.085 5.744-29.196 16.334-39.778l455.688-455.663c10.54-10.556 24.601-16.367 39.611-16.367 15.002 0 29.063 5.811 39.611 16.367l33.559 33.551c21.837 21.837 21.837 57.386 0 79.214l-382.651 382.651z" />
<glyph unicode="&#xe916;" glyph-name="multimedia" d="M879.393 468.078l-707.064 487.631c-7.485 5.145-17.189 5.681-25.186 1.512-8.022-4.218-13.044-12.508-13.044-21.578v-975.261c0-9.070 5.023-17.384 13.044-21.602 3.56-1.853 7.461-2.779 11.337-2.779 4.852 0 9.679 1.463 13.849 4.316l707.064 487.631c6.607 4.559 10.533 12.044 10.533 20.066s-3.95 15.507-10.533 20.066zM182.861 6.804v882.392l639.747-441.208-639.747-441.184z" />
<glyph unicode="&#xe917;" glyph-name="global" d="M795.54 277.703h-46.087c-60.351 0-114.779-36.871-138.697-91.522-22.898 13.408-48.958 20.454-75.491 20.411h-46.087c-26.361-0.017-52.25-6.978-75.062-20.189-23.772 55.165-77.968 91.007-138.037 91.299h-46.087c-82.615-0.103-149.567-67.055-149.67-149.678v-105.555c-0.026-4.081 1.586-8.007 4.466-10.896 2.889-2.88 6.815-4.492 10.896-4.466h243.815v-55.748c-0.026-4.081 1.586-7.998 4.475-10.887s6.807-4.501 10.887-4.475h314.711c4.081-0.026 8.007 1.586 10.887 4.475 2.889 2.889 4.501 6.807 4.475 10.887v55.748h244.912c4.089-0.026 8.007 1.586 10.896 4.466 2.889 2.889 4.492 6.815 4.466 10.896v105.555c-0.094 82.623-67.047 149.576-149.67 149.678zM111.263 37.831v90.193c0.060 65.675 53.279 118.903 118.954 118.954h46.087c50.347-0.266 95.199-31.89 112.362-79.228-31.17-28.333-48.933-68.487-48.941-110.604v-19.1h-228.461zM654.426-33.056h-283.978v90.201c0.051 65.667 53.279 118.894 118.946 118.946h46.087c65.675-0.051 118.894-53.279 118.946-118.946zM914.486 37.831h-229.336v19.091c-0.026 42.006-17.703 82.066-48.718 110.39 17.402 47.475 62.46 79.143 113.022 79.443h46.087c65.675-0.051 118.894-53.279 118.946-118.946zM146.822 408.281c-0.077-54.411 40.943-100.086 95.036-105.847 54.102-5.761 103.823 30.253 115.199 83.455 13.999-25.024 31.102-48.178 50.922-68.907 10.107-49.318 53.365-84.835 103.703-85.152 50.347-0.317 94.042 34.651 104.784 83.832 19.897 20.686 37.145 43.755 51.35 68.693 11.273-48.255 54.248-82.417 103.806-82.512 43.163 0 82.049 26.069 98.448 66.001 16.408 39.923 7.081 85.795-23.618 116.151 14.102 38.826 21.303 79.829 21.294 121.14 0 195.534-159.108 354.865-354.873 354.865-195.756 0-354.865-159.331-354.865-354.865-0.086-41.089 7.047-81.869 21.072-120.489-20.712-20-32.362-47.578-32.259-76.365zM253.26 332.568c-41.817 0-75.714 33.896-75.714 75.714 0 41.809 33.896 75.714 75.714 75.714 41.809 0 75.714-33.905 75.714-75.714-0.66-42.357-34.016-75.714-75.714-75.714zM189.171 620.497c3.215 69.13 28.616 135.388 72.422 188.95 19.863-19.854 42.040-37.248 66.061-51.787-14.548-44.321-22.529-90.536-23.703-137.162zM355.086 742.735c44.458-21.775 92.97-34.033 142.426-35.988v-86.249h-162.615c0.96 41.492 7.758 82.64 20.189 122.237zM763.282 810.33c44.243-53.802 69.876-120.471 73.082-190.056h-114.779c-1.029 46.952-9.096 93.485-23.918 138.045 23.875 14.642 45.907 32.105 65.615 52.010zM512.874 473.236c43.026 0.146 85.641-8.358 125.315-25.015 7.458-3.078 14.702-6.584 21.723-10.099-11.127-27.132-25.812-52.67-43.669-75.928-11.042 48.204-53.802 82.469-103.258 82.735-49.456 0.257-92.585-33.553-104.132-81.637-17.565 23.103-32.019 48.41-43.018 75.268 7.030 3.515 14.488 7.030 21.732 9.876 39.726 16.459 82.315 24.895 125.306 24.801zM670.448 467.090c-6.798 3.292-13.605 6.584-20.626 9.438-38.654 16.228-79.914 25.366-121.8 26.995v86.249h162.615c-0.763-41.655-7.561-82.975-20.189-122.683zM690.86 620.497h-162.623v86.249c49.456 2.075 97.917 14.565 142.212 36.648 12.507-39.811 19.374-81.183 20.411-122.898zM528.237 737.471v186.318c58.817-32.259 104.029-84.929 131.676-151.427-40.926-20.823-85.804-32.713-131.676-34.891zM497.512 737.471c-45.889 2.1-90.827 13.845-131.89 34.453 27.647 66.498 72.859 119.383 131.89 151.865zM497.512 589.773v-86.249c-41.852-1.706-83.086-10.767-121.8-26.772-7.021-2.855-13.819-5.924-20.626-9.438-5.744 17.874-10.219 36.134-13.39 54.642-3.943 22.332-6.215 44.929-6.798 67.595h162.615zM512.437 262.555c-41.817 0-75.714 33.896-75.714 75.714s33.896 75.714 75.714 75.714c41.817 0 75.714-33.896 75.714-75.714-0.077-41.783-33.931-75.628-75.714-75.714zM847.336 408.281c0.223-20.154-7.69-39.537-21.937-53.785s-33.631-22.152-53.776-21.929c-41.817 0-75.714 33.896-75.714 75.714 0 41.809 33.896 75.714 75.714 75.714s75.714-33.905 75.714-75.714zM771.4 514.934c-22.015 0.026-43.489-6.798-61.449-19.528 6.961 31.067 10.862 62.752 11.633 94.582h114.779c-1.363-29.559-6.747-58.8-16.022-86.901-15.131 7.793-31.916 11.856-48.941 11.847zM742.656 833.15c-16.811-17.282-35.594-32.533-55.962-45.426-22.829 53.33-56.185 98.32-98.32 132.55 58.534-14.102 111.976-44.278 154.282-87.124zM437.384 920.274c-42.357-34.231-75.714-79.657-98.534-133.21-20.531 12.953-39.528 28.195-56.622 45.426 42.529 43.155 96.271 73.562 155.156 87.784zM189.171 589.773h114.779c0.583-24.518 3.078-48.95 7.467-73.082 1.312-7.458 2.846-14.925 4.604-22.383-32.319 23.609-75.191 27.004-110.827 8.778-9.267 28.024-14.659 57.197-16.022 86.687z" />
<glyph unicode="&#xe918;" glyph-name="idea" d="M324.267 72.533h-17.067v118.617c0.008 2.992-0.775 5.933-2.267 8.533l-117.767 203.942c-10.717 18.475-29.442 30.892-50.633 33.575v113.2c0 37.7-30.567 68.267-68.267 68.267s-68.267-30.567-68.267-68.267v-375.467c0-3.875 1.317-7.642 3.742-10.667l64.525-80.658v-11.075h-17.067c-9.425 0-17.067-7.642-17.067-17.067v-102.4c0-9.425 7.642-17.067 17.067-17.067h273.067c9.425 0 17.067 7.642 17.067 17.067v102.4c0 9.425-7.642 17.067-17.067 17.067zM98.658 100.267l-64.525 80.658v369.475c0 18.85 15.283 34.133 34.133 34.133s34.133-15.283 34.133-34.133v-117.842c-2.925-1.133-5.775-2.442-8.533-3.925-32.55-18.933-43.725-60.592-25.017-93.275l97.55-168.958 29.558 17.067-97.533 168.958c-9.35 16.283-3.842 37.058 12.342 46.575 3.433 2.008 7.208 3.35 11.142 3.958 0.558 0.092 1.142 0.208 1.708 0.342 1.442 0.258 2.917 0.367 4.383 0.325 12.225 0.092 23.533-6.442 29.575-17.067l115.492-199.967v-114.058h-170.667v17.067c0 3.875-1.317 7.642-3.742 10.667zM307.2-29.867h-238.933v68.267h238.933zM955.733 618.667c-37.7 0-68.267-30.567-68.267-68.267v-113.2c-21.183-2.692-39.9-15.108-50.617-33.575l-117.767-203.958c-1.492-2.6-2.275-5.542-2.267-8.533v-118.6h-17.083c-9.425 0-17.067-7.642-17.067-17.067v-102.4c0-9.425 7.642-17.067 17.067-17.067h273.067c9.425 0 17.067 7.642 17.067 17.067v102.4c0 9.425-7.642 17.067-17.067 17.067h-17.067v11.075l64.525 80.658c2.425 3.025 3.742 6.792 3.742 10.667v375.467c0 37.7-30.567 68.267-68.267 68.267zM955.733-29.867h-238.933v68.267h238.933zM989.867 180.925l-64.525-80.658c-2.425-3.025-3.742-6.792-3.742-10.667v-17.067h-170.667v114.058l115.492 199.967c6.042 10.625 17.358 17.15 29.575 17.067 1.475 0.033 2.95-0.075 4.4-0.342 0.55-0.133 1.133-0.25 1.708-0.342 3.858-0.583 7.567-1.892 10.942-3.842 16.3-9.458 21.908-30.308 12.542-46.675l-97.533-168.958 29.558-17.067 97.55 168.958c10.358 16.983 12.6 37.7 6.1 56.5-6.492 18.808-21.033 33.725-39.667 40.7v117.842c0 18.85 15.283 34.133 34.133 34.133s34.133-15.283 34.133-34.133zM733.867 635.733c0.1 108.925-78.883 201.808-186.408 219.208-107.525 17.408-211.775-45.808-246.050-149.192-34.275-103.392 11.567-216.367 108.192-266.642v-212.975c0-2.65 0.608-5.258 1.792-7.625l49.408-98.8v-64.242c0-28.275 22.925-51.2 51.2-51.2s51.2 22.925 51.2 51.2v64.242l49.492 98.8c1.15 2.375 1.733 4.983 1.708 7.625v212.975c73.35 38.158 119.392 113.942 119.467 196.625zM535.583 140.8h-47.167l-38.2 76.375 61.783 24.708 61.783-24.708zM443.733 550.4h136.533v-34.133h-136.533zM529.067 482.133h51.2v-21.092c-16.4-6.467-33.642-10.567-51.2-12.175zM580.267 584.533h-136.533v51.2c0 28.275 22.925 51.2 51.2 51.2h34.133c28.275 0 51.2-22.925 51.2-51.2zM443.733 482.133h51.2v-33.267c-17.558 1.608-34.8 5.708-51.2 12.175zM494.933 414.733v-142.917l-51.2-20.475v173.383c16.608-5.35 33.8-8.7 51.2-9.992zM529.067 55.467c0-9.425-7.642-17.067-17.067-17.067s-17.067 7.642-17.067 17.067v51.2h34.133zM580.267 251.342l-51.2 20.475v142.917c17.4 1.292 34.592 4.642 51.2 9.992zM614.4 478.583v157.15c-0.058 47.108-38.225 85.275-85.333 85.333h-34.133c-47.108-0.058-85.275-38.225-85.333-85.333v-157.15c-69.658 45.333-101.217 131.075-77.575 210.75 23.642 79.683 96.867 134.333 179.975 134.333s156.333-54.65 179.975-134.333c23.642-79.675-7.917-165.417-77.575-210.75zM494.933 960h34.133v-68.267h-34.133zM270.65 852.967l24.142 24.133 48.267-48.275-24.142-24.133zM187.733 652.8h68.267v-34.133h-68.267zM270.658 418.517l48.275 48.275 24.133-24.142-48.267-48.267zM680.95 442.65l24.133 24.133 48.275-48.275-24.142-24.133zM768 652.8h68.267v-34.133h-68.267zM680.95 828.833l48.267 48.267 24.142-24.133-48.275-48.275z" />
<glyph unicode="&#xe919;" glyph-name="woman" d="M432 576c0-8.837-7.163-16-16-16s-16 7.163-16 16c0 8.837 7.163 16 16 16s16-7.163 16-16zM624 576c0-8.837-7.163-16-16-16s-16 7.163-16 16c0 8.837 7.163 16 16 16s16-7.163 16-16zM512 416c-17.648 0-32 14.352-32 32h-32c0-35.296 28.704-64 64-64s64 28.704 64 64h-32c0-17.648-14.352-32-32-32zM812.72 190.4c41.552 33.008 64.080 71.744 65.168 73.664l8.384 14.688-15.12 7.568c-53.76 26.864-87.152 80.864-87.152 140.896l0.016 263.168c0 67.76-26.4 131.456-74.368 179.344-47.984 47.904-111.808 74.272-179.744 74.272h-4.16c-64.736 0-125.616-25.232-171.392-71.024l-27.408-27.408c-52.928-22.592-86.944-73.936-86.944-131.728v-286.512c0-60.112-33.392-114.144-87.152-141.008l-15.12-7.568 8.384-14.688c1.088-1.904 23.6-40.64 65.168-73.664-80.56-44.4-131.28-128.704-131.28-222.4v-16h864v16c0 93.696-50.72 178.016-131.28 222.4zM525.728 912h4.16c59.392 0 115.2-23.056 157.136-64.912 41.904-41.84 64.992-97.488 64.992-156.688l-0.016-263.184c0-66.192 33.728-126.288 89.136-160.752-11.024-15.28-32.048-40.608-61.392-60.544l-157.936 64.624c-18.112 7.408-29.808 24.848-29.808 44.432v11.488c78.736 54.416 128 144.624 128 243.936v100.096l-183.36 18.336c-82.256 8.208-152.64 62.448-182.048 139.136l22.384 22.384c39.728 39.76 92.56 61.648 148.752 61.648zM640 224c0-26.464-25.12-48-56-48-18.512 0-35.136 7.792-45.408 20.096 26.288 7.568 47.968 25.936 59.744 50.624 3.6-2.192 7.392-4.16 11.376-5.792l29.6-12.112c0.192-1.616 0.688-3.184 0.688-4.816zM384.688 228.816l29.6 12.112c4 1.632 7.776 3.6 11.376 5.792 11.776-24.688 33.456-43.056 59.744-50.624-10.272-12.304-26.896-20.096-45.408-20.096-30.88 0-56 21.536-56 48 0 1.632 0.496 3.2 0.688 4.816zM512 320.928c-105.504 37.52-176 137.088-176 249.456v32.912c0 27.504 13.856 52.736 37.056 67.488l44.528 28.336c33.872-23.040 73.504-37.92 115.856-42.144l154.56-15.456v-71.136c0-112.384-70.496-211.952-176-249.456zM506.944 288.816l5.056-1.68 5.056 1.68c15.152 5.056 29.68 11.232 43.504 18.432 1.28-13.312 5.632-25.856 12.784-36.624-7.664-27.296-32.384-46.624-61.344-46.624-28.976 0-53.696 19.328-61.36 46.624 7.168 10.768 11.52 23.312 12.784 36.624 13.824-7.184 28.368-13.376 43.52-18.432zM512 178.16c4.416-5.712 9.664-10.784 15.488-15.232l29.648-178.928h-90.272l29.648 178.928c5.824 4.448 11.072 9.504 15.488 15.232zM182.864 266.464c55.408 34.48 89.136 94.608 89.136 160.864v286.512c0 40.224 21.232 76.4 55.232 96.112 14.496-34.8 36.4-65.36 63.664-89.872l-35.008-22.272c-32.496-20.688-51.888-56.016-51.888-94.512v-32.912c0-99.296 49.264-189.52 128-243.936v-11.488c0-19.584-11.696-37.008-29.824-44.416l-157.936-64.608c-29.328 19.936-50.352 45.248-61.376 60.528zM250.144 173.776l102.352 41.872c4.608-40.208 42.080-71.648 87.504-71.648 7.376 0 14.48 1.088 21.392 2.672l-26.96-162.672h-162.432v96h-32v-96h-127.44c5.968 84.080 58.64 157.472 137.584 189.776zM784-16v96h-32v-96h-162.432l-26.96 162.672c6.912-1.584 14.016-2.672 21.392-2.672 45.424 0 82.896 31.44 87.504 71.632l102.352-41.872c78.944-32.288 131.616-105.68 137.584-189.76zM685.568 701.36l31.568 5.28c-1.968 11.76-4.992 23.44-8.976 34.688l-30.176-10.672c3.36-9.504 5.92-19.36 7.584-29.296zM664.464 760l27.696 16c-37.104 64.16-106.128 104-180.16 104v-32c62.64 0 121.056-33.728 152.464-88z" />
<glyph unicode="&#xe91a;" glyph-name="arrow" d="M997.33 471.604l-478.157 478.129c-6.825 6.835-14.695 10.267-23.59 10.267-8.884 0-16.743-3.432-23.582-10.267l-51.309-51.301c-6.839-6.839-10.253-14.695-10.253-23.6s3.414-16.761 10.253-23.6l403.248-403.238-403.245-403.248c-6.839-6.839-10.253-14.709-10.253-23.59 0-8.902 3.414-16.772 10.253-23.611l51.309-51.287c6.835-6.846 14.695-10.257 23.582-10.257 8.905 0 16.765 3.418 23.586 10.257l478.157 478.132c6.835 6.835 10.246 14.709 10.246 23.6s-3.411 16.761-10.246 23.615zM613.575 447.989c0 8.891-3.403 16.765-10.267 23.615l-478.125 478.129c-6.835 6.835-14.706 10.267-23.597 10.267s-16.765-3.432-23.6-10.267l-51.298-51.305c-6.85-6.839-10.264-14.695-10.264-23.6s3.414-16.761 10.264-23.6l403.238-403.238-403.238-403.245c-6.85-6.839-10.264-14.709-10.264-23.59 0-8.902 3.414-16.772 10.264-23.611l51.294-51.287c6.839-6.846 14.709-10.257 23.6-10.257s16.761 3.418 23.6 10.257l478.125 478.132c6.864 6.835 10.267 14.709 10.267 23.6z" />
<glyph unicode="&#xe91b;" glyph-name="magnifying-glass" d="M1001.239 70.148l-211.077 211.068c50.868 73.43 76.314 155.276 76.314 245.538 0 58.666-11.389 114.773-34.168 168.309-22.763 53.545-53.536 99.696-92.305 138.466s-84.914 69.542-138.448 92.308c-53.551 22.772-109.654 34.157-168.32 34.157-58.662 0-114.769-11.385-168.305-34.157-53.545-22.765-99.696-53.538-138.466-92.308-38.774-38.769-69.542-84.93-92.31-138.466-22.77-53.542-34.155-109.643-34.155-168.309 0-58.662 11.385-114.75 34.155-168.301 22.765-53.536 53.536-99.681 92.31-138.466 38.769-38.767 84.93-69.527 138.466-92.305 53.542-22.768 109.643-34.15 168.305-34.15 90.266 0 172.114 25.449 245.548 76.312l211.077-210.456c14.769-15.586 33.206-23.384 55.379-23.384 21.746 0 40.304 7.686 55.691 23.074 15.387 15.385 23.071 33.943 23.071 55.689s-7.583 40.201-22.763 55.381zM628.006 332.005c-53.948-53.956-118.866-80.933-194.771-80.933-75.892 0-140.811 26.984-194.763 80.933s-80.927 118.858-80.927 194.763c0 75.892 26.981 140.821 80.927 194.763 53.941 53.954 118.871 80.927 194.763 80.927 75.896 0 140.815-26.984 194.771-80.927 53.956-53.941 80.931-118.871 80.931-194.763 0-75.905-26.984-140.815-80.931-194.763zM610.481 566.147h-137.847v137.845c0 5.335-1.951 9.947-5.845 13.846-3.899 3.899-8.516 5.845-13.844 5.845h-39.386c-5.332 0-9.947-1.946-13.844-5.845-3.895-3.899-5.845-8.512-5.845-13.846v-137.845h-137.847c-5.332 0-9.947-1.951-13.844-5.845-3.899-3.899-5.845-8.512-5.845-13.846v-39.381c0-5.335 1.946-9.952 5.845-13.846 3.899-3.899 8.505-5.848 13.844-5.848h137.847v-137.847c0-5.341 1.951-9.949 5.845-13.853 3.899-3.888 8.512-5.835 13.844-5.835h39.384c5.33 0 9.947 1.946 13.844 5.835 3.895 3.903 5.845 8.512 5.845 13.853v137.847h137.847c5.341 0 9.941 1.951 13.853 5.848 3.888 3.895 5.826 8.512 5.826 13.846v39.381c0 5.335-1.938 9.947-5.826 13.846-3.895 3.895-8.512 5.845-13.851 5.845z" />
<glyph unicode="&#xe91c;" glyph-name="strategy" d="M465.8 162.868c3.328-3.328 7.698-5 12.066-5 4.37 0 8.738 1.672 12.066 5 6.674 6.672 6.674 17.46 0 24.132l-170.666 170.666c-6.674 6.672-17.46 6.672-24.132 0-6.672-6.674-6.672-17.46 0-24.132l170.666-170.666zM721.8 248.2l22.068-22.068-22.068-22.066c-6.674-6.674-6.674-17.46 0-24.132 3.328-3.328 7.698-5 12.066-5 4.37 0 8.738 1.672 12.066 5l22.068 22.066 22.068-22.068c3.328-3.328 7.698-5 12.066-5 4.37 0 8.738 1.672 12.066 5 6.674 6.672 6.674 17.46 0 24.132l-22.068 22.068 22.068 22.068c6.674 6.674 6.674 17.46 0 24.132-6.672 6.674-17.46 6.674-24.132 0l-22.068-22.066-22.068 22.068c-6.674 6.674-17.46 6.674-24.132 0s-6.672-17.46 0-24.134zM580.266 430.934c0-28.228 22.972-51.2 51.2-51.2s51.2 22.972 51.2 51.2-22.972 51.2-51.2 51.2-51.2-22.972-51.2-51.2zM648.534 430.934c0-9.404-7.662-17.066-17.066-17.066s-17.066 7.662-17.066 17.066c0 9.404 7.662 17.066 17.066 17.066s17.066-7.662 17.066-17.066zM643.55 681.932c-1.588 1.57-3.482 2.816-5.564 3.686-4.164 1.724-8.874 1.724-13.038 0-2.082-0.87-3.976-2.116-5.546-3.686l-68.266-68.266c-6.672-6.674-6.672-17.46 0-24.132 6.674-6.672 17.46-6.672 24.132 0l39.134 39.134v-95.334c0-9.42 7.646-17.066 17.066-17.066s17.066 7.646 17.066 17.066v95.334l39.134-39.134c3.328-3.328 7.698-5 12.066-5 4.37 0 8.738 1.672 12.066 5 6.674 6.674 6.674 17.46 0 24.132l-68.25 68.266zM256 482.134c-28.228 0-51.2-22.972-51.2-51.2s22.972-51.2 51.2-51.2 51.2 22.972 51.2 51.2-22.972 51.2-51.2 51.2zM256 413.866c-9.404 0-17.066 7.662-17.066 17.066s7.662 17.066 17.066 17.066c9.404 0 17.066-7.662 17.066-17.066 0-9.402-7.662-17.066-17.066-17.066zM278.068 623.668l22.068-22.068-22.068-22.068c-6.672-6.674-6.672-17.46 0-24.132 3.328-3.328 7.698-5 12.066-5 4.37 0 8.738 1.672 12.066 5l22.068 22.068 22.068-22.068c3.328-3.328 7.698-5 12.066-5 4.37 0 8.738 1.672 12.066 5 6.672 6.674 6.672 17.46 0 24.132l-22.070 22.068 22.068 22.068c6.672 6.674 6.672 17.46 0 24.132-6.674 6.674-17.46 6.674-24.132 0l-22.068-22.068-22.066 22.068c-6.674 6.674-17.46 6.674-24.132 0-6.674-6.674-6.674-17.46 0-24.132zM324.266 755.2h375.466c9.42 0 17.066 7.646 17.066 17.066v102.4c0 9.42-7.646 17.066-17.066 17.066h-91.17c-14.266 40.278-52.854 68.268-96.562 68.268s-82.296-27.99-96.564-68.266h-91.17c-9.42 0-17.066-7.646-17.066-17.066v-102.4c0-9.422 7.646-17.068 17.066-17.068zM341.334 857.6h87.058c8.106 0 15.104 5.718 16.726 13.67 6.434 31.642 34.56 54.596 66.884 54.596 32.342 0 60.468-22.954 66.884-54.596 1.622-7.954 8.618-13.67 16.726-13.67h87.058v-68.266h-341.336v68.266zM870.4 891.734h-102.4c-9.42 0-17.066-7.646-17.066-17.066s7.646-17.066 17.066-17.066h102.4c24.884 0 51.2-26.316 51.2-51.2v-785.066c0-24.884-26.316-51.2-51.2-51.2h-716.8c-24.884 0-51.2 26.316-51.2 51.2v785.064c0 24.884 26.316 51.2 51.2 51.2h102.4c9.42 0 17.066 7.646 17.066 17.066s-7.646 17.066-17.066 17.066h-102.4c-43.862 0-85.334-41.472-85.334-85.334v-785.066c0-43.86 41.472-85.332 85.334-85.332h716.8c43.862 0 85.334 41.472 85.334 85.334v785.066c0 43.862-41.472 85.334-85.334 85.334zM529.066 38.4c28.228 0 51.2 22.972 51.2 51.2s-22.972 51.2-51.2 51.2c-28.228 0-51.2-22.972-51.2-51.2s22.972-51.2 51.2-51.2zM529.066 106.666c9.404 0 17.066-7.662 17.066-17.066s-7.662-17.066-17.066-17.066c-9.404 0-17.066 7.662-17.066 17.066s7.664 17.066 17.066 17.066zM529.066 413.866c9.42 0 17.066 7.646 17.066 17.066s-7.646 17.066-17.066 17.066h-170.666c-9.42 0-17.066-7.646-17.066-17.066s7.646-17.066 17.066-17.066h170.666zM512 891.734c-18.824 0-34.134-15.308-34.134-34.134 0-18.824 15.308-34.134 34.134-34.134 18.824 0 34.134 15.308 34.134 34.134 0 18.824-15.31 34.134-34.134 34.134z" />
<glyph unicode="&#xe91d;" glyph-name="chart" d="M102.4 704h256c9.421 0 17.067 7.629 17.067 17.067s-7.646 17.067-17.067 17.067h-256c-9.421 0-17.067-7.629-17.067-17.067s7.646-17.067 17.067-17.067zM102.4 772.267h153.6c9.421 0 17.067 7.629 17.067 17.067s-7.646 17.067-17.067 17.067h-153.6c-9.421 0-17.067-7.629-17.067-17.067s7.646-17.067 17.067-17.067zM375.467 652.8c0 9.438-7.646 17.067-17.067 17.067h-256c-9.421 0-17.067-7.629-17.067-17.067s7.646-17.067 17.067-17.067h256c9.421 0 17.067 7.629 17.067 17.067zM1024 891.733h-494.933v51.2c0 9.438-7.646 17.067-17.067 17.067s-17.067-7.629-17.067-17.067v-51.2h-494.933v-716.8h470.801l-209.801-209.801c-6.673-6.673-6.673-17.459 0-24.132 3.328-3.328 7.697-5.001 12.066-5.001s8.738 1.673 12.066 5.001l209.801 209.801v-163.601c0-9.438 7.646-17.067 17.067-17.067s17.067 7.629 17.067 17.067v163.601l209.801-209.801c3.328-3.328 7.697-5.001 12.066-5.001s8.738 1.673 12.066 5.001c6.673 6.673 6.673 17.459 0 24.132l-209.801 209.801h470.801v716.8zM989.867 209.067h-955.733v648.533h955.733v-648.533zM478.191 421.257c-10.155 6.007-21.828 9.677-34.458 9.677-8.055 0-15.667-1.655-22.835-4.215l-32.58 32.563c2.56 7.185 4.215 14.797 4.215 22.852 0 37.649-30.618 68.267-68.267 68.267s-68.267-30.618-68.267-68.267c0-8.055 1.655-15.667 4.215-22.852l-32.58-32.563c-7.168 2.56-14.78 4.215-22.835 4.215-37.649 0-68.267-30.618-68.267-68.267s30.618-68.267 68.267-68.267 68.267 30.618 68.267 68.267c0 17.015-6.485 32.41-16.828 44.373l23.637 23.637c11.981-10.325 27.375-16.811 44.39-16.811s32.41 6.485 44.373 16.811l23.637-23.637c-10.325-11.964-16.811-27.358-16.811-44.373 0-37.649 30.618-68.267 68.267-68.267s68.267 30.618 68.267 68.267c0 12.629-3.669 24.303-9.677 34.458l118.903 118.886c11.964-10.325 27.358-16.811 44.373-16.811s32.41 6.485 44.373 16.811l74.854-74.837c-10.342-11.964-16.828-27.358-16.828-44.373 0-37.649 30.618-68.267 68.267-68.267s68.267 30.618 68.267 68.267-30.618 68.267-68.267 68.267c-8.055 0-15.667-1.655-22.835-4.215l-83.78 83.763c2.56 7.185 4.215 14.797 4.215 22.852 0 37.649-30.618 68.267-68.267 68.267s-68.267-30.618-68.267-68.267c0-8.055 1.655-15.667 4.215-22.852l-123.358-123.358zM204.8 328.533c-18.825 0-34.133 15.309-34.133 34.133s15.309 34.133 34.133 34.133 34.133-15.309 34.133-34.133-15.309-34.133-34.133-34.133zM324.267 448c-18.825 0-34.133 15.309-34.133 34.133s15.309 34.133 34.133 34.133 34.133-15.309 34.133-34.133-15.309-34.133-34.133-34.133zM443.733 328.533c-18.825 0-34.133 15.309-34.133 34.133s15.309 34.133 34.133 34.133 34.133-15.309 34.133-34.133-15.309-34.133-34.133-34.133zM870.4 396.8c0-18.825-15.309-34.133-34.133-34.133s-34.133 15.309-34.133 34.133 15.309 34.133 34.133 34.133 34.133-15.309 34.133-34.133zM665.6 601.6c18.825 0 34.133-15.309 34.133-34.133s-15.309-34.133-34.133-34.133-34.133 15.309-34.133 34.133 15.309 34.133 34.133 34.133z" />
<glyph unicode="&#xe91e;" glyph-name="shield" d="M958.877 960h-893.76c-35.901 0-65.117-29.216-65.117-65.117v-893.76c0-35.901 29.216-65.126 65.117-65.126h893.76c35.901 0 65.126 29.225 65.126 65.126v893.76c0 35.901-29.225 65.117-65.126 65.117zM65.117 919.041h893.76c13.545 0 24.159-10.623 24.159-24.159v-116.743h-942.077v116.743c0 13.536 10.623 24.159 24.159 24.159zM958.877-23.036h-893.76c-13.536 0-24.159 10.614-24.159 24.159v736.059h942.077v-736.059c0-13.545-10.614-24.159-24.159-24.159zM355.661 828.103h562.52c11.322 0 20.475 9.161 20.475 20.475 0 11.323-9.153 20.484-20.475 20.484h-562.52c-11.323 0-20.484-9.161-20.484-20.484 0-11.314 9.161-20.475 20.484-20.475zM105.884 828.12c2.66 0 5.32 0.604 7.779 1.636 2.459 1.024 4.716 2.441 6.554 4.305 3.885 3.876 6.142 8.995 6.142 14.542 0 5.32-2.257 10.64-6.142 14.534-4.716 4.699-11.673 6.965-18.436 5.521-1.216-0.201-2.66-0.621-3.876-1.216-1.242-0.42-2.266-1.024-3.5-1.846-1.024-0.814-2.047-1.636-3.062-2.459-3.903-3.894-5.941-9.214-5.941-14.534 0-5.547 2.039-10.666 5.941-14.542 3.876-3.701 8.995-5.941 14.542-5.941zM193.742 834.061c1.837-1.864 4.095-3.281 6.554-4.305 2.441-1.033 5.127-1.636 7.98-1.636 5.32 0 10.447 2.039 14.341 5.941 2.039 2.039 3.483 4.296 4.506 6.755 1.015 2.441 1.636 5.127 1.636 7.787s-0.621 5.32-1.636 7.779c-1.024 2.459-2.467 4.699-4.506 6.755-0.814 0.823-1.837 1.645-3.080 2.459-1.015 0.822-2.257 1.426-3.474 1.846-1.225 0.595-2.467 1.015-3.902 1.216-2.66 0.621-5.32 0.621-7.98 0-1.225-0.201-2.66-0.621-3.885-1.216-1.234-0.42-2.258-1.024-3.5-1.846-1.015-0.814-2.039-1.636-3.054-2.459-3.903-3.894-5.941-9.214-5.941-14.534 0-2.66 0.402-5.346 1.435-7.787 1.024-2.459 2.441-4.716 4.506-6.755zM754.442 496.556c-71.059 0-132.283 53.147-148.881 129.202-2.039 9.424-10.378 16.118-20.003 16.118h-133.28c-9.616 0-17.955-6.694-20.002-16.118-16.599-76.055-77.814-129.202-148.873-129.202-11.322 0-20.484-9.153-20.484-20.475 0-144.743 67.217-277.664 179.777-355.521l64.566-44.66c3.518-2.424 7.578-3.64 11.655-3.64s8.138 1.216 11.664 3.64l64.514 44.66c112.604 77.857 179.821 210.761 179.821 355.521 0 11.322-9.161 20.475-20.475 20.475zM571.804 154.239l-52.885-36.601-52.902 36.601c-96.539 66.78-156.074 178.841-161.7 302.557 76.265 8.741 140.385 64.925 163.844 144.121h101.517c23.459-79.196 87.579-135.38 163.844-144.121-5.618-123.734-65.179-235.795-161.718-302.557zM518.919 436.444c16.258 0 29.479-13.247 29.479-29.505 0-11.322 9.161-20.475 20.484-20.475s20.475 9.153 20.475 20.475c0 31.684-21.14 58.231-49.954 67.069v14.954c0 11.322-9.161 20.475-20.484 20.475s-20.475-9.153-20.475-20.475v-14.954c-28.814-8.837-49.962-35.385-49.962-67.069 0-38.841 31.596-70.437 70.437-70.437 16.258 0 29.479-13.143 29.479-29.304 0-16.257-13.221-29.496-29.479-29.496s-29.479 13.239-29.479 29.496c0 11.323-9.161 20.484-20.484 20.484-11.314 0-20.475-9.161-20.475-20.484 0-31.684 21.149-58.231 49.962-67.060v-14.954c0-11.322 9.153-20.484 20.475-20.484s20.484 9.161 20.484 20.484v14.954c28.814 8.829 49.954 35.376 49.954 67.060 0 38.745-31.596 70.263-70.438 70.263-16.257 0-29.479 13.221-29.479 29.479s13.221 29.505 29.479 29.505z" />
<glyph unicode="&#xe91f;" glyph-name="implement" d="M85.333-64h768c9.425 0 17.067 7.642 17.067 17.067v443.733h-34.133v-426.667h-750.933c-28.275 0-51.2 22.925-51.2 51.2s22.925 51.2 51.2 51.2h34.133c9.425 0 17.067 7.642 17.067 17.067v512h273.067v34.133h-273.067v119.467c0 9.425-7.642 17.067-17.067 17.067h-34.133c-47.108-0.058-85.275-38.225-85.333-85.333v-665.6c0.058-47.108 38.225-85.275 85.333-85.333zM34.133 618.667v68.267c0 28.275 22.925 51.2 51.2 51.2h17.067v-631.467h-17.067c-18.467 0.025-36.442-5.967-51.2-17.067zM392.533 550.4h-204.8c-9.425 0-17.067-7.642-17.067-17.067v-136.533c0-9.425 7.642-17.067 17.067-17.067h204.8c9.425 0 17.067 7.642 17.067 17.067v51.2h68.267v34.133h-68.267v51.2c0 9.425-7.642 17.067-17.067 17.067zM375.467 413.867h-170.667v102.4h170.667zM563.2 72.533h204.8c9.425 0 17.067 7.642 17.067 17.067v136.533c0 9.425-7.642 17.067-17.067 17.067h-85.333v102.4h-34.133v-102.4h-85.333c-9.425 0-17.067-7.642-17.067-17.067v-51.2h-136.533v51.2c0 9.425-7.642 17.067-17.067 17.067h-204.8c-9.425 0-17.067-7.642-17.067-17.067v-136.533c0-9.425 7.642-17.067 17.067-17.067h204.8c9.425 0 17.067 7.642 17.067 17.067v51.2h136.533v-51.2c0-9.425 7.642-17.067 17.067-17.067zM580.267 209.067h170.667v-102.4h-170.667zM375.467 106.667h-170.667v102.4h170.667zM733.867 823.467c-84.833 0-153.6-68.767-153.6-153.6s68.767-153.6 153.6-153.6 153.6 68.767 153.6 153.6c-0.092 84.792-68.808 153.508-153.6 153.6zM733.867 550.4c-65.983 0-119.467 53.483-119.467 119.467s53.483 119.467 119.467 119.467 119.467-53.483 119.467-119.467c-0.075-65.95-53.517-119.392-119.467-119.467zM1006.933 601.6c9.425 0 17.067 7.642 17.067 17.067v102.4c0 9.425-7.642 17.067-17.067 17.067h-62.175c-3.642 11.2-8.158 22.1-13.5 32.6l44.033 43.875c3.208 3.2 5.017 7.55 5.017 12.083s-1.808 8.883-5.017 12.083l-72.467 72.533c-3.2 3.2-7.542 5-12.067 5-4.525-0.008-8.867-1.808-12.067-5.017l-43.958-44.033c-10.5 5.342-21.4 9.85-32.6 13.5v62.175c0 9.425-7.642 17.067-17.067 17.067h-102.4c-9.425 0-17.067-7.642-17.067-17.067v-62.175c-11.2-3.65-22.1-8.158-32.6-13.5l-43.892 44.033c-3.2 3.208-7.542 5.008-12.067 5.017-4.525 0-8.867-1.8-12.067-5l-72.55-72.483c-3.208-3.2-5.017-7.55-5.017-12.083s1.808-8.883 5.017-12.083l44.033-43.875c-5.342-10.517-9.85-21.433-13.483-32.65h-62.175c-9.425 0-17.067-7.642-17.067-17.067v-102.4c0-9.425 7.642-17.067 17.067-17.067h62.175c3.642-11.2 8.158-22.1 13.5-32.6l-44.033-43.875c-3.217-3.2-5.025-7.558-5.025-12.092 0-4.542 1.808-8.892 5.025-12.092l72.467-72.35c6.667-6.658 17.467-6.658 24.133 0l43.892 43.883c10.525-5.342 21.45-9.85 32.667-13.5v-62.175c0-9.425 7.642-17.067 17.067-17.067h102.4c9.425 0 17.067 7.642 17.067 17.067v62.175c11.208 3.65 22.108 8.158 32.617 13.5l43.892-43.883c6.667-6.65 17.45-6.65 24.117 0l72.533 72.367c3.217 3.2 5.025 7.55 5.025 12.092s-1.808 8.892-5.025 12.092l-44.033 43.875c5.342 10.492 9.858 21.392 13.5 32.583zM915.525 623.017c-4.492-16.992-11.25-33.3-20.108-48.483-3.908-6.708-2.8-15.208 2.7-20.683l40.958-40.825-48.35-48.25-40.808 40.858c-5.475 5.483-13.967 6.583-20.667 2.683-15.175-8.858-31.492-15.617-48.483-20.092-7.517-1.958-12.758-8.742-12.767-16.5v-57.858h-68.267v57.858c0 7.75-5.225 14.525-12.717 16.5-16.992 4.475-33.308 11.233-48.483 20.092-6.7 3.9-15.192 2.8-20.667-2.683l-40.842-40.842-48.35 48.233 40.958 40.825c5.5 5.475 6.608 13.975 2.7 20.683-8.858 15.183-15.617 31.492-20.108 48.483-1.975 7.492-8.75 12.717-16.5 12.717h-57.858v68.267h57.858c7.742 0.008 14.508 5.225 16.483 12.717 4.492 16.992 11.25 33.3 20.108 48.483 3.908 6.708 2.8 15.208-2.7 20.683l-40.958 40.842 48.367 48.367 40.842-40.958c5.475-5.5 13.975-6.608 20.683-2.7 15.175 8.858 31.492 15.617 48.483 20.092 7.483 1.983 12.692 8.75 12.7 16.483v57.858h68.267v-57.858c0-7.75 5.225-14.525 12.717-16.5 16.992-4.475 33.308-11.233 48.483-20.092 6.717-3.925 15.233-2.817 20.717 2.7l40.842 40.958 48.367-48.367-40.958-40.842c-5.5-5.475-6.608-13.975-2.692-20.683 8.85-15.183 15.608-31.492 20.1-48.483 1.975-7.467 8.717-12.675 16.433-12.7h57.858v-68.267h-57.858c-7.742-0.008-14.508-5.225-16.483-12.717zM733.867 738.133c-37.7 0-68.267-30.567-68.267-68.267s30.567-68.267 68.267-68.267 68.267 30.567 68.267 68.267-30.567 68.267-68.267 68.267zM733.867 635.733c-18.85 0-34.133 15.283-34.133 34.133s15.283 34.133 34.133 34.133 34.133-15.283 34.133-34.133-15.283-34.133-34.133-34.133z" />
<glyph unicode="&#xe920;" glyph-name="share" d="M811.375 302.14c-58.897 0-111.415-28.066-145.010-71.442l-281.302 157.13c6.591 18.924 10.206 39.336 10.206 60.385 0 21.262-3.615 41.462-10.419 60.598l281.090 156.917c33.382-43.588 86.113-71.867 145.223-71.867 100.784 0 183.070 82.073 183.070 183.070s-82.073 183.070-183.070 183.070-183.070-82.073-183.070-183.070c0-21.262 3.615-41.674 10.419-60.598l-280.877-156.917c-33.382 43.801-86.113 71.867-145.223 71.867-100.784 0-183.070-82.073-183.070-183.070s82.286-183.070 183.282-183.070c59.11 0 111.841 28.279 145.435 72.080l281.090-157.13c-6.804-19.136-10.631-39.761-10.631-61.023 0-100.784 82.073-183.070 183.070-183.070s183.070 82.073 183.070 183.070-82.286 183.070-183.282 183.070zM811.375 902.379c69.316 0 125.661-56.346 125.661-125.661s-56.346-125.661-125.661-125.661-125.661 56.346-125.661 125.661 56.558 125.661 125.661 125.661zM212.625 322.551c-69.316 0-125.661 56.346-125.661 125.661s56.346 125.661 125.661 125.661 125.661-56.346 125.661-125.661-56.558-125.661-125.661-125.661zM811.375-6.379c-69.316 0-125.661 56.346-125.661 125.661s56.346 125.661 125.661 125.661 125.661-56.346 125.661-125.661c0-69.316-56.346-125.661-125.661-125.661z" />
<glyph unicode="&#xe921;" glyph-name="star" d="M512 187.733l315.733-230.4-119.467 375.467 315.733 221.867h-384l-128 384-128-384h-384l315.733-221.867-119.467-375.467z" />
<glyph unicode="&#xe922;" glyph-name="folder" d="M1015.951 431.387c-7.852 16.447-19.855 29.054-35.928 37.802-16.094 8.765-33.794 13.142-53.103 13.142h-102.994v85.829c0 32.9-11.805 61.151-35.402 84.755-23.609 23.602-51.863 35.4-84.755 35.4h-291.807v17.165c0 32.9-11.805 61.151-35.4 84.747-23.605 23.602-51.855 35.408-84.755 35.408h-171.651c-32.9 0-61.151-11.805-84.755-35.408-23.602-23.598-35.4-51.849-35.4-84.749v-514.958c0-32.894 11.799-61.146 35.4-84.742 23.603-23.607 51.855-35.414 84.755-35.414h583.625c23.951 0 48.98 6.172 75.098 18.516 26.106 12.331 46.835 27.983 62.213 46.934l158.246 194.716c16.447 20.736 24.663 42.185 24.663 64.368 0.008 12.877-2.675 25.024-8.049 36.488zM68.665 705.471c0 14.3 5.003 26.461 15.017 36.475 10.007 10.008 22.168 15.017 36.475 15.017h171.657c14.307 0 26.461-5.003 36.475-15.017 10.008-10.014 15.017-22.176 15.017-36.475v-34.333c0-14.309 5.011-26.467 15.019-36.475s22.166-15.019 36.471-15.019h308.973c14.3 0 26.47-5.009 36.483-15.017 10.003-10.007 15.012-22.168 15.012-36.475v-85.828h-411.96c-24.314 0-49.354-6.17-75.102-18.508-25.751-12.338-46.489-27.981-62.226-46.944l-137.313-168.963v457.563zM945.688 373.968l-157.705-194.714c-8.93-11.083-21.629-20.56-38.087-28.417-16.447-7.87-31.825-11.805-46.127-11.805h-583.614c-18.953 0-28.428 6.262-28.428 18.773 0 5.723 3.218 12.874 9.657 21.469l157.703 194.706c9.298 11.091 22.076 20.471 38.352 28.161 16.267 7.69 31.556 11.536 45.864 11.536h583.615c18.953 0 28.424-6.262 28.424-18.775 0.002-6.097-3.205-13.065-9.655-20.936z" />
<glyph unicode="&#xe923;" glyph-name="blog" d="M510 556c22.094 0 40-17.906 40-40s-17.906-40-40-40-40 17.906-40 40 17.906 40 40 40zM650 516c0-22.094 17.906-40 40-40s40 17.906 40 40-17.906 40-40 40-40-17.906-40-40zM290 516c0-22.094 17.906-40 40-40s40 17.906 40 40-17.906 40-40 40-40-17.906-40-40zM988.828 140.875c46.813-46.813 46.813-122.938 0.023-169.727-23.391-23.391-54.125-35.094-84.852-35.094s-61.461 11.703-84.852 35.094l-219.578 219.086c-4.664 4.656-8.102 10.383-10.016 16.695l-47.828 157.445c-4.242 13.961-0.547 29.117 9.641 39.563 10.188 10.438 25.25 14.5 39.313 10.609l161.445-44.719c6.648-1.844 12.703-5.367 17.586-10.242zM663.18 239.781l148.18-147.852 56.578 56.578-147.305 147.023-81.219 22.5zM932.281 84.281l-7.719 7.711-56.57-56.57 7.695-7.672c15.625-15.633 41-15.633 56.594-0.031 15.602 15.594 15.602 40.969 0 56.563zM534.25 131.094c-7.391-0.32-14.875-0.484-22.25-0.484-64.32 0-126.242 11.977-184.039 35.594-9.844 4.016-20.891 3.953-30.688-0.18l-182.133-76.883 61.367 145.367c6 14.211 3.289 30.617-6.977 42.148-58.57 65.797-89.531 144.523-89.531 227.648 0 207.156 193.797 375.695 432 375.695s432-168.539 432-375.695c0-49.125-12.063-98.445-35.859-146.578-9.789-19.805-1.672-43.797 18.133-53.586s43.797-1.672 53.586 18.133c29.289 59.258 44.141 120.5 44.141 182.031 0 251.273-229.68 455.695-512 455.695-282.313 0-512-204.422-512-455.695 0-94.844 32.156-184.664 93.273-261.266l-90.125-213.484c-6.328-14.992-2.938-32.328 8.57-43.836 7.656-7.656 17.883-11.719 28.289-11.719 5.242 0 10.531 1.031 15.547 3.148l257.859 108.852c62.891-23.492 129.617-35.391 198.586-35.391 8.531 0 17.195 0.195 25.75 0.563 22.070 0.969 39.18 19.641 38.211 41.711-0.961 22.070-19.672 39.234-41.711 38.211z" />
<glyph unicode="&#xe924;" glyph-name="angle" d="M83.314 313.714c-21.328 0-42.59 8.131-58.92 24.328-32.559 32.626-32.559 85.347 0 117.806l487.589 487.556 487.556-487.522c32.593-32.493 32.593-85.281 0-117.806s-85.314-32.626-117.773 0l-369.782 369.716-369.782-369.716c-16.196-16.196-37.558-24.361-58.887-24.361zM999.572-22.976c32.626 32.559 32.626 85.281 0 117.74l-487.556 487.622-487.556-487.556c-32.593-32.559-32.593-85.347 0-117.806 32.593-32.559 85.314-32.559 117.806 0l369.716 369.782 369.782-369.782c16.23-16.263 37.625-24.394 58.953-24.394 21.362-0.033 42.59 8.131 58.853 24.394z" />
<glyph unicode="&#xe925;" glyph-name="fast" d="M55.378 598h117.6v-60h-117.6v60zM55.378 358h117.6v-60h-117.6v60zM0 478h172.98v-60h-172.98v60zM628.49 843.51c-218.434 0-395.51-177.076-395.51-395.51s177.076-395.51 395.51-395.51 395.51 177.076 395.51 395.51-177.076 395.51-395.51 395.51zM753.218 285.568l-166.23 113.282v242.72h60v-211l140.020-95.418-33.79-49.584z" />
<glyph unicode="&#xe926;" glyph-name="consult" d="M603.429 601.232c-22.241 8.875-42.071 22.857-57.911 40.813-39.187-20.527-81.42-34.616-125.071-41.723l0.125-60.893c0-50.491 40.937-91.429 91.429-91.429s91.429 40.937 91.429 91.429zM512 722.286c-52.116-0.063-97.027-36.723-107.518-87.768 47.545 8.795 111.179 25.875 131.161 45.857 3.429 3.42 8.080 5.339 12.929 5.339 0.607 0.036 1.223 0.036 1.83 0 5.446-0.545 10.366-3.491 13.402-8.045 13.946-19.634 33.357-34.75 55.804-43.464-10.375 51.205-55.357 88.027-107.607 88.080zM621.714 246.857c-1.009-0.009-2.018 0.080-3.018 0.259l-88.411 14.732v-142.991h109.714v128h36.571v-128h54.857v128c-0.071 62.393-45.125 115.652-106.643 126.063l15.036-105.179c0.75-5.25-0.813-10.571-4.286-14.58-3.473-4-8.518-6.304-13.821-6.304zM54.857 9.143h914.286v-73.143h-914.286zM0 82.286h1024v-36.571h-1024zM292.571 118.857h54.857v128h36.571v-128h109.714v142.991l-88.411-14.732c-1-0.179-2.009-0.268-3.018-0.259-5.304 0-10.348 2.304-13.821 6.304-3.473 4.009-5.036 9.33-4.286 14.58l15.036 105.179c-61.518-10.411-106.571-63.67-106.643-126.063zM423.92 287.286l53.616 8.946-44.679 53.607zM512 311.991l52.393 62.866h-104.786zM546.464 296.232l53.616-8.946-8.937 62.554zM773.357 808.357c3.429 3.429 8.080 5.357 12.929 5.357h237.714v146.286h-438.857v-146.286h128c10.098 0 18.286-8.187 18.286-18.286v-29zM877.714 905.143h73.143v-36.571h-73.143zM768 905.143h73.143v-36.571h-73.143zM658.286 868.571v36.571h73.143v-36.571zM214.071 698.643l41.929-41.929v230.143h-256v-182.857h201.143c4.848 0 9.5-1.929 12.929-5.357zM36.571 850.286h182.857v-36.571h-182.857zM36.571 777.143h182.857v-36.571h-182.857z" />
<glyph unicode="&#xe927;" glyph-name="vision" d="M880 602.672l-32-42.672v16c0 74.608-46.736 138.352-112.4 163.92 29.2 20.24 48.4 53.952 48.4 92.080 0 61.744-50.256 112-112 112s-112-50.256-112-112c0-38.080 19.136-71.728 48.272-91.984-18.16-7.056-35.056-17.2-50.16-30.064-14.096 6.4-29.664 10.048-46.112 10.048s-32.016-3.648-46.096-10.048c-15.104 12.864-32 23.008-50.16 30.064 29.12 20.256 48.256 53.904 48.256 91.984 0 61.744-50.256 112-112 112s-112-50.256-112-112c0-38.128 19.2-71.84 48.4-92.080-65.664-25.568-112.4-89.312-112.4-163.92v-17.040l-32.784 43.712-128-170.672h64v-352h32v384h-32l64 85.328 64-85.328h-32v-448h32v68.912c77.392-84.752 185.84-132.912 301.696-132.912h6.192c115.456 0 223.552 47.856 300.896 132.096v-68.096h32v448h-32l64 85.328 64-85.328h-32v-384h32v352h64zM816 432v-228.096c-36.608 39.856-80.080 71.552-128 93.872v54.224c0 59.52-29.776 112.128-75.12 144h187.12l-48-64zM512-16c-88.224 0-160 71.776-160 160s71.776 160 160 160 160-71.776 160-160-71.776-160-160-160zM576 432v-100.64c-20 2.976-40.32 4.64-60.912 4.64h-6.192c-20.576 0-40.896-1.664-60.896-4.64v100.64h-32v-106.592c-16.336-3.776-32.352-8.64-48-14.352v40.944c0 79.408 64.592 144 144 144s144-64.592 144-144v-40.944c-15.648 5.728-31.664 10.576-48 14.352v106.592zM592 832c0 44.112 35.888 80 80 80s80-35.888 80-80-35.888-80-80-80-80 35.888-80 80zM672 720c79.408 0 144-64.592 144-144v-48h-48v128h-32v-128h-145.776c20.816 20.352 33.776 48.672 33.776 80 0 33.232-14.64 63.040-37.696 83.568 24.688 18.352 54.448 28.432 85.696 28.432zM592 608c0-44.112-35.888-80-80-80s-80 35.888-80 80 35.888 80 80 80 80-35.888 80-80zM272 832c0 44.112 35.888 80 80 80s80-35.888 80-80-35.888-80-80-80-80 35.888-80 80zM352 720c31.248 0 60.992-10.080 85.696-28.432-23.072-20.544-37.696-50.336-37.696-83.568 0-31.328 12.96-59.648 33.776-80h-145.776v128h-32v-128h-48v48c0 79.408 64.592 144 144 144zM207.216 432h64l-48 64h187.904c-45.344-31.872-75.12-84.48-75.12-144v-54.208c-48.256-22.496-92.016-54.448-128.784-94.72zM214.496 125.488c-4.176 5.248-6.496 11.824-6.496 18.512s2.32 13.264 6.496 18.496c43.264 54.096 99.392 94.192 162.288 117.648-35.040-34.8-56.784-82.976-56.784-136.144 0-53.184 21.744-101.344 56.784-136.16-62.88 23.472-119.008 63.552-162.288 117.648zM809.504 125.504c-43.264-54.096-99.392-94.192-162.288-117.648 35.040 34.8 56.784 82.976 56.784 136.144 0 53.184-21.744 101.344-56.784 136.16 62.896-23.456 119.024-63.552 162.288-117.632 4.176-5.264 6.496-11.84 6.496-18.528s-2.32-13.264-6.496-18.496zM912 48h32v-32h-32zM912-16h32v-32h-32zM79.216 48h32v-32h-32zM79.216-16h32v-32h-32zM512 272c-70.576 0-128-57.424-128-128s57.424-128 128-128 128 57.424 128 128-57.424 128-128 128zM512 48c-52.944 0-96 43.056-96 96s43.056 96 96 96 96-43.056 96-96-43.056-96-96-96zM512 208c-35.296 0-64-28.704-64-64s28.704-64 64-64 64 28.704 64 64-28.704 64-64 64zM512 112c-17.648 0-32 14.352-32 32s14.352 32 32 32 32-14.352 32-32-14.352-32-32-32z" />
<glyph unicode="&#xe928;" glyph-name="success" d="M1007.484 332.387c9.113 0 16.516 7.403 16.516 16.516v231.226c0 45.532-37.048 82.581-82.581 82.581h-396.387c-9.113 0-16.516-7.403-16.516-16.516v-66.065c0-9.113 7.403-16.516 16.516-16.516h231.226v-132.129h-99.097c-27.315 0-49.548-22.234-49.548-49.548v-247.742h-231.226v49.548c0 9.113-7.403 16.516-16.516 16.516h-181.677v396.387h280.774c9.113 0 16.516 7.403 16.516 16.516v99.097h148.645c6.411 0 12.242 3.718 14.96 9.516 2.726 5.815 1.839 12.661-2.274 17.573l-73.766 88.524 73.766 88.524c4.113 4.927 4.984 11.782 2.274 17.573-2.718 5.798-8.548 9.516-14.96 9.516h-297.29c-9.113 0-16.516-7.403-16.516-16.516v-99.097h-132.129v22.823c10.161 11.629 16.516 26.645 16.516 43.242 0 36.435-29.629 66.065-66.065 66.065s-66.065-29.629-66.065-66.065c0-16.597 6.355-31.613 16.516-43.242v-650.435h-82.581c-9.113 0-16.516-7.403-16.516-16.516v-231.226c0-9.113 7.403-16.516 16.516-16.516h990.968c9.113 0 16.516 7.403 16.516 16.516v99.097c0 9.113-7.403 16.516-16.516 16.516h-49.548v264.258zM548.863 838.444c-5.105-6.129-5.105-15.032 0-21.145l60.008-72.008h-113.387v66.065c0 4.952-2.298 9.266-5.75 12.29l0.121 0.129-99.065 86.677h218.056zM363.355 890.565l71.661-62.694h-71.661zM462.452 794.839v-165.161h-264.258v33.032h99.097v33.032h-99.097v33.032h99.097v33.032h-99.097v33.032zM148.645 926.968c18.218 0 33.032-14.815 33.032-33.032s-14.815-33.032-33.032-33.032-33.032 14.815-33.032 33.032 14.815 33.032 33.032 33.032zM132.129 830.218c5.315-1.387 10.782-2.347 16.516-2.347s11.202 0.96 16.516 2.347v-629.96h-33.032zM990.968-30.968h-957.935v198.194h330.323v-49.548c0-9.113 7.403-16.516 16.516-16.516h346.839v-49.548c0-9.113 7.403-16.516 16.516-16.516h247.742zM858.839 68.129h-99.097v49.548c0 9.113-7.403 16.516-16.516 16.516h-16.516v198.194h132.129zM891.871 68.129v280.774c0 9.113-7.403 16.516-16.516 16.516h-165.161c-9.113 0-16.516-7.403-16.516-16.516v-214.71h-33.032v247.742c0 9.097 7.419 16.516 16.516 16.516h115.613c9.113 0 16.516 7.403 16.516 16.516v165.161c0 9.113-7.403 16.516-16.516 16.516h-231.226v33.032h379.871c27.315 0 49.548-22.234 49.548-49.548v-214.71h-33.032v165.161h-33.032v-462.452zM858.839 695.742c45.532 0 82.581 37.048 82.581 82.581v33.032c0 45.532-37.048 82.581-82.581 82.581s-82.581-37.048-82.581-82.581v-33.032c0-45.532 37.048-82.581 82.581-82.581zM809.29 811.355c0 27.315 22.234 49.548 49.548 49.548s49.548-22.234 49.548-49.548v-33.032c0-27.315-22.234-49.548-49.548-49.548s-49.548 22.234-49.548 49.548z" />
<glyph unicode="&#xe929;" glyph-name="hr" d="M512 693.516l121.589 101.323h159.185v165.161h-396.387v-165.161h115.613zM429.419 827.871v99.097h330.323v-99.097h-138.105l-76.605-63.839v63.839zM462.452 893.935h33.032v-33.032h-33.032zM528.516 893.935h132.129v-33.032h-132.129zM693.677 893.935h33.032v-33.032h-33.032zM840.75-30.968l-13.355 133.702c55.145 8.718 97.508 56.468 97.508 114.040v214.71h-66.065v22.823c0 22.452-12.339 42.613-32.177 52.952 19.726 18.121 32.177 44.032 32.177 72.871v33.032c0 54.653-44.444 99.097-99.097 99.097s-99.097-44.444-99.097-99.097v-33.032c0-42.758 27.266-79.161 65.29-93.032l-88.645-88.645h-92.621c-1.847 27.532-20.758 51.532-47.548 59.194l-67.702 19.323v29.5c20.218 18.153 33.032 44.395 33.032 73.661v33.032c0 54.653-44.444 99.097-99.097 99.097s-99.097-44.444-99.097-99.097v-33.032c0-29.25 12.815-55.492 33.032-73.661v-29.516l-67.702-19.323c-28.21-8.040-47.911-34.169-47.911-63.524v-61.718h-66.065v-99.097h33.032v-264.258h-148.645v-33.032h1024v33.032zM693.677 233.29v75.742l117.032 117.032c8.46 8.46 13.492 19.823 14.621 31.677 0.145-1.153 0.476-2.242 0.476-3.435v-204.5c0-27.315-22.234-49.548-49.548-49.548h-132.129v33.032zM644.129 101.161h84.153l13.21-132.129h-97.363zM761.476 101.161h32.871l13.21-132.129h-32.871zM858.839 249.806v148.645h33.032v-181.677c0-45.532-37.048-82.581-82.581-82.581h-165.161v33.032h132.129c45.532 0 82.581 37.048 82.581 82.581zM693.677 580.129v33.032c0 36.435 29.629 66.065 66.065 66.065s66.065-29.629 66.065-66.065v-33.032c0-36.435-29.629-66.065-66.065-66.065s-66.065 29.629-66.065 66.065zM650.968 365.419l110.194 110.194c3.452 3.452 8.226 5.419 13.097 5.419 10.21 0 18.516-8.306 18.516-18.516 0-4.871-1.968-9.645-5.419-13.097l-117.032-117.032h-174.839c-9.113 0-16.516 7.403-16.516 16.516s7.403 16.516 16.516 16.516zM297.29 613.161c0 36.435 29.629 66.065 66.065 66.065s66.065-29.629 66.065-66.065v-33.032c0-36.435-29.629-66.065-66.065-66.065s-66.065 29.629-66.065 66.065zM363.355 481.032c11.597 0 22.677 2.113 33.032 5.782v-17.742c-4.097-6.323-15.476-21.073-33.032-21.073s-28.935 14.75-33.032 21.073v17.742c10.355-3.669 21.435-5.782 33.032-5.782zM214.71 394.105c0 14.685 9.863 27.734 23.952 31.766l68.040 19.435c9.581-12.484 28.226-30.339 56.653-30.339s47.073 17.855 56.653 30.355l68.040-19.435c12.653-3.621 21.476-14.621 23.242-27.419h-15.806c-27.315 0-49.548-22.234-49.548-49.548 0-5.815 1.185-11.331 3.040-16.516h-234.266zM148.645 299.355h512v-33.032h-512zM181.677 167.226h49.548v33.032h-49.548v33.032h429.419v-33.032h-346.839v-33.032h346.839v-198.194h-39.339l-33.032 66.065h-284.677l-33.032-66.065h-39.339zM534.823-30.968h-276.871l16.516 33.032h243.839z" />
<glyph unicode="&#xe92a;" glyph-name="cost" d="M819.2 362.667v238.933c0.242 112.267-83.642 206.908-195.125 220.158l56.883 113.55c2.65 5.3 2.358 11.6-0.775 16.642-3.133 5.033-8.65 8.083-14.583 8.050h-307.2c-5.917 0-11.408-3.058-14.525-8.092-3.108-5.025-3.392-11.308-0.75-16.6l56.817-113.55c-111.3-13.6-195-108.033-195.142-220.158v-307.2h34.133v307.2c0.125 103.633 84.1 187.608 187.733 187.733h170.667c49.808 0.075 97.608-19.683 132.825-54.908 35.225-35.217 54.983-83.017 54.908-132.825v-238.933zM586.783 823.467h-149.567l-51.2 102.4h251.967zM366.933 705.042c9.342 5.425 19.383 9.55 29.85 12.25l-8.533 33.042c-13.458-3.492-26.383-8.792-38.417-15.75zM273.067 533.333h34.133v68.267c-0.083 32.308 13.017 63.25 36.283 85.675l-23.775 24.475c-29.908-28.825-46.758-68.608-46.642-110.15zM48.675 121.209l289.742-158.025c32.608-17.825 69.175-27.175 106.342-27.183h562.175c9.425 0 17.067 7.642 17.067 17.067v307.2c0 9.425-7.642 17.067-17.067 17.067h-130.608l-1.95 1.517c-20.042 15.65-42.2 28.383-65.808 37.842-82.808 33.792-176.842 25.483-252.45-22.292h-129.45c-27.175 0.008-52.733-12.933-68.817-34.842-16.075-21.908-20.758-50.167-12.608-76.092l-210.975 105.708c-31.333 15.733-68.908 12.142-96.683-9.25-23.617-17.692-37.533-45.45-37.583-74.958v-1.875c-0.042-34.158 18.642-65.6 48.675-81.883zM887.467 243.2h102.4v-273.067h-102.4zM34.133 204.967c0.125 19.108 9.3 37.033 24.733 48.3 17.375 13.108 40.692 15.2 60.125 5.392l265.917-133.117c2.358-1.192 4.975-1.808 7.625-1.808h256v34.133h-221.867c-28.275 0-51.2 22.925-51.2 51.2s22.925 51.2 51.2 51.2h134.483c3.342 0.008 6.608 0.983 9.408 2.817 66.867 44.033 151.158 52.25 225.275 21.95 20.625-8.267 39.983-19.392 57.5-33.042v-281.858h-408.575c-31.45 0.008-62.383 7.925-89.975 23.008l-289.825 158.050c-19.033 10.325-30.867 30.25-30.825 51.9zM921.6 55.467h34.133v-34.133h-34.133zM529.067 362.667v34.133h17.067c37.7 0 68.267 30.567 68.267 68.267s-30.567 68.267-68.267 68.267h-68.267c-18.85 0-34.133 15.283-34.133 34.133s15.283 34.133 34.133 34.133h119.467v34.133h-68.267v34.133h-34.133v-34.133h-17.067c-37.7 0-68.267-30.567-68.267-68.267s30.567-68.267 68.267-68.267h68.267c18.85 0 34.133-15.283 34.133-34.133s-15.283-34.133-34.133-34.133h-119.467v-34.133h68.267v-34.133z" />
<glyph unicode="&#xe92b;" glyph-name="data" d="M170.662 340.979h140.728c9.93 0 17.969 8.049 17.969 17.969s-8.039 17.969-17.969 17.969h-140.728c-74.291 0-134.735 60.434-134.735 134.735 0 69.171 51.819 126.768 120.518 133.974 5.644 0.586 10.67 3.803 13.569 8.666 2.899 4.873 3.331 10.814 1.172 16.046-6.312 15.286-9.498 31.394-9.498 47.903 0 69.346 56.414 125.761 125.75 125.761 35.115 0 68.945-14.988 92.784-41.118 3.834-4.204 9.375-6.456 15.090-5.746 5.664 0.565 10.701 3.793 13.61 8.686 41.016 68.894 113.117 110.033 192.897 110.033 123.828 0 224.568-100.73 224.568-224.558 0-7.946-0.514-16.273-1.552-25.452-0.606-5.315 1.881-10.557 5.582-14.412s9.56-5.736 14.947-5.438c2.642 0.185 5.273 0.391 7.967 0.391 74.301 0 134.735-60.434 134.735-134.735s-60.434-134.735-134.735-134.735h-206.589c-9.93 0-17.969-8.049-17.969-17.969s8.039-17.969 17.969-17.969h206.589c94.11 0 170.672 76.563 170.672 170.672 0 91.16-71.844 165.841-161.873 170.436 0.123 3.125 0.185 6.188 0.185 9.211 0 143.627-116.859 260.495-260.495 260.495-83.758 0-162.921-41.262-211.565-108.974-28.814 23.797-65.234 37.109-102.817 37.109-89.155 0-161.688-72.533-161.688-161.688 0-13.785 1.737-27.375 5.181-40.584-76.007-17.969-130.931-85.845-130.931-166.005 0-94.11 76.562-170.672 170.662-170.672zM467.085 89.478c9.92 0 17.969 8.039 17.969 17.958v467.085h146.269c8.039-30.9 35.927-53.886 69.305-53.886 39.628 0 71.865 32.237 71.865 71.854s-32.237 71.865-71.865 71.865c-33.378 0-61.266-22.995-69.305-53.896h-164.237c-9.92 0-17.958-8.049-17.958-17.969v-467.085h-359.303v56.445c30.9 8.028 53.896 35.927 53.896 69.305 0 39.628-32.237 71.865-71.854 71.865-39.628 0-71.865-32.237-71.865-71.865 0-33.378 22.995-61.277 53.896-69.305v-74.414c0-9.92 8.039-17.958 17.969-17.958zM700.627 628.417c19.819 0 35.938-16.108 35.938-35.927s-16.118-35.927-35.938-35.927c-19.809 0-35.927 16.108-35.927 35.927s16.118 35.927 35.927 35.927zM35.927 251.156c0 19.819 16.118 35.927 35.937 35.927 19.809 0 35.927-16.108 35.927-35.927 0-19.809-16.118-35.927-35.927-35.927-19.819 0-35.937 16.118-35.937 35.927zM269.47 251.156c-9.92 0-17.958-8.039-17.958-17.958 0-9.93 8.039-17.969 17.958-17.969h125.761c9.92 0 17.958 8.039 17.958 17.969v215.574c0 4.204-1.47 8.275-4.163 11.503l-78.701 94.439c6.867 11.009 11.009 23.88 11.009 37.788 0 39.618-32.237 71.854-71.865 71.854-39.618 0-71.854-32.237-71.854-71.854 0-39.628 32.237-71.865 71.854-71.865 12.654 0 24.373 3.567 34.714 9.334l73.078-87.695v-191.118zM233.542 592.49c0 19.819 16.118 35.927 35.927 35.927 19.819 0 35.937-16.108 35.937-35.927 0-6.949-2.076-13.374-5.5-18.884-2.128-0.689-4.184-1.727-6.003-3.248-2.652-2.2-4.194-5.088-5.222-8.121-5.561-3.546-12.13-5.674-19.213-5.674-19.809 0-35.927 16.108-35.927 35.927zM970.107 251.156h-377.262v146.269c30.9 8.039 53.896 35.927 53.896 69.315 0 39.618-32.247 71.854-71.865 71.854s-71.854-32.237-71.854-71.854c0-33.388 22.985-61.277 53.886-69.315v-164.227c0-9.93 8.049-17.969 17.969-17.969h395.23c9.92 0 17.958 8.039 17.958 17.969 0 9.92-8.039 17.958-17.958 17.958zM538.949 466.74c0 19.809 16.108 35.927 35.927 35.927s35.927-16.118 35.927-35.927c0-19.819-16.108-35.938-35.927-35.938s-35.927 16.118-35.927 35.938zM952.138 35.582h-133.296l-66.684 116.694c-3.197 5.602-9.149 9.056-15.594 9.056h-161.688c-9.92 0-17.969-8.039-17.969-17.969 0-9.92 8.049-17.958 17.969-17.958h151.264l66.684-116.704c3.187-5.592 9.149-9.056 15.594-9.056h143.719c9.92 0 17.969 8.049 17.969 17.969s-8.049 17.969-17.969 17.969zM718.596 35.582h-56.445c-8.039 30.9-35.927 53.896-69.305 53.896-33.388 0-61.277-22.995-69.315-53.896h-433.707c-9.92 0-17.958-8.049-17.958-17.969s8.039-17.969 17.958-17.969h433.707c8.039-30.9 35.927-53.886 69.315-53.886 33.378 0 61.266 22.985 69.305 53.886h56.445c9.92 0 17.969 8.049 17.969 17.969s-8.049 17.969-17.969 17.969zM592.845-18.314c-19.819 0-35.938 16.108-35.938 35.927s16.118 35.927 35.938 35.927c19.809 0 35.927-16.108 35.927-35.927s-16.118-35.927-35.927-35.927z" />
<glyph unicode="&#xe92c;" glyph-name="list" d="M1002.004 941.738h-757.25c-12.15 0-21.996-9.845-21.996-21.996v-437.285h-200.763c-12.15 0-21.996-9.845-21.996-21.996v-372.822c0-73.542 59.829-133.379 133.374-133.379 1.895 0 757.25 0 757.25 0 73.542 0 133.379 59.834 133.379 133.379v832.103c-0.003 12.15-9.848 21.996-21.999 21.996zM43.992 87.639v350.827h178.767v-350.827c0-49.285-40.097-89.388-89.388-89.388-49.282 0-89.379 40.103-89.379 89.388zM980.008 87.639c0-49.285-40.097-89.388-89.388-89.388h-658.336c21.406 23.667 34.466 55.036 34.466 89.388v810.107h713.258v-810.107zM592.487 687.678h281.918c12.15 0 21.996 9.845 21.996 21.996s-9.845 21.996-21.996 21.996h-281.918c-12.15 0-21.996-9.845-21.996-21.996s9.848-21.996 21.996-21.996zM592.487 446.038h281.918c12.15 0 21.996 9.845 21.996 21.996s-9.845 21.996-21.996 21.996h-281.918c-12.15 0-21.996-9.845-21.996-21.996s9.848-21.996 21.996-21.996zM592.487 204.392h281.918c12.15 0 21.996 9.845 21.996 21.996s-9.845 21.996-21.996 21.996h-281.918c-12.15 0-21.996-9.845-21.996-21.996 0-12.148 9.848-21.996 21.996-21.996zM389.513 662.925c4.159-4.399 9.945-6.892 15.992-6.892 0.059 0 0.12 0 0.185 0 6.118 0.053 11.936 2.645 16.063 7.165l120.821 132.33c8.191 8.971 7.555 22.884-1.414 31.076-8.971 8.185-22.884 7.555-31.076-1.414l-104.852-114.836-32.639 34.563c-8.347 8.834-22.271 9.226-31.099 0.889-8.834-8.341-9.226-22.26-0.889-31.093l48.907-51.787zM510.085 573.047l-104.852-114.83-32.645 34.557c-8.341 8.839-22.266 9.232-31.093 0.889-8.834-8.341-9.226-22.26-0.889-31.093l48.907-51.781c4.159-4.399 9.945-6.892 15.992-6.892 0.059 0 0.12 0 0.185 0 6.118 0.053 11.936 2.645 16.063 7.165l120.821 132.324c8.185 8.971 7.555 22.884-1.414 31.076s-22.884 7.561-31.076-1.414zM510.085 320.908l-104.852-114.83-32.645 34.557c-8.341 8.839-22.266 9.235-31.093 0.889-8.834-8.341-9.226-22.26-0.889-31.093l48.907-51.781c4.159-4.399 9.945-6.892 15.992-6.892 0.059 0 0.12 0 0.185 0 6.118 0.053 11.936 2.645 16.063 7.165l120.821 132.324c8.185 8.971 7.555 22.884-1.414 31.076-8.971 8.191-22.884 7.558-31.076-1.414z" />
<glyph unicode="&#xe92d;" glyph-name="idea-1" d="M926.686 120.838c29.21 20.908 48.294 55.1 48.294 93.68 0 63.494-51.656 115.15-115.15 115.15s-115.15-51.656-115.15-115.15c0-38.592 19.096-72.794 48.32-93.698-57.304-25.644-97.342-83.182-97.342-149.916 0-9.86 7.994-17.854 17.854-17.854s17.854 7.994 17.854 17.854c0 70.836 57.628 128.464 128.464 128.464s128.464-57.628 128.464-128.464c0-9.86 7.994-17.854 17.854-17.854s17.854 7.994 17.854 17.854c-0.004 66.73-40.022 124.286-97.316 149.934zM859.83 135.076c-43.806 0-79.442 35.638-79.442 79.442s35.638 79.442 79.442 79.442c43.806 0 79.442-35.638 79.442-79.442s-35.636-79.442-79.442-79.442zM625.903 896.236c-31.16 30.726-72.48 47.336-116.232 46.692-89.346-1.254-161.074-75.006-159.892-164.402 0.55-41.542 16.782-80.854 45.708-110.7 19.686-20.312 30.526-46.554 30.526-73.894v-20.706c0-41.766 33.978-75.744 75.744-75.744h20.484c41.766 0 75.744 33.978 75.744 75.744v20.708c0 27.38 10.8 53.582 30.412 73.776 29.558 30.438 45.838 70.57 45.838 113.004 0 43.764-17.164 84.788-48.332 115.522zM562.279 573.225c0-22.076-17.96-40.036-40.036-40.036h-20.484c-22.076 0-40.036 17.96-40.036 40.036v2.852h100.558v-2.852zM602.783 692.583c-21.846-22.496-35.444-50.692-39.322-80.8h-33.608v102.936l52.838 52.838c6.972 6.972 6.972 18.278 0 25.248-6.972 6.972-18.278 6.972-25.248 0l-45.444-45.446-45.442 45.446c-6.972 6.972-18.278 6.972-25.248 0-6.972-6.972-6.972-18.278 0-25.248l52.838-52.838v-102.936h-33.612c-3.89 30.078-17.518 58.306-39.406 80.892-22.558 23.276-35.214 53.932-35.644 86.322-0.922 69.726 55.014 127.25 124.69 128.228 0.612 0.008 1.224 0.012 1.836 0.012 33.476 0 64.958-12.894 88.824-36.428 24.31-23.968 37.694-55.966 37.694-90.1-0.002-33.090-12.696-64.388-35.746-88.126zM342.295 492.253c-6.97 6.972-18.274 6.972-25.248 0l-107.116-107.116c-6.972-6.97-6.972-18.274 0-25.248 3.484-3.488 8.056-5.23 12.624-5.23s9.138 1.742 12.624 5.23l107.116 107.116c6.972 6.97 6.972 18.276 0 25.248zM814.068 385.137l-107.116 107.116c-6.97 6.972-18.274 6.972-25.248 0-6.972-6.97-6.972-18.274 0-25.248l107.116-107.116c3.484-3.488 8.056-5.23 12.624-5.23s9.138 1.742 12.624 5.23c6.972 6.972 6.972 18.276 0 25.248zM511.999 454.945c-9.86 0-17.854-7.994-17.854-17.854v-68.148c0-9.86 7.994-17.854 17.854-17.854s17.854 7.994 17.854 17.854v68.148c0 9.86-7.994 17.854-17.854 17.854zM836.942 254.553c0-9.86-7.993-17.854-17.854-17.854s-17.854 7.993-17.854 17.854c0 9.86 7.993 17.854 17.854 17.854s17.854-7.993 17.854-17.854zM902.404 254.553c0-9.86-7.993-17.854-17.854-17.854s-17.854 7.993-17.854 17.854c0 9.86 7.993 17.854 17.854 17.854s17.854-7.993 17.854-17.854zM578.857 120.838c29.21 20.908 48.294 55.1 48.294 93.68 0 63.494-51.656 115.15-115.15 115.15s-115.15-51.656-115.15-115.15c0-38.592 19.096-72.794 48.32-93.698-57.304-25.644-97.342-83.182-97.342-149.916 0-9.86 7.994-17.854 17.854-17.854s17.854 7.994 17.854 17.854c0 70.836 57.628 128.464 128.464 128.464s128.464-57.628 128.464-128.464c0-9.86 7.994-17.854 17.854-17.854s17.854 7.994 17.854 17.854c-0.004 66.73-40.022 124.286-97.316 149.934zM511.999 135.076c-43.806 0-79.442 35.638-79.442 79.442s35.64 79.444 79.442 79.444c43.806 0 79.442-35.638 79.442-79.442 0-43.806-35.636-79.444-79.442-79.444zM497.133 254.553c0-9.86-7.993-17.854-17.854-17.854s-17.854 7.993-17.854 17.854c0 9.86 7.993 17.854 17.854 17.854s17.854-7.993 17.854-17.854zM562.597 254.553c0-9.86-7.993-17.854-17.854-17.854s-17.854 7.993-17.854 17.854c0 9.86 7.993 17.854 17.854 17.854s17.854-7.993 17.854-17.854zM231 120.822c29.224 20.906 48.32 55.106 48.32 93.698 0 63.494-51.656 115.15-115.15 115.15s-115.15-51.656-115.15-115.15c0-38.58 19.084-72.776 48.294-93.68-57.296-25.65-97.314-83.206-97.314-149.934 0-9.86 7.994-17.854 17.854-17.854s17.854 7.994 17.854 17.854c0 70.836 57.628 128.464 128.464 128.464s128.464-57.628 128.464-128.464c0-9.86 7.994-17.854 17.854-17.854s17.854 7.994 17.854 17.854c-0.004 66.734-40.040 124.27-97.344 149.916zM164.17 135.076c-43.806 0-79.442 35.638-79.442 79.442s35.638 79.442 79.442 79.442c43.806 0 79.442-35.638 79.442-79.442s-35.636-79.442-79.442-79.442zM222.764 254.553c0-9.86-7.993-17.854-17.854-17.854s-17.854 7.993-17.854 17.854c0 9.86 7.993 17.854 17.854 17.854s17.854-7.993 17.854-17.854zM157.3 254.553c0-9.86-7.993-17.854-17.854-17.854s-17.854 7.993-17.854 17.854c0 9.86 7.993 17.854 17.854 17.854s17.854-7.993 17.854-17.854z" />
<glyph unicode="&#xe92e;" glyph-name="monitor" d="M68.266 72.531h262.523l-17.070-34.133h-6.516c-53.438 0-85.336-25.516-85.336-68.266 0-18.852 15.281-34.133 34.133-34.133h512c18.852 0 34.133 15.281 34.133 34.133 0 42.75-31.898 68.266-85.336 68.266h-6.516l-17.070 34.133h262.523c37.703 0 68.266 30.563 68.266 68.266v597.336c0 37.703-30.563 68.266-68.266 68.266h-187.734c-9.422 0-17.070-7.641-17.070-17.063 0-9.43 7.648-17.070 17.070-17.070h187.734c18.852 0 34.133-15.281 34.133-34.133v-597.336c0-18.852-15.281-34.133-34.133-34.133h-887.469c-18.852 0-34.133 15.281-34.133 34.133v597.336c0 18.852 15.281 34.133 34.133 34.133h187.734c9.422 0 17.070 7.641 17.070 17.070 0 9.422-7.648 17.063-17.070 17.063h-187.734c-37.703 0-68.266-30.563-68.266-68.266v-597.336c0-37.703 30.563-68.266 68.266-68.266zM768-29.867h-512c0 8.445 0 34.133 51.203 34.133h409.594c51.203 0 51.203-25.688 51.203-34.133zM655.039 72.531l17.063-34.133h-320.219l17.063 34.133zM904.531 243.203h-785.063c-9.43 0-17.070 7.641-17.070 17.063v426.664c0 9.43 7.641 17.070 17.070 17.070h51.195c9.43 0 17.070 7.641 17.070 17.070 0 9.422-7.641 17.063-17.070 17.063h-51.195c-28.281 0-51.203-22.922-51.203-51.203v-426.664c0-28.273 22.922-51.195 51.203-51.195h785.063c28.281 0 51.203 22.922 51.203 51.195v426.664c0 28.281-22.922 51.203-51.203 51.203h-51.195c-9.43 0-17.070-7.641-17.070-17.063 0-9.43 7.641-17.070 17.070-17.070h51.195c9.43 0 17.070-7.641 17.070-17.070v-426.664c0-9.422-7.641-17.063-17.070-17.063zM426.664 174.93c-9.422 0-17.063-7.641-17.063-17.063 0-9.43 7.641-17.070 17.063-17.070h170.672c9.422 0 17.063 7.641 17.063 17.070 0 9.422-7.641 17.063-17.063 17.063zM731.406 860.789l-28.461 28.484c-11.539 11.5-29.594 13.242-43.117 4.164l-42.664-28.172c-13.195 7.102-27.117 12.781-41.523 16.93l-10.055 50.313c-3.164 15.969-17.164 27.477-33.445 27.492h-40.281c-16.266 0-30.273-11.477-33.469-27.43l-10.32-50.242c-14.375-4.258-28.242-10.031-41.391-17.234l-42.492 28.344c-13.539 9.063-31.594 7.289-43.109-4.227l-28.508-28.484c-11.398-11.547-13.133-29.516-4.141-43.031l28.188-42.664c-7.094-13.203-12.766-27.125-16.93-41.523l-50.313-10.031c-15.945-3.203-27.445-17.188-27.508-33.453v-40.313c0.039-16.258 11.508-30.242 27.445-33.469l50.227-10.242c4.266-14.359 10.039-28.234 17.219-41.383l-28.328-42.578c-9.016-13.555-7.234-31.578 4.25-43.117l28.461-28.461c11.523-11.523 29.57-13.289 43.109-4.234l42.672 28.172c13.195-7.102 27.117-12.773 41.523-16.93l10.047-50.312c3.195-15.906 17.141-27.375 33.367-27.422h40.281c16.266 0 30.273 11.477 33.469 27.422l10.32 50.25c14.375 4.25 28.242 10.031 41.391 17.234l42.492-28.414c13.547-9.070 31.609-7.297 43.133 4.234l28.484 28.461c11.469 11.547 13.234 29.563 4.227 43.117l-28.195 42.664c7.070 13.141 12.789 26.961 17.070 41.25l-16.352 4.859 16.281-4.586 50.313 10.031c15.891 3.266 27.313 17.234 27.359 33.453v40.313c-0.039 16.258-11.508 30.242-27.445 33.469l-50.227 10.234c-4.266 14.367-10.039 28.242-17.219 41.391l28.414 42.516c9.086 13.555 7.305 31.633-4.25 43.156zM678.844 794.133c-6.953-10.57-7.516-24.102-1.469-35.211 5.961-11.102 10.781-22.773 14.375-34.852 3.516-12.211 13.523-21.453 25.969-23.992l50.281-10.055v-40.313l-50.281-10.055c-12.445-2.539-22.453-11.781-25.969-23.992-3.602-12.078-8.414-23.766-14.375-34.867-6.070-11.102-5.5-24.656 1.484-35.211l28.414-42.516-28.484-28.477-42.508 28.414c-10.563 6.961-24.109 7.539-35.227 1.5-11.102-5.969-22.789-10.789-34.867-14.391-12.156-3.563-21.352-13.547-23.891-25.953l-10.156-50.297h-40.281l-10.070 50.313c-2.57 12.438-11.813 22.422-24.008 25.961-12.070 3.586-23.742 8.398-34.836 14.352-5.070 2.734-10.742 4.172-16.5 4.18-6.688 0.016-13.219-1.953-18.773-5.664l-42.516-28.414-28.484 28.477 28.43 42.531c6.953 10.57 7.516 24.102 1.469 35.211-5.961 11.102-10.773 22.773-14.367 34.852-3.516 12.211-13.523 21.453-25.977 23.992l-50.227 10.055v40.313l50.281 10.055c12.445 2.539 22.453 11.781 25.969 23.992 3.602 12.078 8.414 23.758 14.375 34.867 6.070 11.102 5.5 24.656-1.484 35.211l-28.414 42.508 28.484 28.484 42.508-28.414c10.555-6.992 24.117-7.57 35.227-1.5 11.102 5.969 22.789 10.789 34.867 14.383 12.188 3.539 21.422 13.531 23.977 25.961l10.070 50.297h40.281l10.070-50.313c2.57-12.438 11.813-22.43 24.008-25.961 12.070-3.586 23.742-8.398 34.836-14.352 11.109-6.078 24.664-5.508 35.227 1.484l42.508 28.414 28.484-28.484zM512 806.398c-75.406 0-136.531-61.125-136.531-136.531s61.125-136.531 136.531-136.531 136.531 61.125 136.531 136.531c-0.086 75.367-61.164 136.445-136.531 136.531zM512 567.469c-56.555 0-102.398 45.844-102.398 102.398s45.844 102.398 102.398 102.398 102.398-45.844 102.398-102.398c-0.055-56.531-45.867-102.344-102.398-102.398zM529.070 669.867c0-9.43-7.648-17.070-17.070-17.070s-17.070 7.641-17.070 17.070c0 9.422 7.648 17.063 17.070 17.063s17.070-7.641 17.070-17.063z" />
<glyph unicode="&#xe92f;" glyph-name="heart" d="M512-7.031c-14.578 0-28.633 5.281-39.586 14.875-41.367 36.172-81.25 70.164-116.438 100.148l-0.18 0.156c-103.164 87.914-192.25 163.836-254.234 238.625-69.289 83.609-101.563 162.883-101.563 249.484 0 84.141 28.852 161.766 81.234 218.586 53.008 57.492 125.742 89.156 204.828 89.156 59.109 0 113.242-18.688 160.891-55.539 24.047-18.602 45.844-41.367 65.047-67.922 19.211 26.555 41 49.32 65.055 67.922 47.648 36.852 101.781 55.539 160.891 55.539 79.078 0 151.82-31.664 204.828-89.156 52.383-56.82 81.227-134.445 81.227-218.586 0-86.602-32.266-165.875-101.555-249.477-61.984-74.797-151.063-150.711-254.211-238.617-35.25-30.031-75.195-64.078-116.656-100.336-10.945-9.578-25.008-14.859-39.578-14.859zM286.063 844.016c-62.133 0-119.211-24.797-160.734-69.828-42.141-45.711-65.352-108.898-65.352-177.93 0-72.836 27.070-137.977 87.766-211.211 58.664-70.789 145.922-145.148 246.953-231.25l0.188-0.156c35.32-30.102 75.359-64.227 117.031-100.664 41.922 36.508 82.023 70.688 117.414 100.836 101.023 86.102 188.273 160.445 246.938 231.234 60.688 73.234 87.758 138.375 87.758 211.211 0 69.031-23.211 132.219-65.352 177.93-41.516 45.031-98.602 69.828-160.727 69.828-45.516 0-87.305-14.469-124.203-43-32.883-25.438-55.789-57.594-69.219-80.094-6.906-11.57-19.063-18.477-32.523-18.477s-25.617 6.906-32.523 18.477c-13.422 22.5-36.328 54.656-69.219 80.094-36.898 28.531-78.688 43-124.195 43z" />
</font>
</defs>
</svg>
