<?xml version="1.0" standalone="no"?>
<!DOCTYPE svg PUBLIC "-//W3C//DTD SVG 1.1//EN" "http://www.w3.org/Graphics/SVG/1.1/DTD/svg11.dtd" >
<svg xmlns="http://www.w3.org/2000/svg">
<metadata>Generated by IcoMoon</metadata>
<defs>
<font id="icomoon" horiz-adv-x="1024">
<font-face units-per-em="1024" ascent="960" descent="-64" />
<missing-glyph horiz-adv-x="1024" />
<glyph unicode="&#x20;" horiz-adv-x="512" d="" />
<glyph unicode="&#xe900;" glyph-name="1" d="M966.217 50.444l-233.765 233.765c56.759 68.694 91.186 157.66 91.186 254.666 0 0.315 0 0.629-0.001 0.944v-0.049c-0.056 222.7-180.602 403.212-403.31 403.212-222.742 0-403.31-180.568-403.31-403.31 0-0.034 0-0.069 0-0.103v0.006c0-222.796 180.612-403.407 403.407-403.407v0c96.89 0 185.929 34.133 255.561 91.185l233.57-233.57c7.241-7.27 17.261-11.769 28.331-11.769s21.089 4.499 28.329 11.767l0.001 0.001c7.27 7.241 11.769 17.261 11.769 28.331s-4.499 21.089-11.767 28.329l-0.001 0.001zM97.036 539.575c-0.015 1.173-0.024 2.558-0.024 3.946 0 178.522 144.721 323.243 323.243 323.243s323.243-144.721 323.243-323.243c0-1.404-0.009-2.807-0.027-4.207l0.002 0.212c-2.254-176.796-146.1-319.248-323.218-319.248-177.135 0-320.991 142.48-323.216 319.087l-0.002 0.21z" />
<glyph unicode="&#xe901;" glyph-name="2" d="M981.225 617.1h-6.47l-462.755 310.598-459.869-310.598h-9.169c-0.042 0.001-0.091 0.001-0.141 0.001-5.607 0-10.161-4.506-10.239-10.094v-628.464c0-5.585 4.655-10.193 10.38-10.193h938.263c0.028 0 0.061 0 0.094 0 5.658 0 10.254 4.547 10.332 10.186v628.464c-0.078 5.596-4.632 10.102-10.239 10.102-0.066 0-0.131-0.001-0.197-0.002h0.010zM512 847.732l399.732-279.785-399.732-258.793-399.732 258.793 399.732 279.785zM911.732 48.314h-799.465v439.715l399.732-258.839c3.724-2.56-3.724-2.56 0 0l399.732 258.839v-439.715z" />
<glyph unicode="&#xe902;" glyph-name="3" d="M718.763 148.565c-56.663-65.989-116.37-125.52-180.363-180.183l-2.25-1.876-24.149-19.925-24.149 19.925c-66.243 56.538-125.95 116.070-180.799 179.898l-1.814 2.161c-124.245 145.451-187.264 276.011-187.264 388.096v11.093c0 221.525 176.768 401.749 394.027 401.749s394.027-180.224 394.027-401.749v-11.093c0-112.085-63.019-242.645-187.264-388.096zM829.141 547.755c0 178.304-142.293 323.371-317.141 323.371-174.891 0-317.141-145.067-317.141-323.371v-11.093c0-189.355 239.232-418.603 317.141-488.192 77.867 69.589 317.141 298.795 317.141 488.192v11.093zM512 361.515c-100.693 0-182.571 83.541-182.571 186.24 0 102.656 81.877 186.155 182.571 186.155s182.571-83.499 182.571-186.155c0-102.699-81.877-186.24-182.571-186.24zM512 655.531c-58.283 0-105.728-48.341-105.728-107.776 0-59.477 47.445-107.819 105.728-107.819s105.685 48.341 105.685 107.819c0 59.435-47.403 107.776-105.685 107.776z" />
<glyph unicode="&#xe903;" glyph-name="4" d="M512-63.99c-287.566 0-512 224.402-512 512s224.434 512 512 512c287.514 0 512.178-224.402 512-512 0-287.431-224.486-512-512-512zM512 886.868c-240.483 0-438.857-198.384-438.857-438.857 0-240.64 199.492-438.847 438.857-438.847 239.501 0 438.857 198.207 438.857 438.847 0 240.473-198.248 438.857-438.857 438.857zM663.218 430.101l-180.308-130.936c-3.793-2.821-8.307-4.232-12.675-4.232-3.396 0-6.792 0.69-9.895 2.236-7.335 3.835-11.034 13.354-11.034 25.454v250.776c0 8.202 3.699 20.971 11.034 24.649 2.847 1.496 6.221 2.373 9.8 2.373 4.81 0 9.25-1.586 12.826-4.263l-0.056 0.040 180.308-130.936c5.663-4.232 9.028-10.595 9.028-17.669 0-0.006 0-0.013 0-0.020 0-7.184-3.536-13.542-8.963-17.428l-0.065-0.044z" />
<glyph unicode="&#xe904;" glyph-name="5" d="M245.58 54.766c-18.809 0-38.678 11.48-48.074 27.774-4.655 7.953-7.403 17.511-7.403 27.711 0 20.419 11.014 38.266 27.425 47.923l0.26 0.142c7.943 4.656 17.491 7.406 27.682 7.406 20.407 0 38.238-11.026 47.863-27.445l0.142-0.261c15.288-26.516 4.868-61.242-20.282-75.794-7.915-4.675-17.439-7.442-27.608-7.455h-0.004zM267.659 123.087c-4.51 7.703-12.745 12.794-22.169 12.794-14.14 0-25.603-11.463-25.603-25.603 0-4.716 1.275-9.135 3.5-12.93l-0.065 0.121c9.072-12.791 20.714-15.935 34.96-9.378 12.791 9.072 15.899 20.749 9.378 34.996zM491.736 6.925c-0.024 0-0.052 0-0.080 0-20.412 0-38.248 11.032-47.871 27.458l-0.142 0.262c-15.288 26.498-4.851 61.242 20.3 75.776 28.474 11.641 59.859 7.132 75.668-20.3 4.658-7.956 7.409-17.52 7.409-27.726 0-20.417-11.008-38.263-27.413-47.926l-0.26-0.142c-7.92-4.653-17.445-7.402-27.612-7.402v0zM513.814 75.174c-5.677 8.479-13.078 12.755-22.205 12.845l-12.773-3.449c-12.773-9.072-15.881-20.749-9.36-34.996 4.509-7.705 12.744-12.799 22.169-12.799 14.138 0 25.599 11.461 25.599 25.599 0 4.713-1.274 9.128-3.495 12.921l0.065-0.121zM771.288 151.741c4.639-7.942 7.378-17.484 7.378-27.667 0-30.585-24.711-55.398-55.256-55.565h-0.016c-18.809 0-38.678 11.444-48.056 27.774-15.288 26.498-4.868 61.242 20.282 75.776 7.939 4.652 17.482 7.4 27.667 7.4 20.409 0 38.241-11.031 47.859-27.457l0.142-0.262zM701.153 111.194c9.054-12.791 20.714-15.917 34.96-9.378 7.696 4.533 12.778 12.778 12.778 22.209 0 4.713-1.269 9.129-3.484 12.926l0.066-0.122c-4.505 7.702-12.736 12.794-22.156 12.794-4.714 0-9.131-1.275-12.924-3.5l0.12 0.065c-12.773-9.054-15.899-20.732-9.36-34.996zM501.077 378.566c15.288-26.534 4.868-61.242-20.264-75.794-7.919-4.681-17.451-7.449-27.628-7.455h-0.002c-18.809 0-38.678 11.462-48.074 27.756-4.655 7.955-7.404 17.515-7.404 27.718 0 20.423 11.014 38.273 27.426 47.934l0.26 0.142c7.945 4.664 17.498 7.419 27.695 7.419 20.406 0 38.236-11.032 47.849-27.457l0.142-0.262zM440.302 373.014c-7.703-4.532-12.792-12.78-12.792-22.217 0-4.71 1.267-9.123 3.48-12.919l-0.066 0.122c9.072-12.791 20.732-15.899 34.978-9.378 12.773 9.090 15.899 20.749 9.36 35.014-4.503 7.71-12.738 12.808-22.164 12.808-4.711 0-9.125-1.274-12.916-3.495l0.121 0.065zM947.865 120.589c36.307-40.080 48.128-89.25 30.828-128.413-15.737-35.696-52.026-56.158-99.544-56.158h-734.244c-47.499 0-83.788 20.462-99.544 56.158-17.282 39.164-5.461 88.333 30.846 128.413l305.421 361.31v151.786c-0.006 0.154-0.009 0.336-0.009 0.517 0 8.235 6.676 14.911 14.911 14.911s14.911-6.676 14.911-14.911c0-0.182-0.003-0.363-0.010-0.544l0.001 0.026v-157.265c-0.011-3.684-1.34-7.056-3.54-9.67l0.019 0.023-160.696-190.087c108.454-66.883 222.891-33.181 337.704-6.557 0.956 0.218 2.054 0.343 3.181 0.343 8.245 0 14.929-6.684 14.929-14.929 0-6.983-4.794-12.846-11.27-14.477l-0.103-0.022c-124.191-28.798-247.79-61.063-363.915 12.611l-129.293-152.953c-28.403-31.241-38.283-68.195-25.816-96.472 10.761-24.378 37.116-38.355 72.291-38.355h734.226c35.175 0 61.53 13.977 72.291 38.355 12.486 28.277 2.587 65.249-25.816 96.472l-0.341 0.413-137.054 162.097c-42.271 2.156-84.561-0.737-132.473-8.964-7.42-1.24-13.15 2.82-17.21 12.18-0.138 0.762-0.217 1.639-0.217 2.534 0 7.341 5.304 13.442 12.289 14.681l0.090 0.013c39.9 6.863 76.153 10.168 111.724 10.096 0 0-147.69 174.96-148.228 176.020h-82.046c-8.245 0-14.929 6.684-14.929 14.929s6.684 14.929 14.929 14.929v0h80.483v55.422h-80.483c-8.24 0-14.92 6.68-14.92 14.92s6.68 14.92 14.92 14.92v0h80.483v55.44h-80.483c-8.245 0-14.929 6.684-14.929 14.929s6.684 14.929 14.929 14.929v0h80.483v55.422h-80.483c-8.24 0-14.92 6.68-14.92 14.92s6.68 14.92 14.92 14.92v0h80.483v79.818h-59.5c-8.019 0.287-14.411 6.857-14.411 14.92s6.392 14.633 14.385 14.919l0.026 0.001h96.633v59.374h-275.474v-59.374h113.862c8.24 0 14.92-6.68 14.92-14.92s-6.68-14.92-14.92-14.92v0h-76.728v-136.533c0.006-0.154 0.009-0.336 0.009-0.517 0-8.235-6.676-14.911-14.911-14.911s-14.911 6.676-14.911 14.911c0 0.182 0.003 0.363 0.010 0.544l-0.001-0.026v136.533h-8.336c-15.903 0.020-28.788 12.912-28.798 28.815v61.387c0 15.899 12.917 28.852 28.798 28.852h277.486c15.881 0 28.816-12.953 28.816-28.852v-61.386c0-15.899-12.935-28.816-28.816-28.816h-8.336v-353.37l305.421-361.31z" />
<glyph unicode="&#xe905;" glyph-name="6" d="M901.497 78.031c-0.051-23.556-19.144-42.636-42.7-42.667h-0.003c-23.563 0.020-42.662 19.106-42.703 42.663v0.004c0.041 23.564 19.137 42.654 42.7 42.685h0.003c23.565-0.031 42.662-19.121 42.703-42.681v-0.004zM858.795 90.84c-7.070-0.010-12.799-5.739-12.809-12.808v-0.001c0-0.005 0-0.012 0-0.018 0-7.084 5.743-12.827 12.827-12.827s12.827 5.743 12.827 12.827c0 7.084-5.743 12.827-12.827 12.827-0.006 0-0.013 0-0.019 0h0.001zM859.783 213.935c-0.051-30.865-25.074-55.868-55.941-55.889h-0.002c-30.869 0.020-55.892 25.024-55.943 55.884v0.005c0.051 30.865 25.074 55.868 55.941 55.889h0.002c30.869-0.020 55.892-25.024 55.943-55.884v-0.005zM803.84 239.948c-14.366-0.010-26.011-11.648-26.031-26.011v-0.002c0.535-13.964 11.985-25.082 26.031-25.082s25.496 11.118 26.030 25.033l0.001 0.049c-0.020 14.365-11.665 26.003-26.030 26.013h-0.001zM840.83 442.952c23.555-0.031 42.644-19.113 42.685-42.663v-0.004c-0.041-23.554-19.129-42.636-42.682-42.667h-0.003c-23.567 0.020-42.669 19.104-42.721 42.662v0.005c0.051 23.562 19.154 42.646 42.719 42.667h0.002zM840.83 387.494c0.282-0.022 0.61-0.035 0.941-0.035 7.074 0 12.809 5.735 12.809 12.809s-5.735 12.809-12.809 12.809c-0.344 0-0.684-0.014-1.021-0.040l0.045 0.003c-6.641-0.523-11.832-6.041-11.832-12.772 0-6.743 5.211-12.269 11.825-12.772l0.043-0.003zM977.597 764.164l-17.372-50.41v-336.555c0-8.26-6.696-14.956-14.956-14.956s-14.956 6.696-14.956 14.956v0 121.766h-38.032c-0.075 0-0.164 0-0.253 0-27.062 0-51.555 11.002-69.249 28.776l-0.004 0.004c-12.305 12.352-29.329 19.995-48.138 19.995-0.072 0-0.144 0-0.217 0h-50.596v-473.555c0.092-56.965 46.272-103.114 103.241-103.155h0.004c56.976 0.031 103.163 46.185 103.244 103.147v239.372c0 8.26 6.696 14.956 14.956 14.956s14.956-6.696 14.956-14.956v0-239.364c0-73.351-59.733-133.030-133.156-133.030-73.405 0-133.138 59.679-133.138 133.030v639.569l-17.354 50.41c-0.802 2.271-1.265 4.89-1.265 7.617 0 12.995 10.516 23.533 23.502 23.57h256.525c12.996-0.041 23.516-10.586 23.516-23.588 0-2.72-0.461-5.333-1.308-7.765l0.050 0.166zM707.746 765.458l15.27-44.355c0.539-1.563 0.808-3.216 0.808-4.851v-138.635h50.607c26.265 0 50.931-10.204 69.506-28.762 12.315-12.363 29.353-20.013 48.178-20.013 0.058 0 0.116 0 0.174 0h38.041v187.41c0 1.635 0.269 3.288 0.808 4.851l15.27 44.355h-238.664zM684.499-25.196c-3.755-4.204-7.563-8.354-11.354-12.252-12.796-13.158-30.651-21.34-50.417-21.396h-427.055c-19.777 0.057-37.632 8.238-50.412 21.38l-0.016 0.016c-63.917 65.657-103.335 155.442-103.335 254.433 0 0.26 0 0.52 0.001 0.78v-0.040c0 75.309 22.654 147.654 65.536 209.273 41.537 59.326 98.741 105.101 165.64 131.747l2.476 0.87c3.668 1.446 6.216 4.958 6.216 9.066 0 0.015 0 0.030 0 0.045v-0.002 122.395c0 8.26 6.696 14.956 14.956 14.956s14.956-6.696 14.956-14.956v0-122.395c0-16.438-9.917-30.936-25.241-36.918-63.73-25.294-116.281-67.353-153.726-120.774l-0.719-1.082c-37.666-53.426-60.201-119.871-60.201-191.58 0-0.226 0-0.453 0.001-0.679v0.035c0-87.974 33.72-171.188 94.927-234.388 7.344-7.557 17.589-12.259 28.933-12.306h427.053c10.815 0 21.36 4.491 28.941 12.306 3.485 3.575 6.988 7.384 10.438 11.282 2.73 2.858 6.571 4.635 10.828 4.635 8.265 0 14.965-6.7 14.965-14.965 0-3.612-1.28-6.925-3.411-9.511l0.020 0.026zM631.539 5.506c-2.735-2.84-6.568-4.607-10.813-4.617h-423.058c-4.241 0.011-8.068 1.778-10.792 4.612l-0.005 0.005c-18.753 19.564-35.030 41.729-48.184 65.843l-0.807 1.615c-0.947 1.908-1.501 4.155-1.501 6.531 0 8.265 6.7 14.965 14.965 14.965 5.474 0 10.261-2.939 12.87-7.325l0.038-0.069c11.613-21.403 24.858-39.872 40.088-56.492l-0.188 0.208h410.085c8.623 9.432 16.618 19.492 23.857 30.001 2.768 3.514 7.023 5.75 11.8 5.75 8.275 0 14.983-6.708 14.983-14.983 0-2.847-0.794-5.508-2.173-7.775l0.037 0.066c-9.932-14.283-20.183-26.798-31.32-38.458l0.115 0.121zM651.965 335.378l-27.54-5.443c-15.478-3.205-33.266-5.040-51.483-5.040-36.082 0-70.483 7.199-101.845 20.24l1.758-0.648-176.523 71.626c-10.165 4.223-21.971 6.676-34.351 6.676-29.245 0-55.293-13.689-72.086-35.009l-0.149-0.196c-36.251-46.204-58.135-105.184-58.135-169.275 0-0.205 0-0.41 0.001-0.616v0.032c0-25.295 3.413-50.392 10.15-74.572 0.347-1.201 0.547-2.58 0.547-4.006 0-8.259-6.695-14.954-14.954-14.954-6.833 0-12.596 4.583-14.382 10.843l-0.026 0.105c-7.14 24.733-11.246 53.143-11.246 82.512 0 0.026 0 0.051 0 0.077v-0.004c0 0.194-0.001 0.424-0.001 0.654 0 70.999 24.252 136.334 64.923 188.173l-0.5-0.662c33.109 42.685 91.298 58.26 141.456 37.888l17.588-7.132 181.571 24.235c60.596 8.084 119.79-17.642 154.498-67.135 1.741-2.408 2.785-5.421 2.785-8.677 0 0 0 0 0 0v0-30.325c-0.003-0.846-0.075-1.673-0.21-2.478l0.012 0.089c0.121-0.713 0.191-1.535 0.191-2.373 0-7.215-5.137-13.23-11.953-14.588l-0.095-0.016zM634.125 380.218c-28.546 37.942-75.417 57.452-123.437 51.038l-129.617-17.282 103.029-41.822c26.279-10.987 56.813-17.369 88.837-17.369 16.171 0 31.962 1.627 47.218 4.727l-1.516-0.257 15.486 3.036v17.929zM649.072 460.593c-3.937 0.004-7.515 1.534-10.176 4.032l0.008-0.007c-30.081 28.067-65.579 50.792-104.693 66.39l-2.27 0.799c-14.881 5.853-25.223 20.098-25.223 36.759 0 0.056 0 0.112 0 0.168v-0.009 275.887c0 1.401 0.198 2.803 0.593 4.15l22.474 77.321h-241.179l22.474-77.321c0.382-1.241 0.605-2.668 0.611-4.147v-89.846c0-8.26-6.696-14.956-14.956-14.956s-14.956 6.696-14.956 14.956v0 87.705l-27.45 94.352c-0.371 1.245-0.584 2.675-0.584 4.156 0 3.397 1.124 6.531 3.019 9.051l-0.028-0.039c2.767 3.635 7.094 5.958 11.964 5.964h281.008c8.256-0.038 14.934-6.739 14.934-15.001 0-1.472-0.212-2.894-0.607-4.238l0.027 0.106-27.45-94.352v-273.749c0-4.042 2.443-7.635 6.234-9.108 45.047-17.825 83.685-42.565 116.624-73.33l-0.211 0.195c2.967-2.734 4.819-6.639 4.819-10.977 0-8.235-6.676-14.911-14.911-14.911-0.033 0-0.066 0-0.099 0h0.005z" />
<glyph unicode="&#xe906;" glyph-name="7" d="M961.13 717.347h-300.668v36.405c19.413 7.206 32.995 25.569 32.995 47.106 0 27.532-22.199 49.88-49.674 50.121h-133.655c-27.466-0.296-49.617-22.63-49.617-50.138 0-21.51 13.544-39.856 32.569-46.976l0.346-0.114v-36.405h-317.369v183.737c0 27.672-22.433 50.105-50.105 50.105s-50.105-22.433-50.105-50.105v0-183.737h-16.719c-27.677 0-50.114-22.437-50.114-50.114s22.437-50.114 50.114-50.114h16.719v-567.914h-16.719c-27.638-0.1-50.015-22.483-50.105-50.114v-33.413c0-9.216 7.486-16.702 16.702-16.702h250.562c9.22 0.010 16.692 7.482 16.702 16.701v33.405c-0.090 27.64-22.467 50.023-50.096 50.123h-66.835v567.914h317.369v-113.593c-107.602-36.171-183.734-136.12-183.734-253.85 0-14.934 1.225-29.583 3.58-43.85l-0.212 1.552c21.116-128.314 131.217-225.002 263.901-225.002 147.606 0 267.264 119.658 267.264 267.264 0 117.748-76.145 217.711-181.88 253.335l-1.884 0.551v113.593h300.668c27.275 0.528 49.182 22.763 49.182 50.114s-21.908 49.586-49.133 50.113l-0.049 0.001zM510.129 817.576h133.632c8.897-0.422 15.951-7.738 15.951-16.702s-7.054-16.28-15.914-16.7l-0.038-0.001h-133.632c-9.224 0-16.702 7.478-16.702 16.702s7.478 16.702 16.702 16.702v0zM627.059 750.751v-33.404h-100.228v33.404h100.228zM109.25 901.085c0.422 8.897 7.738 15.951 16.702 15.951s16.28-7.054 16.7-15.914l0.001-0.038v-183.737h-33.404v183.737zM242.882 15.784c9.216 0 16.702-7.468 16.702-16.702v-16.702h-217.159v16.702c0 9.234 7.486 16.702 16.702 16.702h183.755zM109.25 49.205v567.914h33.404v-567.914h-33.404zM576.953 15.784c-129.095 0.159-233.719 104.748-233.86 233.86v0.989c8.457-3.143 16.243-7.892 22.881-14.018 15.846-14.704 37.144-23.726 60.548-23.726s44.702 9.022 60.605 23.778l-0.057-0.052c10.167 10.122 24.188 16.379 39.671 16.379s29.504-6.257 39.673-16.381l-0.002 0.002c15.849-14.705 37.149-23.727 60.557-23.727s44.709 9.022 60.614 23.779l-0.057-0.052c10.167 10.122 24.188 16.379 39.671 16.379s29.504-6.257 39.673-16.381l-0.002 0.002c11.308-10.113 25.133-17.655 40.411-21.57l0.673-0.146c-17.598-113.203-114.258-198.861-230.973-199.115h-0.027zM810.796 249.644v-1.006c-8.902 3.4-16.555 8.147-23.122 14.075l0.064-0.057c-15.846 14.704-37.144 23.726-60.548 23.726s-44.702-9.022-60.605-23.778l0.057 0.052c-10.175-10.105-24.194-16.35-39.671-16.35s-29.497 6.245-39.674 16.354l0.003-0.003c-15.846 14.704-37.144 23.726-60.548 23.726s-44.702-9.022-60.605-23.778l0.057 0.052c-10.175-10.105-24.194-16.35-39.671-16.35s-29.497 6.245-39.674 16.354l0.003-0.003c-11.234 10.251-25.092 17.82-40.445 21.584l-0.639 0.132c14.435 92 80.552 165.452 167.213 190.374l1.658 0.408c7.074 2.029 12.166 8.433 12.182 16.029v125.936h100.228v-125.934c0.016-7.598 5.108-14.002 12.064-16.002l0.118-0.029c99.635-28.408 171.388-118.557 171.555-225.49v-0.019zM961.13 650.522h-902.003c-8.897 0.422-15.951 7.738-15.951 16.702s7.054 16.28 15.914 16.7l0.038 0.001h902.003c9.224 0 16.702-7.478 16.702-16.702s-7.478-16.702-16.702-16.702v0z" />
<glyph unicode="&#xe907;" glyph-name="8" d="M928.468-64.194h-844.094c-9.318 0.010-16.868 7.561-16.878 16.877v67.532c0.050 46.601 37.809 84.367 84.404 84.427h523.341v438.925c0.303 9.093 7.748 16.35 16.887 16.35s16.584-7.256 16.886-16.322l0.001-0.028v-438.925h101.288v438.925c0.424 8.993 7.819 16.124 16.878 16.124s16.454-7.131 16.877-16.086l0.001-0.038v-438.925h16.878c46.604-0.060 84.367-37.824 84.427-84.421v-67.537c-0.010-9.324-7.571-16.878-16.896-16.878 0 0 0 0 0 0v0zM911.59 20.215c0 0.005 0 0.011 0 0.018 0 27.965-22.67 50.635-50.635 50.635-0.006 0-0.012 0-0.019 0h-709.031c-21.839-0.095-40.408-13.996-47.434-33.422l-0.111-0.353h131.955c0.163 0.006 0.354 0.009 0.546 0.009 9.322 0 16.878-7.557 16.878-16.878s-7.557-16.878-16.878-16.878c-0.192 0-0.383 0.003-0.574 0.010l0.028-0.001h-135.062v-33.792h810.337v50.653zM303.846 37.094h67.531c0.163 0.006 0.354 0.009 0.546 0.009 9.322 0 16.878-7.557 16.878-16.878s-7.557-16.878-16.878-16.878c-0.192 0-0.383 0.003-0.574 0.010l0.028-0.001h-67.531c-0.163-0.006-0.354-0.009-0.546-0.009-9.322 0-16.878 7.557-16.878 16.878s7.557 16.878 16.878 16.878c0.192 0 0.383-0.003 0.574-0.010l-0.028 0.001zM759.649 290.322c9.322 0 16.878-7.556 16.878-16.878v-101.288c0.011-0.231 0.018-0.501 0.018-0.772 0-9.331-7.565-16.896-16.896-16.896s-16.896 7.565-16.896 16.896c0 0.272 0.006 0.542 0.019 0.81l-0.001-0.038v101.288c0 9.322 7.556 16.878 16.878 16.878zM742.771 543.567c0.424 8.993 7.819 16.124 16.878 16.124s16.454-7.131 16.877-16.086l0.001-0.038v-185.697c0-9.322-7.557-16.878-16.878-16.878s-16.878 7.557-16.878 16.878v0 185.697zM860.937 594.202h-337.638v-298.249c0-0.005 0-0.011 0-0.018 0-83.895-68.010-151.905-151.905-151.905-0.006 0-0.012 0-0.018 0h0.001c-0.011 0-0.023 0-0.035 0-83.895 0-151.905 68.010-151.905 151.905 0 0.006 0 0.012 0 0.019v-0.001 298.249h-33.774c-46.1 0.688-83.206 38.22-83.206 84.418s37.107 83.73 83.142 84.417l0.065 0.001h33.774v50.635c-37.291 0-67.522 30.231-67.522 67.522s30.231 67.522 67.522 67.522h303.863c37.291 0 67.522-30.231 67.522-67.522s-30.231-67.522-67.522-67.522v0-50.635h337.638c46.1-0.688 83.206-38.22 83.206-84.418s-37.107-83.73-83.142-84.417l-0.065-0.001zM253.193 295.954c0-65.266 52.909-118.175 118.175-118.175s118.175 52.909 118.175 118.175v0 196.078c-14.927-6.461-32.31-10.219-50.571-10.219-29.285 0-56.313 9.665-78.067 25.98l0.338-0.242c-15.826 11.869-35.795 19.006-57.432 19.006-18.74 0-36.229-5.354-51.021-14.616l0.403 0.236v-216.223zM253.193 549.623c15.042 6.596 32.574 10.435 51.002 10.435 29.11 0 55.983-9.579 77.639-25.756l-0.341 0.244c15.753-11.767 35.611-18.841 57.121-18.841 18.875 0 36.477 5.447 51.322 14.854l-0.393-0.232v63.876h-236.35v-44.579zM557.074 881.187c0 18.653-15.121 33.774-33.774 33.774h-303.863c-18.177-0.606-32.682-15.488-32.682-33.757s14.505-33.15 32.627-33.755l0.055-0.001h118.166c9.093-0.303 16.35-7.748 16.35-16.887s-7.256-16.584-16.322-16.886l-0.028-0.001h-84.409v-50.635h236.35v50.635h-50.653c-9.327 0-16.887 7.561-16.887 16.887s7.561 16.887 16.887 16.887v0h84.409c18.641 0 33.754 15.101 33.774 33.737v0.002zM860.937 729.265h-675.275c-27.565-0.531-49.707-23.002-49.707-50.644s22.142-50.113 49.657-50.643l0.050-0.001h675.275c27.97 0 50.644 22.674 50.644 50.644s-22.674 50.644-50.644 50.644v0zM759.649 661.734c-9.322 0-16.878 7.557-16.878 16.878s7.557 16.878 16.878 16.878v0c9.322 0 16.878-7.557 16.878-16.878s-7.557-16.878-16.878-16.878v0zM422.012 661.734h-236.35c-9.322 0-16.878 7.557-16.878 16.878s7.557 16.878 16.878 16.878h236.35c9.322 0 16.878-7.557 16.878-16.878s-7.557-16.878-16.878-16.878v0zM320.724 459.158c9.322 0 16.878-7.557 16.878-16.878s-7.557-16.878-16.878-16.878v0c-9.322 0-16.878 7.557-16.878 16.878s7.557 16.878 16.878 16.878v0zM320.724 374.731c-0.010-9.324-7.571-16.878-16.896-16.878-9.331 0-16.896 7.565-16.896 16.896 0 0.006 0 0.012 0 0.019v-0.001c0.010 9.324 7.571 16.878 16.896 16.878 9.331 0 16.896-7.565 16.896-16.896 0-0.006 0-0.012 0-0.019v0.001zM354.481 324.096c9.093-0.303 16.35-7.748 16.35-16.887s-7.256-16.584-16.322-16.886l-0.028-0.001c-9.314-0.010-16.861-7.563-16.861-16.878 0-9.322 7.557-16.878 16.878-16.878s16.878 7.557 16.878 16.878v0c0 9.322 7.557 16.878 16.878 16.878s16.878-7.557 16.878-16.878v0c0-27.975-22.678-50.653-50.653-50.653s-50.653 22.678-50.653 50.653c0 27.975 22.678 50.653 50.653 50.653v0zM371.377 357.87c-9.304 0.010-16.843 7.555-16.843 16.861 0 9.312 7.549 16.861 16.861 16.861s16.861-7.549 16.861-16.861v0c0-9.312-7.549-16.861-16.861-16.861-0.006 0-0.012 0-0.019 0h0.001zM827.18 796.796c-0.005 0-0.011 0-0.018 0-9.312 0-16.861 7.549-16.861 16.861 0 0.006 0 0.012 0 0.019v-0.001 50.653c-0.531 27.565-23.002 49.707-50.644 49.707s-50.113-22.142-50.643-49.657l-0.001-0.050v-50.653c0-9.327-7.561-16.887-16.887-16.887s-16.887 7.561-16.887 16.887v50.653c0 46.618 37.791 84.409 84.409 84.409s84.409-37.791 84.409-84.409v0-50.653c0-0.005 0-0.011 0-0.018 0-9.312-7.549-16.861-16.861-16.861-0.006 0-0.012 0-0.019 0h0.001z" />
<glyph unicode="&#xe908;" glyph-name="9" d="M978.024 530.875l-0.347-200.739-0.312-234.722c0.226-83.083-66.89-150.597-149.921-150.823l-0.469 0.052c-82.927-0.017-150.216 67.133-150.441 150.094l0.382 257.128 0.017 0.052 0.26 178.141c-16.106 1.701-28.828 14.822-28.898 31.397l-0.121 53.63c0 0.026 0 0.056 0 0.087 0 17.713 14.32 32.081 32.014 32.16l132.78 0.365v200.912c-0.607 43.973-36.387 79.388-80.443 79.403h-0.002c-44.054-0.016-79.83-35.433-80.427-79.347l-0.001-0.056v-44.067c0-0.005 0-0.011 0-0.017 0-63.942-51.825-115.779-115.762-115.799h-0.002c-63.929 0.020-115.747 51.849-115.747 115.781 0 0.012 0 0.024 0 0.037v-0.002 54.307c0 0.005 0 0.011 0 0.017 0 38.77-31.42 70.202-70.185 70.222h-0.002c-38.775-0.010-70.205-31.446-70.205-70.222 0-0.006 0-0.012 0-0.018v0.001-210.996l101.671 0.347c17.703 0 32.091-14.319 32.161-32.039l0.121-53.63c0-0.010 0-0.023 0-0.035 0-17.723-14.313-32.104-32.011-32.212h-0.010l-5.849-0.017v-122.672c69.806-35.729 119.418-102.333 131.051-181.297l0.16-1.322c0.017-0.139 0.139-0.226 0.156-0.364 1.649-11.559 2.465-23.205 2.482-34.868-0.087-135.064-109.481-244.562-244.476-244.684-9.363 0.058-18.524 0.63-27.535 1.69l1.154-0.11c-1.996 0.208-3.957 0.486-5.936 0.764-9.001 1.185-16.641 2.602-24.146 4.369l1.635-0.325c-1.093 0.243-2.187 0.434-3.263 0.694-8.852 2.169-17.529 4.79-25.999 7.897l-1.163 0.469c-7.984 2.985-15.742 6.404-23.326 10.171l-3.263 1.631c-17.020 8.863-31.694 18.733-45.138 30.021l0.377-0.308c-0.85 0.694-1.666 1.423-2.499 2.135-14.008 12.051-26.379 25.319-37.182 39.824l-0.463 0.65-0.295 0.364-0.486 0.746c-5.294 7.289-10.205 14.874-14.7 22.771-0.26 0.451-0.538 0.885-0.781 1.336-8.964 15.628-16.596 33.709-21.961 52.74l-0.411 1.706c-0.781 2.794-1.701 5.519-2.378 8.366-0.898 3.561-1.951 8.812-2.829 14.121l-0.191 1.395c-0.121 0.694-0.295 1.388-0.399 2.083-1.339 7.687-2.367 16.97-2.857 26.396l-0.025 0.592c-0.052 0.868-0.017 1.736-0.052 2.621-0.122 2.854-0.191 6.203-0.191 9.567 0 4.969 0.151 9.902 0.45 14.796l-0.033-0.672c0.104 1.736 0.191 3.471 0.33 5.224 1.371 17.408 4.599 34.504 9.563 51.044 0.33 1.059 0.469 2.169 0.816 3.228 0.069 0.26 0.33 0.382 0.417 0.625 20.439 63.222 64.141 114.017 120.771 143.292l1.363 0.641v121.821l-5.641-0.035c-17.706 0.039-32.055 14.357-32.143 32.048v0.008l-0.121 53.734c0 0.010 0 0.023 0 0.035 0 17.716 14.318 32.089 32.013 32.177l101.957 0.347v211.1c-0.017 0.677-0.026 1.474-0.026 2.274 0 54.857 44.471 99.328 99.328 99.328s99.328-44.471 99.328-99.328c0-0.8-0.009-1.597-0.028-2.392l0.002 0.118v-54.307c0-0.037 0-0.080 0-0.123 0-47.831 38.775-86.606 86.606-86.606 23.946 0 45.623 9.719 61.3 25.427l0.001 0.001c15.687 15.689 25.39 37.362 25.392 61.301v0 44.067c1.096 59.668 49.724 107.618 109.551 107.618s108.455-47.95 109.549-107.515l0.001-0.102v-200.825l132.391 0.347c17.711-0.019 32.072-14.337 32.161-32.031v-0.008l0.121-53.647c0.017-16.575-12.635-29.765-28.741-31.57zM55.747 236.379c-0.469-2.1-0.885-4.2-1.302-6.3-1.406-7.359-2.43-14.822-3.072-22.389-0.139-1.649-0.347-3.28-0.451-4.929-0.27-4.032-0.424-8.74-0.424-13.485 0-14.808 1.5-29.265 4.357-43.229l-0.236 1.382c0.226-1.163 0.573-2.291 0.816-3.454 1.649-7.602 3.697-15.082 6.144-22.441 0.66-1.961 1.388-3.905 2.1-5.849 2.43-6.63 5.172-13.138 8.227-19.491 0.92-1.874 1.788-3.766 2.742-5.623 3.506-6.769 7.394-13.329 11.594-19.699 0.746-1.128 1.406-2.308 2.169-3.419 10.309-14.996 22.563-28.689 36.552-40.786 1.354-1.18 2.812-2.239 4.2-3.384 6.914-5.721 14.595-11.269 22.629-16.306l0.906-0.53c6.179-3.818 12.514-7.272 18.953-10.396 1.77-0.868 3.489-1.805 5.276-2.621 16.627-7.532 34-12.878 51.721-15.985 1.874-0.312 3.784-0.469 5.675-0.746 6.89-1.007 13.815-1.753 20.775-2.1 2.673-0.121 5.346-0.139 8.018-0.156 6.318-0.087 12.635 0.121 18.953 0.59 2.742 0.208 5.484 0.417 8.192 0.746 6.63 0.746 13.208 1.892 19.751 3.263 2.187 0.469 4.408 0.798 6.578 1.336 8.713 2.117 17.339 4.686 25.808 7.914l0.903 0.399c7.949 3.089 15.759 6.751 23.396 10.83 2.343 1.25 4.599 2.655 6.89 3.992 9.019 5.252 16.693 10.453 23.995 16.11l-0.495-0.369c4.825 3.714 9.407 7.671 13.867 11.767 2.169 1.996 4.408 3.905 6.508 6.005 5.189 5.172 10.032 10.622 14.648 16.263 0.972 1.18 2.083 2.274 3.020 3.471 5.432 6.942 10.379 14.232 14.909 21.764 1.232 2.048 2.239 4.2 3.402 6.283 3.124 5.589 6.075 11.281 8.678 17.148 1.267 2.829 2.378 5.727 3.506 8.609 2.838 6.82 5.704 15.351 8.038 24.098l0.345 1.519c1.545 6.057 2.76 12.201 3.784 18.415 0.417 2.586 0.989 5.137 1.319 7.723 1.111 8.799 1.788 17.703 1.805 26.711 0 1.25-0.174 2.499-0.191 3.749-0.104 6.526-0.712 13.017-1.371 19.508-22.175 9.008-39.050 16.797-55.575 25.178l4.289-1.973-3.089 1.562c-22.198 11.195-45.125 22.754-66.091 17.998-14.278-4.634-26.564-11.925-36.85-21.362l0.073 0.066c-9.199-7.567-19.074-14.284-29.522-19.994-29.54-14.909-66.716-15.672-110.609-2.343-16.983 5.175-29.31 9.502-41.455 14.193l4.331-1.471c-16.449 6.837-36.074 12.959-56.344 17.348l-2.336 0.424c-8.467 1.546-18.223 2.442-28.183 2.465h-0.020c-0.694-2.673-1.614-5.276-2.222-8.001zM67.827 273.243c7.88-0.434 15.742-1.302 23.517-2.673 21.695-4.495 42.973-10.9 63.557-19.092 11.663-4.252 23.639-8.661 35.493-12.167 36.604-11.143 66.543-10.969 89.071 0.399 9.422 5.314 17.547 10.96 25.095 17.271l-0.259-0.211c13.367 12.059 29.554 21.266 47.434 26.51l0.867 0.218c31.050 7.064 59.999-7.532 85.53-20.393l3.037-1.441c10.257-5.137 21.244-9.528 31.952-14.232-17.426 61.776-60.23 111.23-116.146 137.238l-1.319 0.551c-5.057 2.359-8.5 7.398-8.504 13.242v130.934h-163.007v-130.951c-0.004-5.845-3.447-10.884-8.415-13.205l-0.090-0.038c-49.499-22.823-87.231-63.28-107.815-111.963zM146.224 615.224l0.121-53.682c0.174-1.597 1.441-2.846 3.037-3.020l232.639 0.798c1.67 0.010 3.020 1.366 3.020 3.037 0 0.006 0 0.012 0 0.018v-0.001l-0.121 53.647c-0.153 1.61-1.414 2.883-3.005 3.053l-0.015 0.001v-0.017l-232.656-0.816c-1.668 0-3.020-1.352-3.020-3.020v0zM948.901 530.128l-242.601-0.66-0.243-159.362c3.071 0.354 6.63 0.556 10.236 0.556 0.056 0 0.112 0 0.168 0h-0.009c3.732-0.052 7.428-0.434 11.108-0.816 3.922-0.295 7.741-1.076 11.611-1.788 2.326-0.469 4.669-0.833 6.977-1.423 9.304-2.437 17.372-5.504 25.008-9.309l-0.745 0.336c0.729-0.382 1.527-0.555 2.239-0.937 8.556-4.235 16.835-9.060 24.836-13.763 14.776-10.247 32.15-17.976 50.875-22.106l0.967-0.179c2.431-0.143 5.275-0.224 8.138-0.224 18.402 0 36.020 3.36 52.273 9.5l-1.018-0.338c13.347 3.836 26.589 7.671 39.884 11.542l0.295 188.971zM826.975-26.233h0.364c66.81 0.177 120.902 54.378 120.902 121.213 0 0.153 0 0.305-0.001 0.458v-0.024l0.295 215.318c-10.57-3.089-21.122-6.127-31.761-9.181-15.398-5.762-33.193-9.407-51.743-10.092l-0.307-0.009c-1.77-0.139-3.523-0.538-5.311-0.625-4.408 0-8.834 0.33-13.225 0.92l-0.798 0.017c-23.738 4.697-44.763 13.757-63.16 26.371l0.575-0.372c-5.781 3.599-13.317 7.84-21.015 11.811l-2.016 0.945c-6.865 3.675-14.822 6.627-23.202 8.445l-0.611 0.111c-1.093 0.226-2.187 0.555-3.298 0.729-2.708 0.486-5.45 0.694-8.209 0.937-3.662 0.243-7.324 0.503-11.004 0.26l-0.972-0.035c-2.152-0.156-4.287-0.781-6.439-1.111l-0.364-245.048c0.158-66.876 54.403-121.031 121.3-121.040h0.001zM977.66 616.005c0 0.005 0 0.011 0 0.018 0 1.694-1.363 3.070-3.053 3.089h-0.002v-0.052l-294.287-0.816c-1.673-0.010-3.028-1.364-3.037-3.036v-0.001l0.121-53.665c0.174-1.597 1.441-2.846 3.055-3.020l10.761 0.035c0.191 0 0.347 0.104 0.555 0.104l271.724 0.712c0.121 0 0.243-0.069 0.382-0.087l10.865 0.035c1.672 0.020 3.020 1.38 3.020 3.054 0 0 0 0 0 0v0l-0.104 53.63zM160.143 181.552c11.453-4.853 19.343-15.996 19.352-28.983v-0.001c0-0.019 0-0.041 0-0.063 0-17.302-14.026-31.327-31.327-31.327-12.999 0-24.148 7.917-28.89 19.192l-0.077 0.206c-1.506 3.542-2.381 7.662-2.381 11.986 0 17.321 14.041 31.362 31.362 31.362 4.315 0 8.426-0.871 12.167-2.448l-0.206 0.077zM274.901 90.815c11.438-4.855 19.314-15.991 19.314-28.967 0-17.305-14.008-31.338-31.303-31.379h-0.004c-0.015 0-0.033 0-0.051 0-17.311 0-31.345 14.034-31.345 31.345 0 8.673 3.522 16.523 9.214 22.198l0.001 0.001c5.671 5.68 13.51 9.194 22.171 9.194 4.331 0 8.457-0.879 12.209-2.468l-0.205 0.077zM384.069 193.631c11.462-4.843 19.359-15.992 19.359-28.984 0-17.329-14.048-31.378-31.378-31.378-4.337 0-8.468 0.88-12.225 2.471l0.206-0.077c-11.462 4.843-19.359 15.992-19.359 28.984 0 17.329 14.048 31.378 31.378 31.378 4.337 0 8.468-0.88 12.225-2.471l-0.206 0.077z" />
<glyph unicode="&#xe909;" glyph-name="10" d="M977.058 762.116l-46.709-81.992c-3.090-5.389-10.743-5.659-16.959-5.659h-80.339l-37.331-56.5c6.629-8.731 10.563-19.6 10.563-31.385 0-7.869-1.743-15.486-5.048-22.384l34.547-34.582c6.524 3.172 14.193 5.027 22.294 5.027 28.68 0 51.932-23.238 51.955-51.913v-0.002c-0.020-28.647-23.222-51.867-51.86-51.919h-0.005c-28.668 0.034-51.895 23.282-51.895 51.954 0 8.13 1.867 15.823 5.196 22.675l-0.135-0.309-34.547 34.582c-6.52-3.166-14.182-5.016-22.277-5.016-28.673 0-51.924 23.22-51.972 51.882v0.005c0.043 28.671 23.296 51.896 51.972 51.896 4.381 0 8.636-0.542 12.7-1.563l-0.358 0.076 34.78 52.458-36.577 65.033h-83.231c-6.338 0.007-11.88 3.411-14.903 8.49l-0.044 0.080-44.194 75.704-40.529 21.306c-9.192-8.582-21.573-13.851-35.184-13.851-0.009 0-0.019 0-0.028 0h0.001c-28.646 0.051-51.852 23.27-51.883 51.916v0.003c0.020 28.657 23.23 51.885 51.878 51.937h0.005c28.652-0.055 51.858-23.295 51.858-51.954 0-2.618-0.194-5.19-0.567-7.704l0.035 0.284 30.181-15.863 38.391 66.578c3.090 5.354 15.432 6.198 21.612 6.198h80.339c6.18 0 18.342-0.862 21.432-6.234l42.828-74.087h80.339c6.18 0 13.797-1.922 16.887-7.258l46.709-80.644c1.475-2.492 2.346-5.491 2.346-8.694 0-3.153-0.844-6.108-2.319-8.653l0.044 0.083zM858.166 465.426c9.322 0.31 16.76 7.941 16.76 17.309s-7.439 16.999-16.732 17.308l-0.028 0.001c-9.322-0.31-16.76-7.941-16.76-17.309s7.439-16.999 16.732-17.308l0.028-0.001zM754.419 603.9c-9.56 0-17.309-7.75-17.309-17.309s7.75-17.309 17.309-17.309v0c9.56 0 17.309 7.75 17.309 17.309s-7.75 17.309-17.309 17.309v0zM546.942 915.447c-9.322-0.31-16.76-7.941-16.76-17.309s7.439-16.999 16.732-17.308l0.028-0.001c9.322 0.31 16.76 7.941 16.76 17.309s-7.439 16.999-16.732 17.308l-0.028 0.001zM765.233 915.447h-73.441l-36.684-63.632 33.343-64.889h80.339l33.163 64.584-36.72 63.937zM897.329 835.144h-64.278l-37.906-63.596 36.864-65.536h73.261l36.828 64.62-44.769 64.512zM592.842 744.421v-71.86c0-10.689-7.294-17.965-17.965-17.965h-17.965v-179.649l216.028-424.942c5.776-10.579 9.172-23.172 9.172-36.559 0-42.726-34.598-77.37-77.305-77.447h-591.556c-42.715 0.076-77.313 34.721-77.313 77.447 0 13.387 3.396 25.98 9.374 36.965l-0.203-0.407 224.364 424.942v179.649h-17.965c-10.689 0-17.965 7.276-17.965 17.965v71.86c0 10.689 7.276 17.965 17.965 17.965h323.368c10.671 0 17.965-7.276 17.965-17.965zM79.189 31.735c-3.054-5.659-7.33-17.372-7.33-23.875 0-21.342 20.067-33.163 41.391-33.163h591.549c21.36 0.041 38.661 17.366 38.661 38.732 0 6.704-1.703 13.010-4.7 18.509l0.101-0.203-110.089 227.633h-431.158l-118.425-227.633zM215.579 295.298h395.228l-89.825 161.684c-1.455 2.785 0 14.839 0 17.965v179.649h-215.579v-179.649c0-3.126 0.395-11.048-1.042-13.833l-88.783-165.816zM556.912 726.456h-287.439v-35.93h287.439v35.93zM400.761 503.673c4.581 4.042 9.557 7.096 15.791 7.096 6.252 0 11.138-3.827 15.665-7.94 13.797-12.522 41.445-44.104 41.445-67.602 0-30.397-25.618-55.116-57.11-55.116-31.475 0-57.075 24.72-57.11 55.116-0.018 23.678 27.971 56.697 41.319 68.446zM416.57 412.771c13.492 0 24.468 9.36 24.486 20.839-0.216 6.413-11.39 34.547-24.468 44.84-12.611-9.324-24.289-38.445-24.486-44.84 0-11.48 10.977-20.839 24.468-20.839z" />
<glyph unicode="&#xe90a;" glyph-name="11" d="M853.299 618.633l0.034 0.034c-47.053 0-85.333 38.281-85.333 85.333s38.281 85.333 85.333 85.333c47.102-0.078 85.26-38.26 85.299-85.364v-0.004c0-47.053-38.281-85.333-85.333-85.333zM853.282 755.166c-28.25-0.058-51.134-22.949-51.183-51.195v-0.005c0-28.211 22.989-51.2 51.183-51.2 28.211 0 51.2 22.989 51.2 51.2 0 28.194-22.989 51.2-51.2 51.2zM708.233 840.499c-32.922 0-59.733 26.795-59.733 59.733 0 32.922 26.812 59.733 59.733 59.733 32.939 0 59.733-26.812 59.733-59.733 0-32.939-26.795-59.733-59.733-59.733zM708.233 925.815c-13.74-0.517-24.682-11.781-24.682-25.6s10.942-25.083 24.635-25.599l0.047-0.001c14.114 0 25.6 11.486 25.6 25.6s-11.486 25.6-25.6 25.6zM846.012 485.427c3.686-3.686 7.117-6.485 9.131-9.165l34.543-34.56c4.129-3.899 6.699-9.411 6.699-15.523 0-11.782-9.551-21.333-21.333-21.333-6.112 0-11.624 2.57-15.513 6.689l-29.808 29.808-453.035-455.39c-30.741-30.86-73.273-49.955-120.265-49.955-0.151 0-0.303 0-0.454 0.001h0.023c-94.123 0-170.667 76.544-170.667 170.667 0 45.568 17.749 88.439 49.954 120.695l317.901 316.262c0.785 1.161 1.28 2.441 2.304 3.465 1.502 1.502 3.072 2.458 4.625 3.43l130.56 129.877-29.798 29.798c-3.708 3.833-5.993 9.062-5.993 14.825 0 11.782 9.551 21.333 21.333 21.333 5.759 0 10.984-2.282 14.822-5.99l35.441-35.459c2.441-2.065 4.966-4.915 8.277-8.226 0.034-0.034 0.034-0.085 0.085-0.119l211.166-211.132zM153.429 20.378c55.262-65.724 142.473-61.406 204.971 0.956l256 256c-38.963-0.649-85.333 34.133-85.333 34.133-62.037 44.254-136.533-17.067-136.533-17.067-27.017-15.633-67.362-19.337-102.4 0 0 0-9.455 6.554-18.91 15.223l-100.557-100.557c-70.912-71.049-54.665-144.162-17.237-188.689zM616.329 654.729l-121.395-121.395 51.2-51.2c8.329-8.329 10.564-19.61 2.236-27.921-3.864-3.848-9.193-6.228-15.078-6.228s-11.215 2.379-15.079 6.228l-51.199 51.199-172.169-172.151c19.183-16.794 55.023-36.693 97.69-4.727 0 0 76.527 60.365 153.6 17.067 0 0 55.33-62.003 119.467-17.067l138.462 138.462-187.733 187.733zM290.116 106.667c0-18.807-15.326-34.133-34.116-34.133-18.807 0-34.133 15.326-34.133 34.133s15.326 34.133 34.133 34.133c18.79 0 34.116-15.326 34.116-34.133zM392.516 226.133c18.807 0 34.133-15.326 34.133-34.133s-15.326-34.133-34.133-34.133c-18.807 0-34.133 15.326-34.133 34.133s15.326 34.133 34.133 34.133z" />
<glyph unicode="&#xe90b;" glyph-name="12" d="M926.279 956.204c-26.573-3.283-49.015-18.526-62.058-40.089l-0.211-0.376-64.847-108.067-101.041-101.023v83.191c19.947 7.174 33.968 25.898 34.039 47.907v85.072c-0.030 18.784-15.254 34.001-34.037 34.022h-374.362c-18.777-0.030-33.991-15.244-34.022-34.019v-85.066c0.074-22.012 14.085-40.732 33.666-47.804l0.355-0.112v-457.481l-308.1-308.083c-9.361-9.356-15.152-22.284-15.152-36.565 0-28.458 22.996-51.546 51.419-51.694h0.208c0.020 0 0.043 0 0.066 0 14.28 0 27.202 5.812 36.53 15.199l235.029 235.011v-63.047c0-103.371 83.809-187.162 187.18-187.162s187.18 83.791 187.18 187.162v437.354l174.115 174.080 108.085 64.83c24.783 15.078 41.082 41.941 41.082 72.611 0 23.432-9.514 44.642-24.89 59.978l-0.002 0.002c-15.256 15.338-36.376 24.83-59.712 24.83-3.709 0-7.361-0.24-10.943-0.704l0.423 0.045zM476.919 735.673c-0.010 9.396-7.624 17.010-17.019 17.020h-34.040c-9.070-0.426-16.262-7.883-16.262-17.020s7.192-16.594 16.224-17.018l0.038-0.001h17.020v-136.104h-17.020c-0.163 0.006-0.355 0.009-0.548 0.009-9.4 0-17.020-7.62-17.020-17.020s7.62-17.020 17.020-17.020c0.193 0 0.385 0.003 0.576 0.010l-0.028-0.001h17.020v-136.121h-17.020c-9.070-0.426-16.262-7.883-16.262-17.020s7.192-16.594 16.224-17.018l0.038-0.001h17.020v-51.023h-85.080v459.37h306.3v-459.37h-187.18v408.329zM323.761 922.818h374.36v-85.063c0-9.4-7.62-17.020-17.020-17.020v0h-340.321c-9.396 0.010-17.010 7.624-17.020 17.019v85.064zM64.671-24.717c-3.199-3.227-7.634-5.225-12.535-5.226h-0.071c-9.638 0.156-17.411 7.928-17.567 17.552v0.015c0 0.026 0 0.058 0 0.089 0 4.887 1.992 9.309 5.207 12.498l284.055 284.020v-49.876l-259.090-259.072zM510.941-29.943c-84.535 0.090-153.040 68.59-153.141 153.114v170.153h85.080v-51.041h-17.020c-9.070-0.426-16.262-7.883-16.262-17.020s7.192-16.594 16.224-17.018l0.038-0.001h17.020v-136.104h-17.020c-9.070-0.426-16.262-7.883-16.262-17.020s7.192-16.594 16.224-17.018l0.038-0.001h34.039c9.396 0.010 17.010 7.624 17.020 17.019v238.205h187.18v-170.143c-0.11-84.535-68.62-153.033-153.15-153.123h-0.009zM698.121 608.644v49.876l114.688 114.67 24.947-24.929-139.635-139.617zM987.012 865.863c-1.965-15.891-11.082-29.311-23.98-37.108l-0.225-0.126-98.304-58.986-30.296 30.296 58.986 98.304c9.040 14.808 25.11 24.542 43.454 24.542 28.023 0 50.741-22.718 50.741-50.741 0-2.172-0.137-4.313-0.401-6.413l0.026 0.25v-0.018z" />
<glyph unicode="&#xe90c;" glyph-name="13" d="M512-48.924c-274.034 0-497.038 222.948-497.038 496.981s223.004 496.981 497.038 496.981 497.038-222.948 497.038-496.981-223.004-496.981-497.038-496.981zM512 854.699c-224.199 0-406.642-182.386-406.642-406.642s182.443-406.642 406.642-406.642 406.642 182.386 406.642 406.642c0 224.256-182.443 406.642-406.642 406.642zM474.738 272.327c-8.177-8.193-19.482-13.262-31.972-13.262s-23.794 5.069-31.971 13.261l-149.050 149.107c-8.175 8.175-13.231 19.469-13.231 31.943 0 24.949 20.225 45.174 45.174 45.174 12.475 0 23.768-5.056 31.943-13.231l117.134-117.134 255.602 255.602c8.177 8.17 19.47 13.223 31.943 13.223 24.96 0 45.194-20.234 45.194-45.194 0-12.487-5.064-23.792-13.251-31.971l-287.517-287.517z" />
<glyph unicode="&#xe90d;" glyph-name="14" d="M971.748 370.121c-57.731 0-87.538 33.654-111.505 60.693-21.338 24.106-38.22 43.146-72.455 43.146s-51.089-19.013-72.427-43.119c-23.967-27.067-53.774-60.72-111.505-60.72-57.759 0-87.566 33.654-111.505 60.72-21.338 24.106-38.22 43.119-72.427 43.119-34.235 0-51.089-19.013-72.427-43.119-23.967-27.067-53.774-60.72-111.478-60.72-57.759 0-87.566 33.654-111.505 60.72-21.338 24.106-38.192 43.119-72.427 43.119-0.439-0.026-0.952-0.042-1.469-0.042-14.368 0-26.015 11.647-26.015 26.015s11.647 26.015 26.015 26.015c0.517 0 1.030-0.015 1.539-0.045l-0.070 0.003c57.731 0 87.538-33.654 111.478-60.72 21.366-24.106 38.22-43.146 72.455-43.146 34.207 0 51.062 19.041 72.427 43.146 23.939 27.067 53.746 60.72 111.478 60.72s87.538-33.654 111.478-60.72c21.366-24.106 38.22-43.146 72.455-43.146s51.089 19.041 72.427 43.146c23.967 27.067 53.774 60.72 111.505 60.72 57.759 0 87.566-33.654 111.505-60.72 21.366-24.106 38.22-43.146 72.455-43.146 14.391 0 26.043-11.624 26.043-25.96-0.031-14.344-11.667-25.96-26.015-25.96-0.010 0-0.020 0-0.029 0h0.002z" />
<glyph unicode="&#xe90e;" glyph-name="15" d="M52.252 370.121c57.731 0 87.538 33.654 111.505 60.693 21.338 24.106 38.192 43.146 72.455 43.146 34.235 0 51.089-19.013 72.427-43.119 23.967-27.067 53.774-60.72 111.505-60.72 57.759 0 87.538 33.654 111.505 60.72 21.338 24.106 38.192 43.119 72.427 43.119s51.089-19.013 72.427-43.119c23.939-27.067 53.746-60.72 111.478-60.72s87.538 33.654 111.505 60.72c21.338 24.106 38.192 43.119 72.427 43.119 0.439-0.026 0.952-0.042 1.469-0.042 14.368 0 26.015 11.647 26.015 26.015s-11.647 26.015-26.015 26.015c-0.517 0-1.030-0.015-1.539-0.045l0.070 0.003c-57.731 0-87.538-33.654-111.505-60.72-21.338-24.106-38.192-43.146-72.427-43.146-34.207 0-51.062 19.041-72.427 43.146-23.939 27.067-53.746 60.72-111.478 60.72s-87.538-33.654-111.478-60.72c-21.366-24.106-38.22-43.146-72.455-43.146s-51.089 19.041-72.455 43.146c-23.939 27.067-53.746 60.72-111.478 60.72-57.759 0-87.566-33.654-111.505-60.72-21.366-24.106-38.22-43.146-72.455-43.146-0.008 0-0.018 0-0.028 0-14.348 0-25.984-11.616-26.015-25.957v-0.003c0.031-14.344 11.667-25.96 26.015-25.96 0.010 0 0.020 0 0.029 0h-0.002z" />
<glyph unicode="&#xe90f;" glyph-name="16" d="M950.649 161.118h-172.787v-172.733c0 0 0 0 0 0 0-19.090-15.46-34.57-34.544-34.6h-483.762c-19.086 0.031-34.547 15.51-34.547 34.6v0 172.733h-172.733c-19.080 0-34.547 15.467-34.547 34.547v0 449.213c0 19.079 15.468 34.547 34.547 34.547h172.733v207.279c0 0.016 0 0.035 0 0.054 0 19.050 15.443 34.493 34.493 34.493 0.019 0 0.038 0 0.057 0h483.756c0.016 0 0.035 0 0.054 0 19.050 0 34.493-15.443 34.493-34.493 0-0.019 0-0.038 0-0.057v0.003-207.279h172.787c19.079 0 34.547-15.468 34.547-34.547v-449.213c0-19.080-15.467-34.547-34.547-34.547v0zM294.104 22.932h414.666v310.973h-414.666v-310.973zM708.77 852.157h-414.666v-172.733h414.666v172.733zM916.049 610.277h-829.224v-380.012h138.186v103.64h-34.547c-19.080 0-34.547 15.467-34.547 34.547s15.467 34.547 34.547 34.547h621.945c19.080 0 34.547-15.467 34.547-34.547s-15.467-34.547-34.547-34.547v0h-34.547v-103.64h138.186v380.012zM812.409 472.091c-19.080 0-34.547 15.467-34.547 34.547s15.467 34.547 34.547 34.547v0h34.547c19.080 0 34.547-15.467 34.547-34.547s-15.467-34.547-34.547-34.547v0h-34.547zM605.076 91.971h-207.279c-18.513 0.754-33.235 15.944-33.235 34.573s14.722 33.82 33.167 34.571l0.068 0.002h207.279c19.094 0 34.573-15.479 34.573-34.573s-15.479-34.573-34.573-34.573v0zM605.076 195.665h-207.279c-19.080 0-34.547 15.467-34.547 34.547s15.467 34.547 34.547 34.547v0h207.279c19.080 0 34.547-15.467 34.547-34.547s-15.467-34.547-34.547-34.547v0z" />
<glyph unicode="&#xe910;" glyph-name="17" d="M104.502-56.563v738.681l260.904 277.935h553.229v-1016.616h-814.134zM342.232 843.21l-115.443-123.257h115.443v123.257zM855.633 896.566h-450.237v-240.155h-237.945v-649.432h688.182v889.587zM386.156 286.208c3.449 6.306 7.114 13.15 10.563 19.941 43.224 86.016 40.583 195.045 35.085 252.605-1.446 7.405-2.89 17.326-3.951 27.362l-0.145 1.687c-1.132 8.3-2.533 20.318 7.222 31.582 5.897 6.719 14.501 10.938 24.090 10.941v0c10.671 0 28.941-4.365 33.037-33.846 1.078-7.707 2.533-18.378 3.611-31.043 9.593-55.727 35.247-162.223 98.196-234.819 5.497-6.36 10.833-12.342 16.061-18.055 61.494-4.473 163.732-24.037 190.248-72.003 4.222-7.442 6.71-16.347 6.71-25.833 0-9.602-2.549-18.609-7.008-26.38l0.137 0.259c-12.055-22.083-35.111-36.813-61.606-36.813-0.207 0-0.414 0.001-0.62 0.003h0.032c-41.822 0-93.13 31.798-156.564 97.226-23.121 0.323-132.958-13.42-152.145-18.163-52.547-91.459-100.675-136.030-146.971-136.030-19.133 0-36.648 7.761-50.661 22.69-9.451 9.739-15.278 23.041-15.278 37.704 0 5.286 0.757 10.396 2.169 15.226l-0.096-0.383c13.366 48.613 92.699 92.753 167.882 116.143zM734.531 216.63c-9.128 5.064-19.763 9.635-30.874 13.135l-1.247 0.339c16.384-10.132 26.786-12.881 32.121-13.474zM526.983 311.431c-14.006 19.010-27.1 40.56-38.233 63.248l-1.11 2.504c-5.712-28.233-13.189-52.865-22.696-76.461l1.030 2.895c4.365 0.701 53.895 7.168 61.009 7.815zM320.404 187.203c-17.785-10.617-29.588-20.426-35.571-27.325 6.791 1.617 19.025 9.27 35.571 27.325z" />
<glyph unicode="&#xe911;" glyph-name="18" d="M909.751 379.051l-275.846-275.797-68.949 68.949 227.035 227.035h-791.991v97.524h792.040l-227.084 227.084 68.949 68.998 344.795-344.795-68.949-68.998zM828.952 459.849v-23.65l11.8 11.8-11.8 11.849z" />
<glyph unicode="&#xe912;" glyph-name="19" d="M1024 399.238h-791.991l227.035-227.035-68.949-68.949-344.795 344.795 344.795 344.795 68.949-68.998-227.084-227.084h792.040v-97.524zM183.198 448l11.849-11.8v23.65l-11.849-11.849z" />
<glyph unicode="&#xe913;" glyph-name="20" d="M1021.065 573.542c-6.376 21.065-24.509 36.583-46.584 39.026l-0.247 0.022-295.799 27.921-116.873 285.082c-8.094 20.268-27.458 34.374-50.147 34.611h-0.029c-22.703-0.227-42.053-14.341-49.979-34.244l-0.129-0.367-116.873-285.082-295.868-27.921c-22.292-2.538-40.391-18.024-46.728-38.657l-0.103-0.391c-1.713-5.246-2.701-11.282-2.701-17.549 0-16.856 7.145-32.043 18.572-42.698l223.608-204.286-65.877-302.558c-0.909-3.833-1.43-8.233-1.43-12.755 0-18.585 8.799-35.114 22.458-45.65l0.134-0.099c8.744-6.772 19.867-10.855 31.944-10.855 10.355 0 20.008 3.002 28.138 8.183l-0.212-0.126 255.044 158.925 255.044-158.925c7.92-5.036 17.57-8.027 27.918-8.027 12.075 0 23.199 4.071 32.074 10.916l-0.122-0.091c13.82 10.661 22.635 27.225 22.635 45.849 0 4.486-0.511 8.853-1.479 13.045l0.076-0.389-65.946 302.558 223.573 204.254c11.462 10.687 18.607 25.874 18.607 42.73 0 6.267-0.988 12.304-2.816 17.962l0.115-0.413z" />
<glyph unicode="&#xe914;" glyph-name="21" d="M895.386 401.408c-12.493-33.638-32.461-66.56-59.29-97.69l-297.011-348.57c-6.521-7.646-16.163-12.464-26.931-12.464s-20.41 4.817-26.89 12.414l-0.041 0.049-297.062 348.672c-26.726 30.925-46.746 63.846-59.29 97.843-47.053 124.262-29.286 264.909 47.565 376.013 77.21 111.718 199.578 175.718 335.718 175.718s258.56-64 335.77-175.718c76.851-111.104 94.566-251.75 47.462-376.269zM789.709 737.485c-63.795 92.314-164.966 145.254-277.555 145.254-112.538 0-213.709-52.941-277.555-145.254-63.642-92.006-78.387-208.333-39.475-311.091 9.677-26.214 25.395-51.917 46.694-76.544l270.336-317.286 270.182 317.082c0.062 0.058 0.113 0.125 0.152 0.201l0.002 0.004c21.35 24.678 37.018 50.33 46.643 76.288 39.014 103.014 24.218 219.341-39.424 311.347zM512.154 347.955c-109.298 0.058-197.896 88.602-198.042 197.874v0.014c0.146 109.286 88.744 197.83 198.036 197.888h0.006c109.297-0.087 197.889-88.608 198.093-197.868v-0.020c-0.175-109.292-88.785-197.83-198.087-197.888h-0.005zM512.154 673.024c-70.259-0.029-127.218-56.934-127.334-127.17v-0.011c0.146-70.246 57.081-127.145 127.326-127.232h0.008c70.254 0.087 127.189 56.986 127.334 127.218v0.014c-0.117 70.247-57.075 127.152-127.332 127.181h-0.003z" />
<glyph unicode="&#xe915;" glyph-name="22" d="M512-46.524c-1.718-0.021-3.746-0.034-5.777-0.034-273.193 0-494.66 221.467-494.66 494.66s221.467 494.66 494.66 494.66c2.055 0 4.108-0.013 6.157-0.038l-0.312 0.003c270.668-3.3 488.815-223.487 488.815-494.626 0-271.162-218.186-491.364-488.575-494.624l-0.309-0.003zM512 836.369c-1.52 0.021-3.316 0.034-5.114 0.034-214.453 0-388.301-173.848-388.301-388.301s173.848-388.301 388.301-388.301c1.822 0 3.641 0.013 5.458 0.038l-0.275-0.003c214.438 0.019 388.267 173.86 388.267 388.301 0 214.453-173.848 388.301-388.301 388.301-0.012 0-0.024 0-0.036 0h0.002zM556.442 256.512l-104.038 81.101c-10.041 8.271-17.465 19.388-21.054 32.112l-0.109 0.451c-11.159 11.66-18.059 27.474-18.159 44.9v197.789c0 36.421 29.525 65.946 65.946 65.946s65.946-29.525 65.946-65.946v0-180.156l92.57-72.090c14.644-12.195 23.896-30.433 23.896-50.833 0-36.458-29.555-66.014-66.014-66.014-14.662 0-28.208 4.78-39.164 12.867l0.181-0.127z" />
<glyph unicode="&#xe916;" glyph-name="23" d="M511.989 956.174c-194.684 0-353.077-158.484-353.077-353.269 0-244.837 353.426-663.057 353.426-663.057s352.751 430.26 352.751 663.057c0 194.785-158.394 353.269-353.1 353.269zM618.53 499.459c-27.189-27.231-64.774-44.077-106.293-44.077-0.087 0-0.175 0-0.262 0h0.014c-0.074 0-0.161 0-0.249 0-41.512 0-79.088 16.846-106.267 44.075l-0.002 0.002c-58.751 58.773-58.751 154.399 0 213.183 27.114 27.268 64.654 44.145 106.136 44.145 0.134 0 0.269 0 0.403-0.001h-0.021c40.251 0 78.083-15.686 106.541-44.145 58.739-58.784 58.739-154.41 0-213.183z" />
<glyph unicode="&#xe917;" glyph-name="24" d="M947.2-38.298c-23.603 0-46.797 1.741-69.99 3.533-6.349-1.126-12.493-3.533-18.995-3.533-3.482 0-7.014 0.154-10.496 0.461-226.694 21.519-426.815 120.947-576.394 270.833l-0.015 0.015c-73.941 73.793-135.602 159.854-181.676 254.878l-2.439 5.577c-44.964 92.080-75.804 199.22-86.45 312.235l-0.283 3.72c-0.323 3.223-0.507 6.966-0.507 10.752 0 63.114 51.164 114.278 114.278 114.278 0.016 0 0.033 0 0.049 0h192.919c42.342 0 76.8-34.406 76.8-76.8 0-26.419 2.56-52.48 6.195-78.336 3.328-15.514 7.117-30.925 11.776-46.029 2.918-9.574 4.301-19.302 4.71-28.979 2.048-7.066 2.918-14.387 5.222-21.402 2.323-7.034 3.663-15.13 3.663-23.539 0-21.376-8.658-40.73-22.659-54.746l0.001 0.001-60.416-80.333c64.666-104.192 154.778-192.051 262.554-251.034l62.157 62.208c20.664 20.581 49.166 33.306 80.641 33.306 12.042 0 23.649-1.863 34.549-5.316l-0.809 0.221c28.703-9.174 62.637-16.479 97.56-20.542l2.588-0.245c33.946-3.84 61.594-23.296 79.718-49.766 40.355-2.146 72.297-35.267 72.55-75.905v-178.713c0-42.342-34.458-76.8-76.8-76.8zM756.326 273.254c-2.395 0.818-5.154 1.29-8.023 1.29-7.037 0-13.411-2.839-18.039-7.435l0.001 0.001-126.054-95.488c-4.244-3.243-9.625-5.197-15.462-5.197-4.242 0-8.243 1.032-11.765 2.858l0.143-0.067c-150.221 77.005-242.432 169.216-318.362 318.362-1.762 3.395-2.796 7.411-2.796 11.669 0 0.722 0.030 1.438 0.088 2.145l-0.006-0.093c-6.862 11.141-15.204 26.087-23.055 41.327l-2.033 4.343-12.186 24.474 101.222 101.171c6.822 6.927 11.034 16.441 11.034 26.938 0 4.111-0.646 8.072-1.842 11.785l0.076-0.272c-10.412 32.616-18.706 71.182-23.324 110.87l-0.279 2.947c-2.281 19.001-18.304 33.588-37.734 33.588-0.090 0-0.18 0-0.27-0.001h-153.381c-4.304-0.212-8.339-1.096-12.091-2.547l0.264 0.090c0.461-224.563 89.446-428.39 233.267-579.584 135.944-131.939 315.755-219.352 515.512-238.327l3.451-0.265c1.13-0.119 2.441-0.187 3.768-0.187 9.999 0 19.099 3.847 25.902 10.142l-0.025-0.023c7.653 6.907 12.443 16.862 12.443 27.935 0 0.097 0 0.194-0.001 0.291v-0.015 153.446c-0.149 6.538-1.955 12.624-5.011 17.894l0.096-0.179c-46.131 4.147-91.75 11.622-135.526 26.112zM972.8 75.981c0-22.118-6.861-43.418-18.637-61.696 10.758 3.022 18.532 12.698 18.637 24.206v37.49z" />
<glyph unicode="&#xe918;" glyph-name="25" d="M997.053 42.388v594.459l-485.053 323.261-485.053-323.261v-700.685h970.105v106.227zM916.211 103.936l-266.024 202.644 266.024 202.698v-405.342zM512 859.756l387.665-258.425-387.665-295.343-387.719 295.343 387.719 258.425zM107.789 509.278l265.971-202.644-265.971-202.698v405.342zM136.084 20.884l306.392 233.31 69.524-52.871 69.47 52.871 306.445-233.31h-751.832z" />
<glyph unicode="&#xe919;" glyph-name="26" d="M867.194 455.168c-30.319-88.198-85.704-163.528-139.219-236.366-52.892-71.903-31.477-43.72-186.947-266.774-6.469-9.228-17.056-15.186-29.035-15.186-11.998 0-22.6 5.977-28.99 15.116l-0.076 0.114c-154.802 222.030-133.209 193.625-186.902 266.73-53.56 72.838-108.945 148.124-139.264 236.366-43.943 127.822-24.932 254.264 53.426 356.040 70.497 90.565 179.347 148.409 301.728 148.925h0.085c122.449-0.53 231.28-58.371 301.124-148.066l0.644-0.859c78.358-101.777 97.369-228.218 53.426-356.040zM757.671 767.666h0.045c-57.428 73.688-146.026 120.759-245.637 121.232h-0.078c-99.695-0.445-188.304-47.525-245.192-120.535l-0.524-0.698c-63.265-82.187-78.358-184.854-42.518-289.169 26.802-77.958 78.893-148.881 129.291-217.355 39.179-53.337 27.603-37.265 158.943-226.438 131.428 189.351 119.719 173.101 158.943 226.438 50.354 68.474 102.445 139.398 129.247 217.355 35.84 104.27 20.747 206.982-42.518 289.169zM512 377.611c-109.39 0-198.389 89.444-198.389 199.324 0 109.924 88.999 199.279 198.389 199.279 109.345 0 198.344-89.355 198.344-199.279 0-109.88-88.999-199.324-198.344-199.324zM512 705.024c-70.452-0.253-127.466-57.423-127.466-127.91 0-0.063 0-0.126 0-0.189v0.010c0-0.053 0-0.116 0-0.179 0-70.487 57.014-127.657 127.442-127.91h0.024c70.432 0.278 127.421 57.439 127.421 127.91 0 0.063 0 0.126 0 0.189v-0.010c0 0.066 0 0.145 0 0.223 0 70.462-56.994 127.613-127.397 127.866h-0.024z" />
<glyph unicode="&#xe91a;" glyph-name="27" d="M1024.293 448.195l-292.864-292.571v243.614h-731.429v97.524h731.429v243.956l292.864-292.523z" />
<glyph unicode="&#xe91b;" glyph-name="28" d="M983.006 160.597l-53.623-93.696c-48.674-84.719-150.733-126.225-242.654-98.475-151.723 45.67-287.71 131.55-404.548 255.386-123.631 116.736-209.579 252.723-255.42 404.446-5.565 17.277-8.773 37.154-8.773 57.78 0 0.159 0 0.318 0.001 0.476v-0.025c0.345 78.441 42.877 146.871 106.064 183.807l1.012 0.547 93.696 53.658c13.12 7.6 28.866 12.085 45.659 12.085 33.997 0 63.701-18.381 79.716-45.748l0.236-0.436 77.551-124.621c25.122-43.861 11.981-98.031-29.696-124.553l-27.716-17.545c-4.198-2.833-6.178-7.987-4.369-12.186 29.696-74.342 127.386-177.22 128.205-178.176 0 0 105.847-100.489 181.248-130.97 4.369-1.843 9.557 0.171 12.356 4.335l17.545 27.511c16.578 25.75 45.098 42.561 77.544 42.561 16.877 0 32.691-4.548 46.284-12.486l-0.436 0.235 127.215-78.916c19.934-11.571 66.799-60.245 32.905-124.996zM908.22 215.415l-126.976 78.916c-3.618 1.98-10.001 0.58-12.971-4.198l-17.545-27.477c-16.529-25.806-45.054-42.665-77.516-42.665-12.297 0-24.029 2.419-34.746 6.808l0.612-0.222c-89.941 36.489-203.366 144.316-208.179 148.89-5.769 6.007-110.626 116.429-146.33 205.517-16.35 40.687-0.99 87.347 36.284 111.275l27.716 17.545c3.174 2.185 6.963 8.533 3.379 14.336l-77.551 124.621c-3.584 6.349-10.172 7.919-15.155 5.154l-93.696-53.623c-52.258-29.935-84.958-94.925-61.030-148.514 141.175-317.167 296.277-474.249 605.525-605.423 54.033-22.903 118.647 8.806 148.548 61.030l53.623 93.696c1.809 3.174 3.789 11.127-3.994 14.336zM787.797 562.108c0-22.596-18.125-40.721-40.653-40.721-0.020 0-0.044 0-0.068 0-22.433 0-40.619 18.186-40.619 40.619 0 0.036 0 0.072 0 0.108v-0.006c-0.097 47.516-38.6 86.007-86.111 86.084h-0.007c-22.528 0-40.687 18.125-40.687 40.653s18.159 40.687 40.687 40.687c92.41-0.155 167.284-75.017 167.458-167.407v-0.017zM922.59 521.387c-0.020 0-0.044 0-0.068 0-22.433 0-40.619 18.186-40.619 40.619 0 0.036 0 0.072 0 0.108v-0.006c0 144.111-117.214 261.325-261.393 261.325-0.025 0-0.055 0-0.085 0-22.443 0-40.636 18.193-40.636 40.636 0 22.413 18.145 40.587 40.546 40.636h0.005c188.996 0 342.938-153.668 342.938-342.596 0-0.030 0-0.066 0-0.102 0-22.433-18.186-40.619-40.619-40.619-0.024 0-0.048 0-0.072 0h0.004z" />
<glyph unicode="&#xe91c;" glyph-name="29" d="M919.893-34.832h-815.849c-48.014 0.070-86.921 38.966-87.009 86.969v465.774c0 8.378 3.6 16.353 9.899 21.845l164.088 143.515v66.56c0 16.012 13.002 29.013 29.013 29.013h79.189l153.972 152.979c27.214 27.058 80.058 32.861 116.177 1.272 1.086-0.962 154.314-153.259 155.338-154.252h79.158c16.043 0 29.013-13.002 29.013-29.013v-66.56l164.088-143.515c6.081-5.34 9.899-13.13 9.899-21.813 0-0.012 0-0.023 0-0.035v0.002-465.765c-0.088-48.001-38.977-86.89-86.969-86.978h-0.009zM900.717 23.164l-369.664 323.584c-5.082 4.437-11.774 7.143-19.099 7.143s-14.018-2.706-19.134-7.172l0.034 0.029-369.664-323.584h777.526zM191.023 606.255l-100.942-88.343 100.942-88.312v176.656zM75.031 454.051v-395.978l226.273 198.066-226.273 197.911zM530.618 889.934c-5.031 4.156-11.546 6.676-18.649 6.676s-13.618-2.521-18.699-6.716l0.050 0.040-111.833-111.057h260.934l-111.802 111.057zM774.889 720.88h-525.871v-341.985l96.287-84.216 109.351 95.697c15.249 13.299 35.327 21.408 57.297 21.408s42.048-8.109 57.402-21.497l-0.104 0.089 109.351-95.697 96.287 84.216v341.985zM832.884 606.255v-176.656l100.973 88.312-100.973 88.343zM948.876 454.051l-226.242-197.911 226.242-198.066v395.978zM307.045 517.911c0 16.074 12.971 29.013 28.982 29.013h351.853c16.015 0 28.998-12.983 28.998-28.998s-12.983-28.998-28.998-28.998h-351.853c-16.006 0-28.982 12.976-28.982 28.982v0zM687.88 604.889h-351.853c-16.015 0-28.998 12.983-28.998 28.998s12.983 28.998 28.998 28.998h351.853c15.61-0.527 28.065-13.308 28.065-28.998s-12.454-28.471-28.017-28.997l-0.048-0.001z" />
<glyph unicode="&#xe91d;" glyph-name="30" d="M0 29.091v93.091h1024v-93.091h-1024zM0 494.545h1024v-93.091h-1024v93.091zM0 866.909h1024v-93.091h-1024v93.091z" />
<glyph unicode="&#xe91e;" glyph-name="31" d="M571.221 815.275h-112.25c-1.948 1.558-4.135 3.108-6.41 4.533l-0.295 0.172v78.799c-0.056 26.983-21.942 48.835-48.932 48.835 0 0 0 0 0 0h-114.59c0 0 0 0 0 0-26.986 0-48.866-21.855-48.908-48.831v-78.803c-19.714-12.221-32.652-33.733-32.67-58.268v-227.282c0-30.939 20.699-57.149 49.006-65.536v-73.289c0-26.941 21.967-48.835 48.908-48.835h81.92c0 0 0 0 0 0 26.99 0 48.877 21.852 48.932 48.83v73.27c28.53 8.677 48.944 34.727 49.006 65.553v84.341h48.274c97.109 0 176.128-78.897 176.128-175.835v-43.593c-81.481-13.288-143.872-84.066-143.872-169.131v-54.272h-420.937c-16.213 0-29.355-13.117-29.355-29.306v-168.936c0-16.189 13.141-29.306 29.355-29.306h734.939c16.189 0 29.355 13.117 29.355 29.306v500.541c0 185.832-151.454 337.042-337.603 337.042zM298.545 889.027h95.013v-58.953h-95.013v58.953zM377.222 405.358h-62.342v60.709h62.342v-60.709zM426.228 534.43c0 0 0 0 0 0 0-5.386-4.366-9.752-9.752-9.752-0.009 0-0.017 0-0.026 0h-140.799c0 0 0 0 0 0-5.396 0-9.773 4.36-9.801 9.75v227.282c0 5.388 4.413 9.777 9.801 9.777h140.8c5.413 0 9.777-4.389 9.777-9.777v-227.279zM533.211 677.376h-48.274v79.287h86.284c153.795 0 278.894-124.904 278.894-278.43v-119.077c-22.397 19.71-50.26 33.73-81.026 39.526l-1.064 0.167v44.081c0 129.268-105.35 234.447-234.813 234.447zM624.177 230.205c0.092 52.446 35.889 96.506 84.376 109.174l0.786 0.175c71.363 18.164 140.776-36.059 140.776-109.349v-54.272h-225.938v54.272zM850.115 6.997h-676.23v110.324h676.23v-110.324z" />
<glyph unicode="&#xe91f;" glyph-name="32" d="M753.079 380.709v203.313h8.68c38.473 1.536 38.424 56.442 0 57.978h-191.317c-38.449-1.536-38.424-56.466 0-57.978h8.704v-203.313c-16.775-6.447-31.168-13.826-44.637-22.514l0.946 0.572c-23.113 78.165-55.881 142.409-115.98 186.587 28.916 20.163 55.101 50.542 77.044 90.112 41.204 73.606 63.342 175.738 61.245 277.455-0.301 15.774-13.159 28.445-28.977 28.445-16.006 0-28.982-12.976-28.982-28.982 0-0.189 0.002-0.377 0.005-0.565v0.028c0.293-16.213-0.073-32.744-1.097-48.689h-333.873c-0.754 11.384-1.184 24.679-1.184 38.074 0 3.621 0.031 7.235 0.094 10.841l-0.007-0.543c0.003 0.152 0.005 0.332 0.005 0.512 0 16.006-12.975 28.981-28.981 28.981-15.826 0-28.689-12.685-28.976-28.442v-0.027c-2.024-101.669 20.114-203.532 61.269-277.090 21.918-39.57 48.104-69.925 77.019-90.088-104.326-79.067-138.801-226.792-138.289-367.202 0.288-15.775 13.143-28.453 28.96-28.453 0.002 0 0.003 0 0.005 0h0.536c15.777 0.285 28.457 13.142 28.457 28.96 0 0.182-0.002 0.363-0.005 0.544v-0.027c-0.268 16.14 0.098 32.549 1.097 48.396h268.8c-32.329-96.329 1.999-208.165 83.749-269.263 5.071-3.901 11.288-5.973 17.652-5.973h262.12c6.388 0 12.605 2.072 17.652 5.973 152.015 114.030 114.859 356.718-61.733 422.376zM615.912 331.874c12.532 3.486 21.211 14.897 21.211 27.892v224.256h57.954v-224.256c0-12.995 8.68-24.405 21.211-27.892 60.531-17.439 107.658-63.023 126.915-121.291l0.378-1.321h-354.938c19.618 59.591 66.741 105.178 125.948 122.285l1.32 0.327zM492.227 805.205c-4.986-30.612-11.803-57.515-20.662-83.471l1.060 3.574c-1.975 0.439-281.917 0.683-281.917 0.683-7.682 22.156-14.421 48.829-18.975 76.241l-0.408 2.973h320.902zM215.235 668.038h233.106c-64.61-124.294-168.521-124.27-233.106 0zM331.776 516.364c40.399 0 71.973-29.672 91.355-54.565 8.833-11.376 17.138-24.174 24.332-37.655l0.708-1.452h-232.936c30.476 57.637 71.802 93.672 116.541 93.672zM171.325 285.55c4.608 28.111 11.191 54.711 19.383 79.214 0 0 279.942 0.244 281.941 0.658 5.193-15.287 9.728-31.354 13.507-48.006-8.741-9.515-16.884-19.92-24.172-30.941l-0.575-0.925h-290.085zM786.944 10.289h-241.664c-40.18 34.088-65.543 84.58-65.658 141v0.020h372.955c-0.101-56.437-25.457-106.932-65.367-140.799l-0.267-0.221z" />
<glyph unicode="&#xe920;" glyph-name="33" d="M765.639 74.382c10.24-18.347 3.669-41.529-14.677-51.769-9.323-5.386-21.417-11.59-33.786-17.3l-3.078-1.274c-4.6-2.13-9.985-3.372-15.659-3.372-21.012 0-38.046 17.034-38.046 38.046 0 15.338 9.076 28.556 22.151 34.576l0.236 0.098c10.524 4.75 20.992 10.012 31.090 15.673 5.341 3.034 11.733 4.822 18.542 4.822 14.203 0 26.589-7.78 33.128-19.311l0.098-0.189zM896.967 210.887c-6.252 4.682-14.137 7.496-22.68 7.496-12.463 0-23.526-5.99-30.468-15.248l-0.071-0.099c-6.912-9.244-14.279-18.347-21.931-27.022-5.97-6.679-9.619-15.543-9.619-25.259 0-20.972 17.001-37.973 37.973-37.973 0.042 0 0.083 0 0.125 0h-0.006c10.524 0 20.992 4.352 28.501 12.857 9.074 10.268 17.835 21.020 25.998 32 4.696 6.258 7.52 14.155 7.52 22.712 0 12.46-5.988 23.522-15.244 30.465l-0.099 0.071zM960.569 389.262c-2.426 0.551-5.213 0.866-8.073 0.866-18.141 0-33.318-12.693-37.134-29.682l-0.048-0.254c-2.446-11.292-5.433-22.613-8.818-33.621-1.077-3.36-1.697-7.225-1.697-11.236 0-21.006 17.029-38.035 38.035-38.035 16.996 0 31.388 11.148 36.264 26.53l0.074 0.269c4.039 13.084 7.566 26.51 10.496 39.908 0.55 2.425 0.865 5.209 0.865 8.067 0 18.151-12.707 33.334-29.71 37.14l-0.254 0.048zM473.97 752.327v-288.569l-139.492-139.492c-6.883-6.883-11.14-16.391-11.14-26.894 0-21.006 17.028-38.034 38.034-38.034 10.503 0 20.011 4.257 26.894 11.14v0l150.642 150.642c7.111 7.111 11.122 16.782 11.122 26.88v304.327c0 21.004-17.027 38.030-38.030 38.030s-38.030-17.027-38.030-38.030v0zM960.853 853.134c-20.992 0-38.030-17.038-38.030-38.059v-105.614c-87.969 136.267-238.983 225.248-410.793 225.451h-0.030c-0.384 0.001-0.839 0.002-1.294 0.002-134.049 0-255.363-54.523-342.977-142.601l-0.021-0.021c-88.099-87.626-142.622-208.932-142.622-342.974 0-0.463 0.001-0.927 0.002-1.39v0.072c0-130.048 50.66-252.302 142.62-344.292 87.627-88.082 208.926-142.594 342.957-142.594 0.469 0 0.938 0.001 1.407 0.002h-0.072l0.939 0.028 0.967-0.028c13.71 0 27.534 0.569 41.159 1.707 18.994 2.326 33.561 18.358 33.561 37.792 0 21.019-17.039 38.059-38.059 38.059-0.659 0-1.314-0.017-1.965-0.050l0.091 0.004c-11.492-0.967-23.182-1.451-34.788-1.451l-0.967-0.028-0.939 0.028c-226.532 0-410.823 184.292-410.823 410.823s184.292 410.823 410.823 410.823c149.69-0.193 280.647-80.208 352.613-199.758l1.037-1.857h-104.59c-21.004 0-38.030-17.027-38.030-38.030s17.027-38.030 38.030-38.030h116.11c0.035 0 0.076 0 0.117 0 24.79 0 47.84 7.455 67.028 20.246l-0.443-0.278c33.321 22.059 55.005 59.366 55.040 101.74v112.218c0 21.020-17.038 38.059-38.059 38.059z" />
<glyph unicode="&#xe921;" glyph-name="34" d="M758.737 553.33c-33.927-73.635-85.579-134.127-149.651-177.722l-1.492-0.958c-15.234-10.256-24.34-27.853-24.34-47.088v-107.11c33.812-9.001 58.324-39.323 58.368-75.377v-0.005h19.472c32.219-0.027 58.332-26.134 58.368-58.349v-116.755c0-10.744-8.712-19.456-19.456-19.456h-389.152c-10.745 0-19.456 8.711-19.456 19.456v0 116.752c0.036 32.218 26.149 58.325 58.365 58.352h19.459c0 0.057 0 0.125 0 0.193 0 21.438 8.721 40.838 22.808 54.848l0.003 0.003c9.538 9.578 21.567 16.668 35.033 20.217l0.539 0.121v107.205c0 19.157-9.090 36.738-24.324 46.994-65.555 44.562-117.205 105.051-150.040 176.023l-1.103 2.657c-96.083 25.899-155.317 118.942-155.317 245.508 0.036 32.224 26.145 58.339 58.364 58.384h58.388v31.13c0.045 32.218 26.15 58.323 58.364 58.368h466.98c32.218-0.045 58.323-26.15 58.368-58.364v-31.134h58.368c32.23-0.036 58.348-26.154 58.384-58.38v-0.004c0-126.566-59.219-219.577-155.301-245.508zM213.575 731.333v86.961h-58.384c-10.728 0-19.456-8.712-19.456-19.456 0-95.61 35.903-166.455 97.816-197.128-12.67 38.592-19.976 83.008-19.976 129.131 0 0.173 0 0.346 0 0.518v-0.027zM349.767 106.157c-10.728 0-19.456-8.728-19.456-19.44v-97.296h350.24v97.296c0 10.713-8.728 19.44-19.456 19.44h-311.328zM758.374 888.352c0 10.728-8.728 19.456-19.456 19.456h-466.976c-10.728 0-19.456-8.728-19.456-19.456v-157.019c0-53.169 10.587-104.889 31.46-153.71 30.581-70.568 79.023-128.53 139.719-169.822l1.357-0.871c25.978-17.518 41.496-47.136 41.496-79.273v-124.203c0-0.002 0-0.004 0-0.007 0-10.789-8.746-19.535-19.535-19.535-0.51 0-1.016 0.020-1.516 0.058l0.066-0.004c-10.192-0.386-19.316-4.66-25.992-11.373l-0.002-0.002c-7.046-7.019-11.406-16.729-11.406-27.458 0-0.022 0-0.045 0-0.067v0.004h194.576c-0.018 21.486-17.427 38.901-38.909 38.928h-0.003c-0.005 0-0.010 0-0.016 0-10.737 0-19.44 8.704-19.44 19.44 0 0.006 0 0.011 0 0.017v-0.001 124.109c0 32.201 15.518 61.865 41.511 79.368 62.051 42.159 110.49 100.123 140.084 168.174l0.976 2.519c19.886 45.185 31.461 97.864 31.461 153.246 0 0.163 0 0.326 0 0.49v-0.025 157.019zM855.654 818.294h-58.368v-86.961c0-44.347-6.711-87.78-19.976-129.623 61.913 30.673 97.816 101.518 97.816 197.128 0 10.744-8.743 19.456-19.472 19.456zM583.869 658.078l12.761-74.374c0.158-0.878 0.248-1.889 0.248-2.92 0-9.562-7.752-17.313-17.313-17.313-2.936 0-5.701 0.731-8.124 2.020l0.093-0.045-66.812 35.131-66.812-35.131c-2.324-1.236-5.082-1.962-8.010-1.962-9.571 0-17.329 7.759-17.329 17.329 0 1.021 0.088 2.022 0.258 2.995l-0.015-0.104 12.745 74.374-54.051 52.697c-3.212 3.148-5.203 7.531-5.203 12.38 0 8.677 6.377 15.865 14.701 17.131l0.096 0.012 74.689 10.823 33.398 67.71c2.899 5.753 8.759 9.631 15.525 9.631s12.626-3.878 15.48-9.532l0.045-0.099 33.398-67.71 74.689-10.823c8.419-1.279 14.797-8.466 14.797-17.143 0-4.848-1.991-9.231-5.2-12.377l-0.003-0.003-54.051-52.697zM539.664 718.194c-5.75 0.846-10.512 4.426-12.983 9.353l-0.045 0.099-21.914 44.41-21.914-44.41c-2.521-5.104-7.404-8.649-13.044-9.452l-48.979-7.121 35.462-34.548c4.080-3.97 5.939-9.704 4.978-15.313l-8.381-48.805 43.811 23.032c5.041 2.662 11.075 2.662 16.116 0l43.827-23.032-8.381 48.805c-0.977 5.608 0.898 11.343 4.978 15.313l35.446 34.548-48.979 7.121z" />
<glyph unicode="&#xe922;" glyph-name="35" d="M393.183 288.142c0.005 0 0.011 0 0.016 0 10.997 0 19.911-8.915 19.911-19.911 0-10.991-8.905-19.902-19.894-19.911h-0.001c-0.007 0-0.016 0-0.024 0-10.997 0-19.911 8.915-19.911 19.911 0 10.988 8.901 19.897 19.885 19.911h0.018zM830.594 95.029c32.969-0.037 59.687-26.749 59.733-59.713v-79.649c0-10.988-8.923-19.895-19.911-19.895h-716.702c-10.991 0-19.902 8.905-19.911 19.894v79.645c0.046 32.968 26.764 59.68 59.73 59.717h90.164v73.663h-90.161c-32.971 0.046-59.687 26.762-59.733 59.729v0.004c0.046 32.968 26.764 59.68 59.73 59.717h110.059c10.997 0 19.911-8.915 19.911-19.911s-8.915-19.911-19.911-19.911h-110.056c-10.749-0.317-19.342-9.106-19.342-19.903s8.593-19.586 19.313-19.902l0.029-0.001h437.979c10.573 0.54 18.942 9.244 18.942 19.903s-8.369 19.363-18.894 19.901l-0.048 0.002h-148.756c-10.997 0-19.911 8.915-19.911 19.911s8.915 19.911 19.911 19.911h148.756c0.025 0 0.055 0 0.084 0 38.434 0 73.207 15.675 98.274 40.982l0.011 0.011c25.317 25.078 40.993 59.851 40.993 98.285 0 0.030 0 0.059 0 0.089v-0.005c0 0.025 0 0.055 0 0.084 0 38.434-15.675 73.207-40.982 98.274l-0.011 0.011c-25.078 25.317-59.851 40.993-98.285 40.993-0.030 0-0.059 0-0.089 0h-29.35c-14.397-19.053-35.13-32.654-59.019-37.692l-0.65-0.115v-11.963c-0.037-25.837-16.436-47.834-39.39-56.188l-0.416-0.132v-43.219c-0.018-21.986-17.836-39.804-39.82-39.822h-139.363c-21.982 0.018-39.797 17.838-39.806 39.821v43.22c-23.376 8.481-39.783 30.479-39.822 56.315v218.978c0.032 25.839 16.442 47.837 39.406 56.172l0.416 0.132v48.632c-11.974 7.006-19.894 19.797-19.911 34.44v59.719c0 10.988 8.907 19.911 19.911 19.911h218.99c10.988 0 19.911-8.923 19.911-19.911v-59.717c0-14.71-8.046-27.534-19.911-34.442v-48.632c23.373-8.472 39.777-30.468 39.806-56.3v-11.951c24.534-5.166 45.263-18.763 59.487-37.557l0.181-0.25h29.355c68.901 0 133.835-26.998 182.841-75.987 48.973-48.989 75.971-113.924 75.971-182.825s-26.998-133.851-75.971-182.841c-49.006-48.989-113.94-75.971-182.841-75.971h-128.845v-73.663h327.924zM323.503 417.556h139.362v39.806h-139.362v-39.806zM482.775 915.253h-179.167v-39.806h179.167v39.806zM323.503 835.625v-39.822h139.362v39.822h-139.362zM502.686 736.069c0 10.988-8.94 19.911-19.911 19.911h-179.167c-10.988 0-19.911-8.923-19.911-19.911v-218.973c0-10.988 8.923-19.911 19.911-19.911h179.167c10.971 0 19.911 8.923 19.911 19.911v11.963c-45.727 9.638-79.567 49.62-79.628 97.517v0.007c0.060 47.908 33.899 87.895 78.977 97.425l0.651 0.115v11.947zM522.598 686.316c-32.975-0.037-59.696-26.758-59.733-59.73v-0.003c0.037-32.972 26.76-59.689 59.731-59.717h0.003c32.966 0.037 59.68 26.751 59.717 59.714v0.004c-0.037 32.969-26.749 59.687-59.713 59.733h-0.005zM690.030 216.446c37.829 10.781 70.25 30.332 96.149 56.375l0.010 0.010c41.48 41.464 64.317 96.402 64.317 154.673s-22.837 113.193-64.317 154.673c-41.48 41.48-96.402 64.317-154.673 64.317h-11.394c1.282-5.986 2.016-12.863 2.016-19.911s-0.734-13.925-2.13-20.558l0.114 0.647h11.394c47.64 0 92.583-18.692 126.537-52.63 33.938-33.955 52.647-78.897 52.647-126.537 0-47.657-18.708-92.583-52.663-126.537-20.012-20.119-44.765-35.501-72.444-44.333l-1.268-0.349c4.363-8.066 6.928-17.656 6.928-27.846 0-4.246-0.445-8.388-1.292-12.381l0.069 0.388zM462.864 168.692h-139.362v-73.663h139.362v73.663zM193.536 55.223c-10.988 0-19.911-8.94-19.911-19.911v-59.717h676.88v59.717c0 10.971-8.923 19.911-19.911 19.911h-637.058z" />
<glyph unicode="&#xe923;" glyph-name="36" d="M883.661 502.195c-16.907-19.337-33.967-37.005-51.853-53.801l-0.396-0.368c18.284-17.166 35.343-34.833 51.507-53.304l0.742-0.866c32.435-37.453 54.963-72.602 66.944-104.448 13.875-36.787 13.466-68.378-1.229-93.824s-41.83-41.574-80.666-47.974c-7.353-1.258-16.184-2.201-25.152-2.618l-0.499-0.019c-8.985-20.019-28.733-33.716-51.683-33.741h-0.003c-26.678 0.039-49.022 18.545-54.937 43.417l-0.077 0.384c-27.044 5.619-48.746 11.302-70.049 17.896l5.383-1.435c-6.92-29.674-14.061-53.843-22.371-77.461l1.584 5.167c-16.23-46.797-35.405-83.866-56.986-110.182-24.96-30.438-52.531-45.875-81.92-45.875s-56.96 15.437-81.92 45.875c-21.581 26.317-40.755 63.386-56.986 110.182-6.733 18.452-13.883 42.62-19.795 67.27l-1.017 5.025c-25.242-7.552-49.715-13.645-73.037-18.15-30.618-5.888-58.47-8.806-83.277-8.806-0.498-0.004-1.088-0.006-1.678-0.006-13.769 0-27.277 1.119-40.438 3.272l1.437-0.194c-38.835 6.4-65.971 22.528-80.691 47.974-14.694 25.446-15.104 57.037-1.229 93.824 5.197 13.798 12.365 28.16 21.453 43.11-5.064 8.25-8.064 18.241-8.064 28.933 0 0.034 0 0.069 0 0.103v-0.005c0.046 31.183 25.335 56.444 56.525 56.444 5.939 0 11.663-0.916 17.040-2.614l-0.4 0.109c10.24 10.829 21.146 21.683 32.666 32.538-18.291 17.16-35.351 34.828-51.509 53.305l-0.741 0.865c-32.435 37.453-54.963 72.576-66.97 104.422-13.875 36.813-13.466 68.403 1.229 93.824 14.72 25.472 41.856 41.6 80.691 48 33.587 5.53 75.29 3.61 123.955-5.734 23.347-4.48 47.795-10.598 73.037-18.176 6.067 25.626 13.005 49.869 20.813 72.32 16.23 46.797 35.405 83.866 56.986 110.182 24.96 30.413 52.531 45.85 81.92 45.85s56.96-15.437 81.92-45.85c4.813-5.888 9.498-12.339 14.080-19.251 1.797 0.203 3.88 0.318 5.99 0.318 31.209 0 56.513-25.281 56.55-56.481v-0.004c0-16.051-6.758-30.541-17.562-40.858 6.938-20.736 13.21-42.854 18.714-66.227 18.771 6.067 43.318 12.352 68.32 17.38l4.742 0.796c48.666 9.344 90.368 11.264 123.955 5.734 38.835-6.4 65.971-22.528 80.666-48 14.694-25.421 15.104-57.011 1.229-93.824-11.981-31.846-34.509-66.97-66.944-104.422zM271.13 700.467c-28.006 5.402-53.325 8.038-75.238 8.038-42.957 0-72.806-10.112-84.045-29.542-16.947-29.363 5.837-84.941 60.979-148.659 16.703-19.092 33.621-36.537 51.386-53.084l0.428-0.395c30.251 25.996 63.553 51.646 98.192 75.492l3.977 2.588c3.43 44.595 8.986 87.398 16.538 127.462-18.752 6.135-43.012 12.394-67.742 17.351l-4.476 0.749zM323.738 500.198c-25.492-18.46-47.21-35.571-68.243-53.463l1.555 1.29c20.736-17.587 43.034-35.072 66.688-52.198-0.617 15.563-0.969 33.833-0.969 52.186s0.352 36.624 1.048 54.806l-0.080-2.621zM326.81 341.146c-38.62 26.427-71.922 52.069-103.751 79.379l1.581-1.325c-11.11-10.394-21.632-20.813-31.514-31.181 4.111-7.644 6.527-16.727 6.527-26.375 0-31.232-25.318-56.55-56.55-56.55-4.808 0-9.476 0.6-13.933 1.729l0.391-0.084c-22.477-38.093-29.158-69.837-17.715-89.677 16.973-29.363 76.518-37.402 159.283-21.504 29.211 5.717 53.469 11.984 77.182 19.478l-4.965-1.354c-7.012 35.458-12.877 79.11-16.289 123.449l-0.248 4.014zM651.315 311.142c-23.009-14.854-52.56-32.173-82.762-48.441l-7.632-3.757c26.65-11.904 52.941-22.477 78.541-31.642 4.226 21.514 8.407 50.148 11.451 79.12l0.402 4.72zM413.696 113.28c27.622-79.616 64.384-127.13 98.304-127.13s70.656 47.514 98.278 127.13c7.68 22.118 14.49 46.106 20.429 71.578-48.378 17.126-87.57 33.81-125.601 52.494l6.894-3.060c-31.124-15.614-70.315-32.297-110.528-46.848l-8.179-2.586c5.914-25.472 12.723-49.459 20.403-71.578zM384.512 227.302c34.065 12.159 60.006 22.841 85.428 34.462l-6.887-2.82c-37.77 19.976-67.322 37.296-96.167 55.627l5.774-3.429c3.021-29.030 6.989-57.088 11.853-83.84zM372.659 584.909c23.005 14.851 52.556 32.17 82.757 48.438l7.637 3.76c-18.611 8.835-44.552 19.509-70.973 29.19l-7.568 2.426c-4.188-21.384-8.368-50.008-11.436-78.963l-0.417-4.851zM612.864 775.194c-30.659 0.687-55.257 25.672-55.322 56.416v0.006c0 13.44 4.71 25.754 12.57 35.456-18.842 27.622-38.938 42.829-58.112 42.829-33.92 0-70.682-47.514-98.304-127.13-6.698-18.434-13.712-42.372-19.456-66.8l-0.947-4.777c48.426-17.162 87.618-33.845 125.657-52.515l-6.95 3.082c31.104 15.599 70.295 32.282 110.504 46.839l8.203 2.595c-6.144 26.738-12.279 48.152-19.344 69.139l1.501-5.139zM639.462 668.723c-25.6-9.139-51.891-19.712-78.541-31.616 37.778-19.983 67.329-37.302 96.176-55.632l-5.782 3.433c-3.443 33.671-7.623 62.296-12.896 90.536l1.043-6.722zM655.744 530.995c-17.572 11.923-40.627 26.342-64.127 40.083l-6.504 3.514c-17.033 10.273-40.969 23.367-65.326 35.753l-7.788 3.594c-24.32-12.134-48.742-25.267-73.114-39.347-29.96-17.222-53.015-31.641-75.595-46.716l4.965 3.119c-1.593-24.799-2.5-53.772-2.5-82.957s0.908-58.158 2.696-86.892l-0.196 3.935c40.148-27.017 87.193-54.591 135.907-79.355l7.837-3.615c56.587 28.426 103.631 55.999 148.807 86.149l-5.063-3.18c1.595 24.799 2.504 53.772 2.504 82.957s-0.909 58.157-2.7 86.891l0.196-3.934zM743.398 197.478c10.139 16.112 27.826 26.662 47.978 26.662 23.859 0 44.264-14.789 52.548-35.7l0.134-0.382c34.381 2.253 58.317 12.083 68.096 29.005 16.947 29.389-5.837 84.966-61.005 148.685-16.7 19.080-33.618 36.516-51.382 53.055l-0.432 0.398c-30.258-26.015-63.561-51.658-98.211-75.482l-3.958-2.572c-3.627-48.292-9.494-91.944-17.703-134.764l1.165 7.302c21.632-6.579 42.624-12.006 62.771-16.205zM700.262 395.827c25.473 18.463 47.182 35.582 68.207 53.481l-1.544-1.283c-19.46 16.581-41.169 33.691-63.513 49.984l-3.149 2.188c0.617-15.563 0.969-33.833 0.969-52.186s-0.352-36.623-1.048-54.804l0.080 2.619zM912.154 678.963c-16.973 29.363-76.518 37.402-159.283 21.504-23.014-4.403-47.206-10.47-72.243-18.099 7.578-40.064 13.133-82.893 16.538-127.488 38.608-26.397 71.911-52.039 103.729-79.362l-1.559 1.308c18.201 16.937 35.119 34.382 51.111 52.658l0.703 0.82c55.168 63.718 77.952 119.296 61.005 148.659zM512 358.835c-49.246 0.044-89.158 39.946-89.216 89.185v0.006c0.058 49.244 39.97 89.147 89.212 89.19h0.004c49.246-0.044 89.158-39.946 89.216-89.185v-0.006c-0.058-49.244-39.97-89.147-89.212-89.19h-0.004zM512 494.208c-25.472 0-46.234-20.71-46.234-46.182s20.762-46.208 46.234-46.208 46.208 20.736 46.208 46.208c0 25.472-20.736 46.182-46.208 46.182z" />
<glyph unicode="&#xe924;" glyph-name="37" d="M719.872 717.54v-568.747c0-114.716-93.269-208.071-207.872-208.071-114.631 0-207.872 93.355-207.872 208.071v568.747h-59.392v237.796h534.528v-237.796h-59.392zM363.52 251.392v-102.599c0.048-82.012 66.479-148.493 148.467-148.622h0.013c81.995 0.146 148.415 66.616 148.48 148.616v388.415h-296.96v-285.81zM363.52 596.651h296.96v120.889h-296.96v-120.889zM722.347 898.361h-420.978v-123.676h420.978v123.676zM541.696 179.513h-59.392v59.449h-59.392v59.449h59.392v59.449h59.392v-59.449h59.392v-59.449h-59.392v-59.449z" />
<glyph unicode="&#xe925;" glyph-name="38" d="M890.090 243.259h2.107c69.962 0.1 126.646 56.805 126.713 126.765v0.006c-0.067 69.961-56.754 126.659-126.705 126.742h-109.898l-144.384 98.011v166.298c46.078 8.507 80.527 48.351 80.574 96.251v0.005c-0.066 53.954-43.77 97.678-97.709 97.777h-217.566c-53.962-0.083-97.682-43.814-97.748-97.771v-0.006c0.060-47.9 34.502-87.738 79.97-96.163l0.604-0.093v-166.298l-144.355-98.011h-109.89c-69.964-0.083-126.659-56.778-126.742-126.734v-0.008c0.083-69.97 56.774-126.671 126.732-126.771h2.117l-125.923-260.301c-1.836-3.72-2.91-8.098-2.91-12.727 0-16.148 13.070-29.244 29.208-29.286h0.004c10.854 0 21.299 6.085 26.361 16.53l115.39 238.563c38.243-54.273 100.65-89.293 171.237-89.293 0.074 0 0.147 0 0.221 0h135.244v-136.514c-0.009-0.276-0.015-0.6-0.015-0.925 0-16.158 13.099-29.257 29.257-29.257s29.257 13.099 29.257 29.257c0 0.325-0.005 0.649-0.016 0.972l0.001-0.047v136.514h135.256c0.067 0 0.146 0 0.225 0 70.582 0 132.985 35.020 170.781 88.633l0.441 0.66 115.419-238.563c4.845-9.843 14.804-16.498 26.317-16.498 16.148 0 29.239 13.091 29.239 29.239 0 4.635-1.079 9.019-2.999 12.913l0.076-0.171-125.893 260.301zM431.718 555.081c7.789 5.331 12.835 14.173 12.844 24.194v209.57c-0.017 16.146-13.109 29.228-29.257 29.228h-12.083c-21.038 0.838-37.776 18.096-37.776 39.263s16.738 38.425 37.701 39.261l0.076 0.002h217.556c21.621 0 39.234-17.613 39.234-39.263s-17.613-39.263-39.234-39.263h-12.083c-16.148 0-29.24-13.082-29.257-29.226v-209.571c0.001-10.018 5.037-18.859 12.715-24.131l0.099-0.064 85.87-58.309h-332.273l85.87 58.309zM63.576 370.030c0.033 37.674 30.556 68.207 68.223 68.257h760.398c37.671-0.050 68.194-30.583 68.228-68.254v-0.003c-0.033-37.674-30.556-68.207-68.223-68.257h-760.398c-37.671 0.050-68.194 30.583-68.228 68.254v0.003zM347.487 165.23c-0.037 0-0.080 0-0.124 0-56.529 0-105.777 31.172-131.493 77.265l-0.391 0.764h267.264v-78.029h-135.256zM676.484 165.23h-135.256v78.029h267.293c-26.114-46.857-75.368-78.029-131.901-78.029-0.048 0-0.096 0-0.144 0h0.007z" />
<glyph unicode="&#xe926;" glyph-name="39" horiz-adv-x="943" d="M913.677 76.396c9.466-14.006 15.111-31.27 15.111-49.852 0-15.543-3.949-30.164-10.899-42.913l0.235 0.47c-15.413-28.455-45.047-47.454-79.117-47.454-0.028 0-0.057 0-0.085 0h-734.473c-0.014 0-0.030 0-0.046 0-49.619 0-89.843 40.224-89.843 89.843 0 18.604 5.655 35.887 15.339 50.225l-0.203-0.318 292.271 438.622v384.431h-59.904v59.931h419.247v-59.931h-59.877v-384.431l292.244-438.622zM79.522 43.143c-8.973-13.474-4.015-26.004-1.482-30.774 2.56-4.743 10.213-15.791 26.408-15.791h734.477c16.195 0 23.848 11.048 26.408 15.791 2.295 4.091 3.647 8.979 3.647 14.182 0 6.198-1.918 11.949-5.193 16.69l0.064-0.098-172.787 259.315c-16.168 7.060-58.584 23.714-99.597 23.714-43.331 0-91.486-19.375-106.388-26.813-2.695-1.347-66.964-33.118-133.174-33.118-42.146 0-83.483 12.854-108.679 22.582l-163.705-245.679zM561.529 496.883v402.567h-179.685v-402.567l-104.421-156.726c20.291-6.899 47.697-13.986 74.483-13.986 43.331 0 91.486 19.348 106.388 26.786 2.695 1.347 66.964 33.118 133.174 33.118 16.088 0 32.040-1.859 47.023-4.743l-76.962 115.55zM441.748 475.971h59.877v-59.931h-59.877v59.931zM381.844 116.413h-59.877v59.931h59.877v-59.931zM501.625 56.509h-59.877v59.904h59.877v-59.904zM621.433 176.344h-59.904v59.931h59.904v-59.931z" />
<glyph unicode="&#xe927;" glyph-name="40" horiz-adv-x="835" d="M476.349 811.789h-111.185c-1.94 1.564-4.112 3.11-6.374 4.524l-0.282 0.165v78.040c0 26.705-21.72 48.371-48.451 48.371h-113.502c-26.705 0-48.451-21.666-48.451-48.371v-78.040c-19.521-12.113-32.334-33.418-32.364-57.717v-225.122c0-30.666 20.507-56.643 48.559-64.943v-72.596c0-26.678 21.747-48.371 48.424-48.371h81.139c26.732 0 48.478 21.693 48.478 48.371v72.569c28.253 8.605 48.467 34.405 48.532 64.935v83.545h47.805c96.202 0 174.457-78.147 174.457-174.161v-43.17c-80.707-13.177-142.471-83.294-142.471-167.532v-53.76h-416.984c-16.043-0.015-29.046-13.009-29.076-29.046v-167.319c0-16.061 13.043-29.022 29.076-29.022h727.983c16.061 0 29.076 12.962 29.076 29.022v495.778c0 184.077-150.016 333.851-334.39 333.851zM206.255 884.844h94.1v-58.395h-94.1v58.395zM284.187 405.773h-61.763v60.12h61.763v-60.12zM332.719 533.612c-0.015-5.337-4.337-9.659-9.673-9.674h-139.481c-5.337 0.015-9.659 4.337-9.674 9.673v225.146c0 5.336 4.339 9.647 9.674 9.647h139.48c5.336 0 9.674-4.312 9.674-9.647v-225.145zM438.676 675.193h-47.805v78.552h85.477c152.333 0 276.264-123.715 276.264-275.806v-117.949c-22.191 19.527-49.792 33.422-80.27 39.177l-1.057 0.166v43.655c0 128.027-104.34 232.205-232.61 232.205zM528.788 232.286c0.098 51.941 35.548 95.575 83.566 108.128l0.779 0.173c70.71 18.001 139.48-35.732 139.48-108.301v-53.76h-223.825v53.76zM752.613 11.183h-669.858v109.272h669.858v-109.272z" />
<glyph unicode="&#xe928;" glyph-name="41" horiz-adv-x="970" d="M952.131 69.524c24.63-57.991-17.947-122.476-81.004-122.476h-483.517c-63.030 0-105.688 64.485-80.95 122.557l9.108 21.396c-170.307 3.934-307.604 143.71-307.604 315.042 0 173.757 141.258 315.096 314.907 315.096 67.341 0 129.779-21.235 181.032-57.398v101.268h-33.684c-0.008 0-0.017 0-0.027 0-16.192 0-29.319 13.126-29.319 29.319 0 0.009 0 0.019 0 0.028v-0.001 120.509c0 16.222 13.123 29.346 29.346 29.346h325.767c16.222 0 29.346-13.123 29.346-29.346v-120.509c0-16.222-13.123-29.346-29.346-29.346h-36.325v-242.688l192.269-452.797zM323.072 662.42c-141.285 0-256.243-115.011-256.243-256.377 0-206.201 231.72-327.060 400.33-212.076 6.036 4.123 13.393 5.848 20.615 4.824l78.875-11.102-17.839 82.109c-0.434 1.886-0.682 4.051-0.682 6.274 0 4.862 1.189 9.446 3.292 13.478l-0.077-0.161c17.629 33.672 27.973 73.555 27.973 115.853 0 0.282 0 0.564-0.001 0.846v-0.044c0 141.366-114.931 256.377-256.243 256.377zM637.979 406.043v-0.674h107.789l-42.253 99.517c-1.48 3.386-2.342 7.332-2.344 11.479v248.644h-138.402v-154.813c46.75-54.474 75.21-125.832 75.21-203.838 0-0.111 0-0.222 0-0.333v0.017zM766.841 823.727v61.79h-267.102v-61.79h267.102zM632.347 346.678c-5.441-28.051-13.769-52.956-24.881-76.279l0.817 1.904 24.657-113.314c0.422-1.865 0.663-4.008 0.663-6.206 0-16.222-13.151-29.373-29.373-29.373-1.422 0-2.82 0.101-4.188 0.296l0.157-0.018-109.676 15.414c-31.159-19.93-67.649-34.793-106.74-42.367l-1.966-0.317-21.181-49.826c-1.503-3.408-2.378-7.382-2.378-11.56 0-16.177 13.114-29.292 29.292-29.292 0.021 0 0.042 0 0.064 0h483.514c21.046 0 35.247 21.423 27.001 40.825l-127.434 300.113h-138.348zM478.936 445.898h-18.54l-20.48-35.544 28.941-50.203c5.255-9.081 5.255-20.264 0-29.346l-37.43-64.889c-5.151-8.824-14.574-14.659-25.36-14.659-0.009 0-0.017 0-0.026 0h-57.531l-6.494-11.857c-5.247-8.501-14.511-14.082-25.079-14.082-16.222 0-29.373 13.151-29.373 29.373 0 4.715 1.111 9.171 3.086 13.12l-0.077-0.17 6.925 12.611-20.723 35.867h-57.964c-10.483 0-20.157 5.605-25.384 14.686l-28.995 50.23h-16.222c-16.2 0-29.332 13.132-29.332 29.332s13.132 29.332 29.332 29.332h16.222l20.507 35.544-10.267 17.839c-2.2 4.017-3.494 8.801-3.494 13.887 0 16.207 13.139 29.346 29.346 29.346 10.483 0 19.682-5.496 24.872-13.765l0.072-0.122 10.294-17.812h41.041l28.941 50.176c5.228 9.108 14.929 14.686 25.411 14.686h74.887c10.483 0 20.157-5.578 25.384-14.686l28.995-50.203h18.513c16.207 0 29.346-13.139 29.346-29.346s-13.139-29.346-29.346-29.346v0zM276.776 445.898h-41.014l-20.507-35.544 20.507-35.517h41.014l20.48 35.517-20.48 35.544zM389.093 510.76h-41.014l-20.48-35.517 20.48-35.544h41.014l20.507 35.544-20.507 35.517zM389.093 381.036h-41.014l-20.48-35.544 20.48-35.544h41.014l20.507 35.544-20.507 35.544z" />
<glyph unicode="&#xe929;" glyph-name="42" d="M868.062-64.214h-718.94c-11.032 0-19.976 8.943-19.976 19.976 0 0.005 0 0.011 0 0.016v-0.001 164.986c0.021 90.293 66.609 165.027 153.356 177.798l0.977 0.118 80.239 11.463c22.044 3.247 39.451 19.823 43.896 41.154l0.059 0.34c-42.091 27.679-80.468 72.2-109.721 127.358h-9.033c-44.098 0.043-79.835 35.776-79.887 79.867v0.005c0 29.864 17.041 56.977 42.932 70.534l-2.965 68.394-0.031 0.886c0 143.146 116.461 259.607 259.622 259.607s259.622-116.461 259.622-259.607l-2.996-69.28c25.613-13.595 42.791-40.042 42.932-70.514v-0.019c-0.043-44.095-35.777-79.828-79.868-79.872h-9.037c-29.268-55.158-67.645-99.68-109.736-127.358 4.486-21.688 21.91-38.277 43.687-41.461l0.284-0.034 80.239-11.463c87.715-12.903 154.291-87.631 154.318-177.913v-164.989c0-11.050-8.941-19.991-19.976-19.991zM376.97 272.055c-1.919-0.491-4.487-0.998-7.092-1.391l-0.489-0.061-40.532-5.792v-67.416c45.53-9.277 79.887-49.626 79.887-97.845v-63.901c0-11.019-8.941-19.976-19.976-19.976h-39.936c-10.792 0.308-19.423 9.13-19.423 19.968s8.631 19.66 19.395 19.967l0.028 0.001h19.96v43.94c-0.035 33.074-26.837 59.877-59.908 59.912h-0.003c-33.071-0.043-59.868-26.841-59.912-59.907v-43.944h19.976c10.792-0.308 19.423-9.13 19.423-19.968s-8.631-19.66-19.395-19.967l-0.028-0.001h-39.936c-11.032 0-19.976 8.943-19.976 19.976v0 63.901c0 48.22 34.357 88.568 79.887 97.845v61.7c-68.333-9.858-119.823-69.296-119.823-138.332v-145.026h319.519v156.764l-111.647 139.554zM508.592 171.474l94.667 118.325c-13.627 10.899-23.985 25.354-29.716 41.964l-0.194 0.646c-21.305-8.742-42.993-13.174-64.757-13.174s-43.436 4.432-64.757 13.174c-5.917-17.255-16.277-31.707-29.726-42.454l-0.183-0.142 94.667-118.341zM508.592 918.352c-120.985 0-219.442-98.319-219.671-219.258l2.476-56.947c22.006 8.176 37.41 28.975 37.46 53.379v3.154c0 11.019 8.941 19.96 19.976 19.96h39.936c33.071 0.043 59.868 26.841 59.912 59.907v0.004c0.013 11.022 8.952 19.952 19.976 19.952 7.764 0 14.493-4.429 17.799-10.898l0.052-0.113c20.726-41.132 62.622-68.853 110.993-68.853 0.154 0 0.309 0 0.463 0.001h70.403c11.019 0 19.96-8.941 19.96-19.96v-3.148c0.050-24.411 15.463-45.208 37.082-53.242l0.393-0.128 2.476 56.931c-0.229 120.939-98.701 219.258-219.686 219.258zM689.152 507.835c3.362 6.801 10.301 11.096 17.882 11.096h21.244c22.042 0.035 39.901 17.894 39.936 39.933v0.003c0 31.668-30.43 38.026-34.464 40.654-42.486 5.27-76.163 37.352-83.785 78.572l-0.092 0.597h-51.934c-46.997 0-90.418 19.563-121.046 52.958-17.154-31.725-50.16-52.922-88.12-52.958h-21.448c-7.71-41.832-41.404-73.925-83.434-79.136l-0.473-0.048c-4.127-2.69-34.449-8.819-34.449-40.639 0.035-22.047 17.903-39.91 39.949-39.936h21.231c7.581 0 14.519-4.295 17.882-11.096 35.687-71.986 101.59-148.663 180.56-148.663 79.2 0 145.408 77.763 180.56 148.663zM708.302 95.561c-10.699-0.432-19.209-9.21-19.209-19.976s8.51-19.544 19.17-19.974l0.039-0.001c10.699 0.432 19.209 9.21 19.209 19.976s-8.51 19.544-19.17 19.974l-0.039 0.001zM848.101 120.763c0 69.036-51.506 128.474-119.823 138.332v-127.022c23.438-8.507 39.888-30.563 39.936-56.467v-0.006c-0.031-33.099-26.87-59.918-59.973-59.918-2.402 0-4.771 0.141-7.099 0.416l0.282-0.027c-28.047 3.392-49.97 25.691-52.754 53.624l-0.020 0.25c-0.166 1.672-0.26 3.615-0.26 5.579 0 25.945 16.466 48.044 39.519 56.416l0.417 0.132v132.738l-40.501 5.792c-3.161 0.471-5.744 0.978-8.288 1.585l0.662-0.133-111.631-139.554v-156.764h319.534v145.026zM433.274 452.371c-0.724 1.982-1.142 4.27-1.142 6.656 0 11.026 8.938 19.964 19.964 19.964 8.64 0 15.998-5.488 18.778-13.169l0.044-0.139c5.672-15.638 20.388-26.613 37.671-26.639h0.003c17.286 0.026 32.002 11.002 37.586 26.361l0.089 0.279c2.933 7.616 10.191 12.921 18.689 12.921 11.032 0 19.976-8.943 19.976-19.976 0-2.238-0.368-4.39-1.047-6.398l0.041 0.141c-11.332-31.275-40.764-53.226-75.328-53.263h-0.005c-33.777 0-64.053 21.397-75.317 53.263zM568.503 598.818c0 11.036 8.947 19.983 19.983 19.983s19.983-8.947 19.983-19.983v0c0-11.036-8.947-19.983-19.983-19.983s-19.983 8.947-19.983 19.983v0zM428.704 578.858c-11.028 0-19.968 8.94-19.968 19.968s8.94 19.968 19.968 19.968v0c11.028 0 19.968-8.94 19.968-19.968s-8.94-19.968-19.968-19.968v0z" />
<glyph unicode="&#xe92a;" glyph-name="43" d="M393.766 288.791c0.005 0 0.010 0 0.015 0 10.99 0 19.899-8.909 19.899-19.899 0-10.985-8.9-19.891-19.883-19.899h-0.001c-0.007 0-0.015 0-0.023 0-10.99 0-19.899 8.909-19.899 19.899 0 10.982 8.896 19.886 19.875 19.899h0.017zM830.968 95.79c32.955-0.044 59.656-26.756 59.682-59.71v-79.584c0-11.004-8.91-19.899-19.899-19.899h-716.326c-0.005 0-0.010 0-0.015 0-10.982 0-19.884 8.902-19.884 19.884 0 0.005 0 0.011 0 0.016v-0.001 79.582c0.035 32.959 26.74 59.669 59.694 59.713h90.116v73.606h-90.112c-32.961 0.035-59.672 26.75-59.698 59.71v0.002c0.043 32.95 26.747 59.648 59.694 59.682h109.999c10.99 0 19.899-8.909 19.899-19.899s-8.909-19.899-19.899-19.899h-109.996c-10.658-0.431-19.134-9.175-19.134-19.899s8.477-19.468 19.095-19.898l0.039-0.001h437.752c10.658 0.431 19.134 9.175 19.134 19.899s-8.477 19.468-19.095 19.898l-0.039 0.001h-148.679c-10.658 0.431-19.134 9.175-19.134 19.899s8.477 19.468 19.095 19.898l0.039 0.001h148.679c36.986 0 71.909 14.55 98.319 40.96 25.307 25.068 40.975 59.828 40.975 98.247 0 0.026 0 0.051 0 0.077v-0.004c0 0.028 0 0.061 0 0.094 0 38.417-15.669 73.174-40.965 98.229l-0.011 0.011c-25.058 25.297-59.803 40.96-98.206 40.96-0.040 0-0.080 0-0.12 0h-29.323c-14.391-19.043-35.111-32.639-58.987-37.681l-0.65-0.115v-11.952c-0.043-25.821-16.439-47.802-39.382-56.142l-0.416-0.132v-43.207c-0.026-21.97-17.829-39.772-39.796-39.798h-139.282c-21.973 0.017-39.781 17.825-39.798 39.797v43.209c-23.365 8.465-39.765 30.45-39.798 56.27v218.88c0.028 25.826 16.43 47.813 39.382 56.142l0.416 0.132v48.617c-11.971 6.99-19.889 19.771-19.899 34.402v59.7c0 10.974 8.895 19.899 19.899 19.899h218.876c10.989 0 19.899-8.926 19.899-19.899v-59.698c0-14.703-8.039-27.495-19.899-34.403v-48.617c23.363-8.468 39.761-30.451 39.798-56.27v-11.941c24.518-5.177 45.233-18.768 59.455-37.547l0.181-0.249h29.329c68.868 0 133.762-26.976 182.746-75.944 48.953-48.969 75.929-113.878 75.929-182.746 0-68.853-26.976-133.777-75.929-182.731-48.984-48.969-113.878-75.944-182.746-75.944h-128.779v-73.606h327.772zM324.134 418.136h139.279v39.783h-139.279v-39.783zM483.313 915.586h-179.078v-39.798h179.078v39.798zM324.119 836.004v-39.798h139.279v39.798h-139.279zM503.212 736.493c0 10.989-8.926 19.899-19.899 19.899h-179.078c-10.974 0-19.899-8.91-19.899-19.899v-218.876c0-10.974 8.926-19.899 19.899-19.899h179.078c10.974 0 19.899 8.926 19.899 19.899v11.952c-45.711 9.636-79.539 49.606-79.597 97.488v0.006c0 48.052 34.235 88.232 79.597 97.494v11.936zM523.111 686.76c-32.956-0.035-59.663-26.742-59.698-59.694v-0.003c0.035-32.956 26.742-59.663 59.694-59.698h0.003c32.956 0.035 59.663 26.742 59.698 59.694v0.003c-0.035 32.956-26.742 59.663-59.694 59.698h-0.003zM690.466 217.126c37.806 10.778 70.207 30.316 96.094 56.341l0.010 0.010c41.464 41.449 64.298 96.363 64.298 154.593 0 58.246-22.834 113.144-64.298 154.609-41.449 41.449-96.348 64.283-154.593 64.283h-11.386c1.281-5.982 2.014-12.855 2.014-19.899s-0.733-13.917-2.128-20.546l0.114 0.647h11.386c47.624 0 92.527-18.692 126.472-52.621 33.914-33.93 52.621-78.848 52.621-126.472s-18.692-92.512-52.637-126.456c-20.001-20.119-44.745-35.5-72.416-44.325l-1.266-0.349c4.374-8.053 6.946-17.633 6.946-27.814 0-4.249-0.448-8.392-1.299-12.387l0.069 0.387zM463.398 169.396h-139.264v-73.606h139.264v73.606zM194.224 55.976c-10.974 0-19.899-8.91-19.899-19.899v-59.682h676.543v59.682c0 10.989-8.926 19.899-19.899 19.899h-636.745z" />
<glyph unicode="&#xe92b;" glyph-name="44" d="M764.765 553.294c-33.992-73.795-85.749-134.417-149.954-178.107l-1.494-0.959c-15.271-10.285-24.383-27.915-24.383-47.178v-107.342c33.877-9.027 58.435-39.408 58.487-75.533v-0.006h19.501c32.291-0.034 58.459-26.197 58.502-58.483v-117.007c0-10.759-8.741-19.486-19.501-19.486h-389.966c-0.004 0-0.010 0-0.015 0-10.762 0-19.486 8.724-19.486 19.486 0 0 0 0 0 0v0 117.003c0.034 32.288 26.199 58.453 58.484 58.487h19.504c0 20.821 8.118 40.411 22.854 55.148 9.558 9.601 21.612 16.709 35.107 20.27l0.54 0.121v107.431c0 19.204-9.112 36.805-24.368 47.089-65.699 44.649-117.456 105.272-150.344 176.404l-1.104 2.662c-96.301 25.941-155.663 119.17-155.663 246.027 0.042 32.292 26.209 58.459 58.497 58.502h58.491v31.18c0.042 32.292 26.209 58.459 58.497 58.502h467.957c32.296-0.034 58.468-26.206 58.502-58.498v-31.183h58.487c32.292-0.042 58.459-26.209 58.502-58.497v-0.004c0-126.842-59.347-220.056-155.633-246.027zM218.453 731.648v87.159h-58.487c-10.759 0-19.501-8.741-19.501-19.486 0-95.826 35.974-166.823 98.022-197.558-12.707 38.687-20.035 83.213-20.035 129.451 0 0.152 0 0.305 0 0.457v-0.023zM354.942 105.168c-10.745 0-19.501-8.741-19.501-19.486v-97.488h350.98v97.488c0 10.745-8.756 19.486-19.501 19.486h-311.979zM764.409 889.003c0 10.759-8.741 19.501-19.501 19.501h-467.953c-10.759 0-19.501-8.741-19.501-19.501v-157.355c0-53.278 10.611-105.101 31.536-154.030 30.648-70.715 79.191-128.798 140.012-170.18l1.359-0.873c26.030-17.542 41.568-47.223 41.568-79.427v-124.468c0-10.774-8.726-19.59-19.501-19.59-0.505 0-1.009 0.030-1.514 0.059-10.213-0.384-19.356-4.667-26.043-11.396l-0.002-0.002c-7.059-7.018-11.427-16.734-11.427-27.471 0-0.036 0-0.072 0-0.108v0.006h194.976c-0.017 21.528-17.46 38.976-38.984 39.001h-0.002c-10.77 0-19.501 8.731-19.501 19.501v0 124.379c0 32.249 15.553 61.989 41.598 79.516 62.172 42.259 110.71 100.341 140.378 168.528l0.979 2.525c19.925 45.268 31.522 98.043 31.522 153.527 0 0.177 0 0.354 0 0.531v-0.028 157.355zM861.896 818.807h-58.487v-87.159c0-44.433-6.738-87.96-20.020-129.885 62.048 30.735 98.007 101.732 98.007 197.558 0 10.745-8.741 19.486-19.501 19.486zM589.542 658.246l12.793-74.529c1.113-6.5-1.558-13.089-6.901-16.978-2.824-2.063-6.365-3.301-10.194-3.301-2.946 0-5.722 0.733-8.153 2.026l0.094-0.046-66.961 35.202-66.946-35.202c-2.332-1.242-5.099-1.972-8.036-1.972-9.59 0-17.363 7.774-17.363 17.363 0 1.027 0.089 2.033 0.26 3.011l-0.015-0.104 12.778 74.529-54.168 52.803c-3.244 3.153-5.257 7.559-5.257 12.434 0 8.705 6.417 15.911 14.779 17.147l0.094 0.011 74.841 10.848 33.48 67.851c2.906 5.761 8.776 9.644 15.553 9.644s12.647-3.882 15.507-9.544l0.046-0.099 33.48-67.851 74.841-10.848c8.443-1.267 14.843-8.469 14.843-17.167 0-4.87-2.006-9.271-5.238-12.422l-0.004-0.004-54.153-52.803zM545.243 718.484c-5.763 0.854-10.535 4.444-13.014 9.383l-0.045 0.1-21.964 44.507-21.964-44.507c-2.523-5.12-7.405-8.667-13.060-9.483l-49.078-7.123 35.528-34.623c4.081-3.992 5.951-9.721 4.986-15.36l-8.385-48.9 43.898 23.092c2.341 1.254 5.121 1.991 8.073 1.991s5.732-0.737 8.167-2.037l-0.093 0.046 43.913-23.092-8.4 48.9c-0.157 0.879-0.247 1.891-0.247 2.923 0 4.872 2.003 9.276 5.231 12.434l35.531 34.626-49.078 7.123z" />
<glyph unicode="&#xe92c;" glyph-name="45" d="M1004.040 411.372l-0.063 0.032c-0.908 0.614-1.949 1.184-3.042 1.654l-0.124 0.047-228.872 102.116v307.31l-0.016 0.441v0.142l-0.016 0.284v0.173l-0.032 0.378-0.016 0.268-0.016 0.126c-0.382 3.988-1.912 7.56-4.251 10.45l0.029-0.037-0.095 0.126-0.142 0.173c-0.047 0.047-0.11 0.095-0.158 0.173l-0.11 0.126-0.268 0.299-0.047 0.047-0.252 0.268-0.063 0.079-0.299 0.299c-0.105 0.108-0.213 0.211-0.324 0.31l-0.022 0.022-0.299 0.284-0.063 0.063-0.284 0.236-0.063 0.063-0.315 0.268-0.095 0.079-0.221 0.173-0.142 0.126-0.173 0.11c-1.235 0.949-2.64 1.782-4.139 2.438l-0.13 0.051-240.451 107.268c-2.349 1.075-5.095 1.701-7.987 1.701s-5.639-0.627-8.11-1.752l0.123 0.050-240.467-107.268c-1.696-0.731-3.158-1.602-4.489-2.634l0.047 0.035-0.126-0.126-0.236-0.173c-0.036-0.022-0.067-0.048-0.094-0.078v0l-0.315-0.268-0.063-0.047c-0.088-0.085-0.18-0.167-0.276-0.246l-0.008-0.006-0.063-0.047-0.299-0.284-0.016-0.016-0.315-0.331-0.032-0.016-0.347-0.347-0.236-0.268c-0.028-0.013-0.050-0.035-0.063-0.062v-0.001l-0.268-0.299-0.11-0.126-0.284-0.347-0.11-0.126c-2.312-2.846-3.838-6.415-4.201-10.321l-0.006-0.076-0.032-0.142-0.016-0.252-0.016-0.378-0.016-0.189v-0.425l-0.016-0.441v-307.295l-228.888-102.132c-7.247-3.040-11.973-10.098-11.973-17.944v-320.071c0-7.704 4.537-14.698 11.595-17.849l241.018-107.536c4.962-2.237 10.65-2.253 15.612-0.016l0.221 0.095 232.873 103.897 233.661-104.196c4.899-1.875 10.366-1.764 15.187 0.284l240.876 107.473c7.042 3.151 11.595 10.145 11.595 17.849v321.3c0 6.207-3.34 11.926-8.759 14.982zM531.078 702.377l201.665 89.97v-277.11l-201.665-90.002v277.142zM511.48 908.548l192.843-86.016-192.843-86.048-192.843 86.048 192.843 86.016zM251.022 270.155v-272.352l-201.681 89.97v277.142l202.216-90.222c-0.34-1.339-0.536-2.876-0.536-4.459 0-0.027 0-0.055 0-0.082v0.004zM270.62 309.020l-192.843 86.063 192.843 86.032 192.827-86.032-192.827-86.063zM491.882 87.773l-201.681-89.97v272.352c0 1.56-0.173 3.072-0.52 4.537l202.201 90.222v-277.142zM491.882 425.236l-201.681 90.002v277.11l201.681-89.97v-277.142zM732.743 270.155v-272.352l-201.665 89.97v277.142l202.201-90.222c-0.339-1.362-0.534-2.927-0.536-4.536v-0.001zM752.341 309.020l-192.843 86.063 192.843 86.032 192.843-86.032-192.843-86.063zM973.619 87.773l-201.681-89.97v272.352c-0.001 1.61-0.196 3.175-0.563 4.671l0.028-0.134 202.216 90.222v-277.142z" />
<glyph unicode="&#xe92d;" glyph-name="46" d="M1024 384h-448v-448h-128v448h-448v128h448v448h128v-448h448v-128z" />
<glyph unicode="&#xe92e;" glyph-name="47" d="M952.101 635.611l-474.258-474.331-474.331 474.331 103.424 103.424 370.907-370.834 370.907 370.834 103.351-103.424z" />
<glyph unicode="&#xe92f;" glyph-name="48" d="M952.101 260.681l-103.351-103.424-370.907 370.907-370.907-370.907-103.424 103.424 474.331 474.331 474.258-474.331z" />
<glyph unicode="&#xe930;" glyph-name="49" d="M1024 408.615h-472.615v-472.576h-78.769v472.576h-472.615v78.769h472.615v472.615h78.769v-472.615h472.615v-78.769z" />
<glyph unicode="&#xe931;" glyph-name="50" d="M948.834 715.142l49.664 49.64c5.417 5.429 8.766 12.922 8.766 21.198 0 15.679-12.023 28.55-27.353 29.897l-0.114 0.008-92.136 7.778-7.778 92.136c-1.381 15.432-14.251 27.436-29.925 27.436-8.264 0-15.749-3.337-21.179-8.738l-49.663-49.663c-75.767 47.19-167.744 75.167-266.256 75.167-0.303 0-0.606 0-0.909-0.001h0.047c-0.415 0.001-0.906 0.002-1.397 0.002-140.94 0-268.492-57.321-360.614-149.923l-0.022-0.022c-92.638-92.15-149.969-219.715-149.969-360.67 0-0.488 0.001-0.975 0.002-1.462v0.075c-0.001-0.417-0.002-0.91-0.002-1.403 0-140.943 57.332-268.495 149.947-360.608l0.022-0.022c92.15-92.638 219.715-149.969 360.67-149.969 0.479 0 0.958 0.001 1.437 0.002h-0.075c0.404-0.001 0.883-0.002 1.362-0.002 140.955 0 268.52 57.331 360.648 149.947l0.022 0.022c92.638 92.15 149.969 219.715 149.969 360.67 0 0.479-0.001 0.958-0.002 1.437v-0.075c0 94.988-25.941 186.807-75.166 267.142zM830.001 793.381c1.279-14.578 12.802-26.101 27.266-27.372l0.114-0.008 53.004-4.462-71.753-71.753-78.263 6.607-6.583 78.238 71.753 71.778 4.462-53.029zM614.010 448c-0.083-56.3-45.708-101.916-102.003-101.986h-0.007c-56.302 0.069-101.927 45.685-102.010 101.977v0.008c0.055 56.316 45.694 101.954 102.005 102.010h0.005c17.213 0 33.451-4.315 47.689-11.874l-68.901-68.925c-5.472-5.427-8.859-12.948-8.859-21.26 0-16.535 13.405-29.94 29.94-29.94 0.046 0 0.092 0 0.138 0h-0.007c7.68 0 15.36 2.926 21.211 8.802l68.901 68.901c7.582-14.263 11.898-30.476 11.898-47.714zM603.307 581.754c-25.501 17.688-57.106 28.258-91.178 28.258-0.045 0-0.090 0-0.135 0h0.007c-89.432-0.111-161.901-72.58-162.011-162.001v-0.010c0.111-89.427 72.583-161.89 162.002-161.987h0.009c89.418 0.111 161.876 72.569 161.987 161.977v0.010c0 0.056 0 0.122 0 0.189 0 34.053-10.57 65.637-28.607 91.651l0.349-0.533 85.65 85.675c38.99-47.817 62.61-109.509 62.61-176.718 0-0.093 0-0.185 0-0.278v0.014c0-155.477-126.488-281.99-281.99-281.99s-281.99 126.513-281.99 281.99c0 155.502 126.488 282.014 281.99 282.014 66.95 0 128.536-23.479 176.957-62.61l-85.65-85.65zM831.61 128.39c-81.351-81.779-193.965-132.39-318.4-132.39-0.425 0-0.851 0.001-1.276 0.002h0.066c-0.359-0.001-0.785-0.002-1.21-0.002-124.435 0-237.049 50.611-318.381 132.371l-0.019 0.020c-81.779 81.34-132.39 193.944-132.39 318.37 0 0.436 0.001 0.872 0.002 1.308v-0.068c0 120.734 47.006 234.252 132.389 319.61 81.336 81.779 193.937 132.39 318.359 132.39 0.44 0 0.879-0.001 1.319-0.002h-0.068c78.994 0 155.502-20.285 223.354-58.953l-33.841-33.841c-5.442-5.422-8.81-12.923-8.81-21.211 0-0.884 0.038-1.759 0.113-2.624l-0.008 0.112 4.047-47.86c-52.093 34.104-115.904 54.394-184.454 54.394-0.141 0-0.283 0-0.424 0h0.022c-188.587 0-341.992-153.429-341.992-342.016 0-188.562 153.405-341.992 341.992-341.992s341.992 153.429 341.992 341.992c0 0.133 0 0.291 0 0.449 0 68.543-20.29 132.346-55.192 185.732l0.797-1.3 47.884-4.047c0.829-0.073 1.682-0.098 2.511-0.098l0.439 0.024 1.195 0.049c0.634 0.049 1.292 0.073 1.926 0.146l1.195 0.171c0.634 0.122 1.268 0.219 1.902 0.39l1.17 0.268c0.883 0.246 1.484 0.438 2.078 0.643l-0.274-0.082 1.17 0.414 1.731 0.756 1.097 0.512c0.585 0.293 1.146 0.634 1.707 0.951l1 0.61c0.585 0.39 1.17 0.805 1.731 1.243l0.805 0.585c0.805 0.658 1.585 1.365 2.341 2.097l33.841 33.841c37.075-63.956 58.954-140.717 58.954-222.588 0-0.269 0-0.538-0.001-0.807v0.041c0-120.734-47.006-234.228-132.389-319.61z" />
<glyph unicode="&#xe932;" glyph-name="51" d="M512 958.545l-270.228-152.98v-272.061l-240.317-136.057v-306.984l270.228-152.98 240.317 136.057 240.317-136.057 270.201 152.98v579.072l-510.518 289.011zM301.595 226.493l180.493 102.157v-203.264l-180.493-102.157v203.264zM301.595 736.768l180.493-102.157v-203.264l-180.493 102.157v203.264zM541.912 600.738l180.493-102.157v-475.352l-180.493 102.157v475.352zM752.317 550.427l-179.55 101.645 179.55 101.619 179.523-101.619-179.523-101.645zM691.523 788.103l-179.523-101.645-179.55 101.645 179.55 101.619 179.523-101.619zM271.683 481.63l179.55-101.645-179.55-101.619-179.523 101.619 179.523 101.645zM61.305 328.65l180.467-102.157v-203.264l-180.467 102.157v203.264zM782.228 23.229v475.352l180.467 102.157v-475.352l-180.467-102.157z" />
<glyph unicode="&#xe933;" glyph-name="52" d="M935.026 813.284h-846.108c-33.508 0-60.7-27.136-60.7-60.7v-609.109c0-33.564 27.193-60.757 60.7-60.757h846.108c33.564 0 60.757 27.193 60.757 60.757v609.109c0 33.564-27.193 60.7-60.757 60.7zM862.492 729.543l-350.492-299.634-350.492 299.634h700.985zM861.753 166.514h-699.506c-27.743 0-50.233 22.49-50.233 50.233v0 445.212l399.986-336.498 399.986 336.498v-445.212c0-27.743-22.49-50.233-50.233-50.233v0z" />
</font>
</defs>
</svg>
