<?xml version="1.0" standalone="no"?>
<!DOCTYPE svg PUBLIC "-//W3C//DTD SVG 1.1//EN" "http://www.w3.org/Graphics/SVG/1.1/DTD/svg11.dtd">
<svg xmlns="http://www.w3.org/2000/svg">
<metadata>Copyright (C) 2016 by original authors @ fontello.com</metadata>
<defs>
<font id="fontello" horiz-adv-x="1000" >
<font-face font-family="fontello" font-weight="400" font-stretch="normal" units-per-em="1000" ascent="850" descent="-150" />
<missing-glyph horiz-adv-x="1000" />
<glyph glyph-name="right-arrow" unicode="&#xe800;" d="M410-60c226 0 410 184 410 410s-184 410-410 410c-227 0-410-184-410-410s183-410 410-410z m0 787c208 0 377-169 377-377s-169-377-377-377c-208 0-377 169-377 377s169 377 377 377z m25-553l23-23 199 199-199 199-23-23 159-160h-397v-32h397z" horiz-adv-x="813" />
<glyph glyph-name="prev" unicode="&#xe801;" d="M500 350l467-267v534l-467-267z m433-209l-366 209 366 209v-418z m-899 209l466-267v534l-466-267z m433-209l-366 209 366 209v-418z" horiz-adv-x="1000" />
<glyph glyph-name="preview" unicode="&#xe802;" d="M766 59l-500 291 500 291c0 0 0-582 0-582z m34 641l-600-350 600-350v700l0 0z" horiz-adv-x="1000" />
<glyph glyph-name="print" unicode="&#xe803;" d="M233 467c-18 0-33-15-33-34s15-33 33-33c19 0 34 15 34 33s-15 34-34 34z m100 0c-18 0-33-15-33-34s15-33 33-33c19 0 34 15 34 33s-15 34-34 34z m584 133h-184v167h-466v-167h-183c-10 0-17-7-17-17v-500c0-9 7-16 17-16h183v-134h466v134h184c9 0 16 7 16 16v500c0 10-7 17-16 17z m-617 133h400v-133h-400v133z m400-766h-400v300h400v-300z m200 133h-167v200h-466v-200h-167v467h800v-467z" horiz-adv-x="1000" />
<glyph glyph-name="rocket" unicode="&#xe804;" d="M333 617c-46 0-83-37-83-84s37-83 83-83c47 0 84 37 84 83s-37 84-84 84z m0-134c-28 0-50 22-50 50s22 50 50 50c29 0 50-21 50-50s-21-50-50-50z m167-225c0 120 0 257 0 307 0 93-62 220-167 285-105-65-166-192-166-287 0-50 0-186 0-306l-167-207h667l-167 208z m-333-175h-97l97 122v-122z m300 0h-267v480c0 75 47 184 133 247 87-63 134-170 134-247v-480z m33 122l97-122h-97c0 29 0 72 0 122z m-183-188h33v-167h-33v167z m83 0h33v-100h-33v100z m-167 0h34v-100h-34v100z" horiz-adv-x="656" />
<glyph glyph-name="safe" unicode="&#xe805;" d="M410 498c-76 0-139-58-147-132h-33v-32h33c8-74 71-131 147-131 81 0 147 66 147 147s-66 148-147 148z m0-263c-58 0-106 43-114 99h114v32h-114c8 56 56 99 114 99 63 0 115-52 115-115s-52-115-115-115z m-312-35v99h-32v-131h32z m0 232v98h-32v-131h32z m33 197v-558h557v558h-557z m525-525h-492v492h492v-492h0z m-656 623v-754h820v754h-820z m787-721h-754v688h754v-688h0z" horiz-adv-x="813" />
<glyph glyph-name="search" unicode="&#xe806;" d="M894-2l-227 227c45 55 73 125 73 202 0 175-142 317-317 317-175 0-316-142-316-317 0-175 141-317 316-317 77 0 147 28 202 74l227-228 42 42z m-754 429c0 156 127 283 283 283 156 0 283-127 283-283s-127-283-283-283c-156 0-283 127-283 283z" horiz-adv-x="1000" />
<glyph glyph-name="science" unicode="&#xe807;" d="M768 350c82 84 119 166 88 216-12 20-40 44-105 44-35 0-77-7-122-20-29 107-79 177-136 177-57 0-106-68-135-173-40 11-77 16-109 16-64 0-92-24-105-44-24-40-8-100 47-170 12-15 26-31 41-46-82-84-118-166-88-216 12-20 41-44 105-44 32 0 69 5 109 16 29-105 78-173 135-173 57 0 107 70 136 177 45-13 87-20 122-20 65 0 93 24 105 44 31 50-6 132-88 216z m-17 227c27 0 63-5 77-28 20-33-11-101-83-176-27 25-57 50-91 74-3 39-9 77-17 111 43 12 82 19 114 19z m-182-340c-23-14-46-27-69-39-23 12-46 25-69 39-24 14-47 30-68 45-2 22-3 45-3 68 0 23 1 46 3 68 21 15 44 31 68 45 23 14 46 27 69 39 23-12 46-25 69-39 19-11 37-23 54-35 1-25 3-51 3-78s-2-53-3-78c-17-12-35-24-54-35z m49-9c-3-26-7-52-12-75-23 8-45 17-68 27 16 9 32 18 48 28 11 7 22 14 32 20z m-155-48c-28-12-55-23-82-32-6 28-11 58-15 91 16-10 32-21 48-31 16-10 32-19 49-28z m-135 129c-17 13-34 27-48 41 14 14 30 28 48 41-1-13-1-27-1-41s0-28 1-41z m38 152c4 33 9 63 15 91 27-9 54-20 82-32-17-9-33-18-49-28-16-10-32-20-48-31z m172 59c23 10 45 19 68 27 5-23 9-48 12-75-10 7-21 13-32 20-16 10-32 19-48 28z m120-117c23-18 44-35 63-53-19-18-40-35-63-53 0 17 1 35 1 53s-1 36-1 53z m-165 330c38 0 78-58 104-153-31-11-64-25-97-41-38 18-75 34-110 45 26 93 66 149 103 149z m-320-184c14 23 49 28 76 28 29 0 63-5 100-16-9-38-15-80-19-126-27-20-52-41-74-62-15 15-28 29-39 44-45 57-61 105-44 132z m76-426c-27 0-62 5-76 28-21 33 10 101 83 176 22-21 47-42 74-62 4-46 10-88 19-126-37-10-71-16-100-16z m244-156c-37 0-77 56-103 149 35 11 72 27 110 45 33-16 66-30 97-41-26-95-66-153-104-153z m335 184c-14-23-50-28-77-28-32 0-71 7-114 20 8 34 14 71 17 110 34 24 64 49 91 74 72-75 103-143 83-176z" horiz-adv-x="1000" />
<glyph glyph-name="scissors" unicode="&#xe808;" d="M423 283l489-4-28 28c-2 2-209 204-485 11l-87 128c11 10 20 21 27 35 30 56 9 125-47 155-56 30-125 9-155-47-30-56-9-126 47-156 32-17 69-17 100-4l77-113-132 1c-5 36-26 69-60 88-56 29-126 8-155-48-30-56-9-125 47-155 56-30 125-9 155 47 6 12 10 23 12 35l153-1c-4-82 11-147 35-200h-55v-32h98v16h2c-1 1-1 3-2 4v12h-7c-21 42-36 92-38 155l105-155h-27v-32h98v32h-31l-136 200z m371 48c12-6 23-13 31-19l-369 3c148 86 268 54 338 16z m-594 131c-40 22-55 71-34 111s71 55 111 34c40-21 55-71 34-111-22-40-71-55-111-34z m-13-197c-21-40-71-55-111-34s-55 71-34 111c22 40 71 55 111 34 40-22 55-71 34-111z m43-182h98v-32h-98v32z m393 0h98v-32h-98v32z m-525 0h99v-32h-99v32z m656 0h98v-32h-98v32z" horiz-adv-x="906" />
<glyph glyph-name="shield" unicode="&#xe809;" d="M317 767l-317-60c0 0 0-380 0-449 0-108 95-248 317-325 221 77 316 217 316 325 0 69 0 449 0 449l-316 60z m283-509c0-93-88-218-283-290-195 72-284 197-284 290v420l284 55 283-53v-422z m-378 255l-25-23 100-100-100-100 25-23 98 100 100-100 23 23-100 100 100 100-23 23-100-100z" horiz-adv-x="625" />
<glyph glyph-name="server" unicode="&#xe80a;" d="M500 783c-212 0-383-82-383-183v-500c0-101 171-183 383-183 212 0 383 82 383 183v500c0 101-171 183-383 183z m0-33c206 0 350-79 350-150 0-71-144-150-350-150-206 0-350 79-350 150 0 71 144 150 350 150z m350-617v-33c0-71-144-150-350-150-206 0-350 79-350 150v92c60-64 194-108 350-108 156 0 290 44 350 108v-59z m0 134c0-71-144-150-350-150-206 0-350 79-350 150v92c60-64 194-109 350-109 156 0 290 45 350 109v-92z m0 166c0-71-144-150-350-150-206 0-350 79-350 150v92c60-64 194-108 350-108 156 0 290 44 350 108v-92z" horiz-adv-x="1000" />
<glyph glyph-name="settings" unicode="&#xe80b;" d="M800 273l133 14v125l-133 13c-8 40-25 77-45 108l75 100-77 77-100-75c-31 20-68 37-106 45l-15 133h-125l-15-133c-39-8-74-23-105-43l-104 73-76-77 73-103c-20-32-35-67-43-105l-134-15v-125l134-15c8-38 25-75 45-108l-75-100 76-77 100 75c32-20 69-37 107-45l17-133h125l16 133c39 8 74 23 105 43l102-73 77 77-75 105c20 33 35 68 43 106z m100 110v-65l-100-10c2 14 3 29 3 44s-1 28-3 43l100-12z m-152 287l37-37-55-75c-17 22-35 40-57 57l75 55z m-315 113h67l12-100c-15 2-30 4-44 4-15 0-30-2-43-4l8 100z m-286-151l38 38 77-53c-12-9-22-19-32-29s-20-20-28-31l-55 75z m-114-315v66l100 12c-1-15-3-30-3-45s2-30 3-43l-100 10z m152-285l-37 35 55 75c17-20 35-40 55-55l-73-55z m315-115h-67l-11 100c15-2 30-4 45-4v0 0c15 0 30 2 45 4l-12-100z m-33 131c-167 0-302 135-302 302 0 80 32 157 88 213s134 89 214 89v0c166 0 301-135 301-302 0-80-31-157-88-213s-132-89-213-89z m320 20l-37-36-77 55c12 8 22 18 32 28s18 20 28 32l54-79z" horiz-adv-x="938" />
<glyph glyph-name="share" unicode="&#xe80c;" d="M817 783c-74 0-134-59-134-133 0-13 2-25 6-37l-390-163c-23 40-66 67-116 67-73 0-133-60-133-134s60-133 133-133c39 0 74 17 98 43l251-181c-10-18-15-39-15-62 0-74 59-133 133-133s133 59 133 133c0 74-59 133-133 133-39 0-74-17-99-43l-250 180c10 19 16 40 16 63 0 13-2 25-5 36l390 164c23-40 66-66 115-66 73 0 133 59 133 133 0 74-60 133-133 133z m-167-633c55 0 100-45 100-100s-45-100-100-100c-55 0-100 45-100 100s45 100 100 100z m-466 133c-56 0-100 45-100 100s44 100 100 100 99-45 99-100c0-55-44-100-99-100z m633 267c-56 0-100 45-100 100s44 100 100 100c55 0 100-45 100-100s-45-100-100-100z" horiz-adv-x="1000" />
<glyph glyph-name="shopbag" unicode="&#xe80d;" d="M100 750v-800h800v800h-800z m767-767h-733v734h733v-734z m-584 450c0-119 97-216 217-216s217 97 217 216v117h33v33h-100v-33h33v-117c0-101-82-183-183-183-101 0-183 82-183 183v117h33v33h-100v-33h33v-117z" horiz-adv-x="1000" />
<glyph glyph-name="shuffle" unicode="&#xe80e;" d="M744 259l109-109h-196l-407 433h-167v-33h153l406-433h211l-109-109 24-24 149 149-149 150z m-508-109h-153v-33h167l161 172-24 22z m421 400h196l-109-109 24-24 149 150-149 149-24-24 109-109h-211l-162-173 24-23z" horiz-adv-x="1000" />
<glyph glyph-name="signal" unicode="&#xe80f;" d="M499 275c-73 0-133-60-133-133s60-133 133-133c74 0 133 59 133 133s-59 133-133 133z m0-233c-55 0-100 45-100 100s45 100 100 100c55 0 100-45 100-100s-45-100-100-100z m0 383c-112 0-209-66-255-161l25-25c38 90 127 153 230 153s192-63 230-153l25 25c-45 95-142 161-255 161z m2 267c-186 0-351-93-450-235l24-24c93 136 249 225 426 225 176 0 331-88 425-223l23 24c-99 141-263 233-448 233z m0-134c-150 0-281-79-354-197l24-24c67 112 190 188 330 188 139 0 261-75 328-186l24 24c-73 117-204 195-352 195z" horiz-adv-x="1000" />
<glyph glyph-name="smile" unicode="&#xe810;" d="M400 750c-222 0-400-178-400-400s178-400 400-400c222 0 400 178 400 400s-178 400-400 400z m0-767c-202 0-367 165-367 367s165 367 367 367c202 0 367-165 367-367s-165-367-367-367z m208 272c-8 3-18 2-21-7-37-71-109-115-187-115-80 0-150 44-187 115-3 9-13 12-21 7-9-3-12-13-9-22 42-81 124-133 217-133 92 0 175 52 215 133 5 9 2 19-7 22z m-291 178c0-27-23-50-50-50s-50 23-50 50c0 28 22 50 50 50s50-22 50-50z m266 0c0-27-22-50-50-50s-50 23-50 50c0 28 23 50 50 50s50-22 50-50z" horiz-adv-x="813" />
<glyph glyph-name="speaker" unicode="&#xe811;" d="M-1 465v-233h100v-200h34v200h256l243-197v633l-245-203h-388z m34-200v167h133v-167h-133z m376 175l190 157v-492l-198 160h-202v167h200l10 7z m454 198l-24-24c78-61 128-156 128-262 0-110-53-207-134-267l24-25c87 67 144 173 144 292 0 115-54 219-138 286z m-107-107l-24-25c51-32 85-89 85-154 0-69-37-128-92-160l24-24c61 38 102 106 102 184 0 74-38 140-95 179z" horiz-adv-x="1000" />
<glyph glyph-name="star" unicode="&#xe812;" d="M606 450l-106 325-106-325h-344l279-200-107-325 278 202 278-202-107 325 279 200h-344z m33-210l75-227-214 155-214-155 82 250-19 14-195 140h265l81 250 82-250h264l-214-154 7-23z" horiz-adv-x="1000" />
<glyph glyph-name="stopwatch" unicode="&#xe813;" d="M783 576l28 28 28-29 36 36-81 80-35-35 28-29-28-28c-63 57-144 94-234 100v68h-50v-68c-200-13-358-179-358-382 0-212 171-384 383-384s383 172 383 384c0 100-38 190-100 259z m-283-609c-193 0-350 157-350 350s157 350 350 350 350-157 350-350c0-193-157-350-350-350z m17 397v219h-34v-219c-19-7-33-26-33-47s14-40 33-47v-70h34v70c19 7 33 25 33 47s-14 40-33 47z" horiz-adv-x="1000" />
<glyph glyph-name="sun" unicode="&#xe814;" d="M500 600c-138 0-250-112-250-250 0-138 112-250 250-250s250 112 250 250c0 138-112 250-250 250z m0-467c-119 0-217 97-217 217 0 119 98 216 217 216s217-97 217-216c0-120-98-217-217-217z m-16 717h33v-200h-33v200z m0-800h33v-200h-33v200z m-484 317h200v-34h-200v34z m800 0h200v-34h-200v34z m42 349l23-23-139-140-24 24 140 139z m-683-730l-24 23 139 140 24-24-139-139z m0 730l139-139-24-24-139 140 24 23z m683-730l-139 139 23 24 139-140-23-23z" horiz-adv-x="1000" />
<glyph glyph-name="switch" unicode="&#xe815;" d="M590 350c0 163-132 295-295 295s-295-132-295-295c0-163 132-295 295-295s295 132 295 295z m-295-262c-145 0-262 117-262 262s117 262 262 262c145 0 262-117 262-262s-117-262-262-262z m393 557h-251c19-9 37-20 54-33h197c145 0 263-117 263-262s-118-262-263-262h-197c-17-13-35-24-54-33h251c163 0 295 132 295 295s-132 295-295 295z" horiz-adv-x="969" />
<glyph glyph-name="target" unicode="&#xe816;" d="M502 489c-74 0-134-60-134-134 0-73 60-133 134-133s133 60 133 133c0 74-60 134-133 134z m0-234c-55 0-100 45-100 100s45 100 100 100c55 0 100-45 100-100s-45-100-100-100z m0 367c-147 0-267-120-267-267s120-266 267-266 266 119 266 266c0 147-119 267-266 267z m0-500c-129 0-233 105-233 233s104 234 233 234 233-105 233-234c0-128-105-233-233-233z m398 233c0 221-179 400-400 400s-400-179-400-400c0-121 55-230 140-304l-68-85 26-21 69 86c65-48 146-76 233-76 87 0 167 28 233 75l68-85 26 21-68 85c86 73 141 182 141 304z m-766 0c0 202 164 367 366 367s367-165 367-367c0-202-165-366-367-366s-366 164-366 366z" horiz-adv-x="1000" />
<glyph glyph-name="ticket" unicode="&#xe817;" d="M774 800h-219l-505-504 396-396 504 503v222l-176 175z m143-383l-471-470-349 349 472 471h192l156-156v-194z m-234 183c0-37 30-66 67-66s67 29 67 66c0 37-30 67-67 67s-67-30-67-67z m100 0c0-18-15-33-33-33s-33 15-33 33c0 18 15 33 33 33s33-15 33-33z" horiz-adv-x="1000" />
<glyph glyph-name="timer" unicode="&#xe818;" d="M459 321c1-1 2-1 2-2 9-12 23-19 39-19 28 0 50 22 50 50 0 15-6 28-16 37-2 1-3 3-5 4l-202 154c-6 5-14 5-20 0-8-6-9-16-3-24l155-200z m41 446c-5 0-11-1-16-1v-18h-1v-181h34v165c203-8 366-176 366-382 0-211-172-383-383-383s-383 172-383 383c0 106 43 201 112 271l-23 24c-76-76-123-180-123-295 0-230 187-417 417-417s416 187 416 417c0 230-186 417-416 417z" horiz-adv-x="1000" />
<glyph glyph-name="tools" unicode="&#xe819;" d="M923 45l-177 177 24 23-24 24-70-71-118 118 141 142c19-7 39-10 59-10 47 0 91 18 124 51 51 51 65 126 36 193l-9 22-76-76-61-1 0 59 78 77-23 10c-22 9-45 14-69 14-47 0-91-18-124-51-48-48-64-119-41-182l-141-142-201 200 24 24-130 129-70-70 129-130 24 24 200-200-141-142c-19 7-39 10-59 10-47 0-91-18-124-51-51-51-65-127-37-193l10-23 77 78 59 1-1-62-76-76 23-9c22-10 45-15 69-15 47 0 90 19 123 52 49 48 64 118 42 182l141 142 118-118-71-71 24-24 23 24 177-177c16-16 37-24 59-24s43 8 59 24c32 33 32 86 0 118z m-801 660l23 23 83-82-24-24-82 83z m236-557c23-53 11-115-30-156-27-27-62-41-100-41-11 0-22 1-32 3l49 49 2 109-106-1-51-51c-11 47 2 97 38 132 26 27 62 42 100 42 19 0 38-4 56-12l11-4 338 338-5 10c-23 54-11 115 30 157 27 26 62 41 100 41 11 0 22-1 32-4l-51-50-1-106 109 1 49 49c11-47-3-97-38-132-27-26-62-41-100-41-19 0-38 4-56 11l-11 5-338-338 5-11z m541-197c-9-10-22-15-35-15s-26 5-35 15l-177 177 71 70 176-177c20-19 20-51 0-70z" horiz-adv-x="1000" />
<glyph glyph-name="trash" unicode="&#xe81a;" d="M817 667h-167v33c0 37-30 67-67 67h-166c-37 0-67-30-67-67v-33h-167v-34h35l33-633c0-37 30-67 67-67h366c37 0 67 30 67 67l33 633h33v34z m-434 33c0 18 15 33 34 33h166c19 0 34-15 34-33v-33h-234v33z m335-698l0-1v-1c0-18-15-33-34-33h-366c-19 0-33 15-33 33v1l-1 1-33 631h499l-32-631z m-235 565h34v-533h-34v533z m-66-532l-34 532-33-2 34-533z m233 531l-33 2-34-533 34-3z" horiz-adv-x="1000" />
<glyph glyph-name="umbrella" unicode="&#xe81b;" d="M517 766v51h-34v-51c-268-9-483-228-483-496 0-18 1-36 3-54l33 1c2 56 48 100 104 100 57 0 103-47 103-104h33c0 57 47 104 104 104 56 0 102-46 103-102v-258c0-41 33-74 74-74s74 33 74 74h-34c0-22-18-40-40-40s-40 18-40 40v256h0c0 57 46 104 103 104s104-47 104-104h33c0 57 46 104 104 104 55 0 100-44 103-99l33-1c2 18 3 35 3 53 0 268-215 487-483 496z m344-416c-52 0-97-29-121-71-23 42-68 71-120 71s-97-29-120-71c-23 42-68 71-120 71s-97-29-120-71c-23 42-69 71-120 71-43 0-80-19-105-49 16 241 219 432 465 432 247 0 449-191 466-432-26 30-63 49-105 49z" horiz-adv-x="1000" />
<glyph glyph-name="unlock" unicode="&#xe81c;" d="M733 367h-416v200c0 101 82 183 183 183 101 0 183-82 183-183v-67h34v67c0 119-97 216-217 216-120 0-217-97-217-216v-200h-116v-450h666v450h-100z m67-417h-600v383h600v-383z" horiz-adv-x="1000" />
<glyph glyph-name="up-arrow" unicode="&#xe81d;" d="M819 350c0 226-183 410-409 410s-410-184-410-410c0-226 183-410 410-410s409 184 409 410z m-786 0c0 208 169 377 377 377s377-169 377-377c0-208-169-377-377-377-208 0-377 169-377 377z m553 25l23 23-199 199-200-199 24-23 159 160v-398h33v398z" horiz-adv-x="813" />
<glyph glyph-name="upload" unicode="&#xe81e;" d="M646 264l23 24-169 169-169-169 23-24 129 129v-527h34v527z m-229-231v33h-217v566h600v-566h-217v-33h250v633h-666v-633z" horiz-adv-x="1000" />
<glyph glyph-name="usb" unicode="&#xe81f;" d="M448 650h-115v-115h50v-80c0-18 0-30-18-48l-115-114v465l23-38 29 17-69 113-68-113 28-17 24 38v-601l-105 105c-19 18-29 33-29 45v78c29 7 50 33 50 65 0 37-30 67-66 67s-67-30-67-67c0-32 22-57 50-65v-78c0-29 20-52 38-69l130-130v-93c-38-8-66-42-66-82 0-46 36-83 83-83s83 37 83 83c0 40-28 74-66 82v230l138 138c28 29 28 52 28 72v80h32v115z m-415-200c0 18 15 33 34 33s33-15 33-33c0-18-15-33-33-33s-34 15-34 33z m250-517c0-28-21-50-50-50s-50 22-50 50c0 29 22 50 50 50s50-21 50-50z m84 684h48v-49h-48v49z" horiz-adv-x="438" />
<glyph glyph-name="user" unicode="&#xe820;" d="M500 750c-221 0-400-179-400-400s179-400 400-400 400 179 400 400c0 221-179 400-400 400z m0-33c202 0 367-165 367-367 0-89-32-170-85-234-37 15-123 45-176 61-5 1-6 2-6 21 0 15 7 31 13 44 7 15 15 39 18 61 8 9 19 28 26 63 6 32 3 43-1 54 0 1-1 2-1 3-1 7 1 45 6 75 4 20-1 63-29 98-17 23-51 50-112 54l-34 0c-60-4-94-31-112-54-27-35-32-78-28-98 5-30 7-68 6-75-1-1-1-2-2-3-4-11-7-22 0-54 7-35 18-54 26-63 3-22 11-46 18-61 5-10 7-25 7-45 0-19-1-19-5-21-55-16-143-48-176-62-54 64-86 146-86 236 0 202 164 367 366 367z m-256-629c38 15 112 42 162 56 28 9 28 34 28 53 0 16-1 40-10 60-7 13-14 37-16 55 0 4-2 8-5 11-5 4-15 19-21 50-5 24-3 29-1 34 1 3 2 5 3 7 4 15-1 63-6 90-2 11 1 44 23 72 19 25 48 38 86 41l32 0c38-3 68-16 87-41 22-28 24-61 22-73-5-26-9-74-5-89 1-2 1-4 2-7 2-5 4-10-1-34-6-31-15-46-20-50-3-3-5-7-6-11-1-18-9-42-15-56-7-15-16-36-16-58 0-20 0-44 29-53 47-14 122-40 162-55-66-66-158-107-258-107-99 0-190 40-256 105z" horiz-adv-x="1000" />
<glyph glyph-name="user-female" unicode="&#xe821;" d="M393 743c-217 0-393-176-393-393s176-393 393-393c218 0 394 176 394 393s-176 393-394 393z m-215-682c24 9 50 18 74 26 80 27 92 31 92 58v63l-27 5c-2 0-48 8-79 8-16 0-25 0-34 6 22 50 46 127 54 188l2-1 3 44c3 69 61 123 130 123 70 0 127-54 131-123l3-43 1 0c9-61 32-138 55-188-9-6-18-6-34-6-31 0-76-10-81-11l-26-6v-59c0-27 13-31 97-61 21-7 45-16 68-24-60-44-134-71-214-71-81 0-155 27-215 72z m458 23c-67 26-161 55-161 61 0 8 0 33 0 33s45 10 74 10 49 2 74 33c-31 54-66 176-66 239l0 0c-5 86-76 154-164 154s-158-68-163-154l-1 0c0-63-34-185-65-239 24-31 45-33 74-33s73-7 73-7 0-28 0-36c0-6-96-34-162-60-72 66-116 161-116 265 0 199 161 361 360 361s361-162 361-361c0-105-46-200-118-266z" horiz-adv-x="781" />
<glyph glyph-name="users" unicode="&#xe822;" d="M0 163c0-15 0-57 0-67s6-25 26-25c15 0 138 0 195 0 17 0 28 0 28 0h5c0 0 3 0 8 0 0-15 0-29 0-34 0-12 7-32 32-32 19 0 172 0 242 0 21 0 35 0 35 0h6c0 0 13 0 34 0 70 0 223 0 242 0 25 0 32 20 32 32s0 64 0 82-6 37-32 48c-32 14-118 46-173 62-4 1-5 1-5 20 0 20 3 34 8 44 6 15 14 39 17 60 8 9 19 28 26 63 6 30 3 41-1 52 0 1-1 2-1 3-2 7 1 45 6 74 3 19-1 62-28 97-18 22-51 49-110 53l-33 0c-61-4-94-31-111-53-28-35-32-78-28-97 5-29 7-67 5-74 0-1 0-2-1-3-4-11-7-22-1-52 7-35 18-53 26-63 3-21 11-45 18-59 6-14 12-29 12-45 0-18-1-18-5-20-11-3-24-7-37-11-32 11-71 25-100 33-3 2-4 2-4 17 0 16 2 27 6 36 6 11 12 31 14 48 7 8 16 22 21 51 5 24 3 33 0 42-1 1-1 2-1 3-2 5 0 35 4 59 3 16 0 50-23 78-14 18-40 40-88 43h-27c-49-3-76-25-90-43-22-28-25-62-22-78 4-24 6-54 4-60 0 0 0-1-1-2-3-9-5-18 0-42 5-29 14-43 21-51 2-17 8-37 14-48 5-11 10-23 10-36 0-15-1-15-4-16-43-13-111-36-140-49-21-8-31-26-31-40z m295-44c0 5 5 14 18 20 34 14 119 44 170 59 29 9 29 33 29 51 0 22-8 42-16 58-5 12-12 32-14 51l-2 9-6 8c-4 4-12 17-18 47-5 24-3 29-1 34l0 0 0 1c1 1 1 3 2 5l0 1 0 1c4 16-1 61-5 86-2 12 0 44 22 72 19 24 48 37 86 40l31 0c46-3 72-24 85-40 21-28 24-60 22-72-5-24-9-70-6-86l0 0 0-1c1-3 2-5 3-7 1-5 4-10-1-34-6-30-15-43-19-47l-6-8-1-9c-3-19-10-39-15-51-7-15-10-33-10-58 0-18 0-43 27-52 53-15 139-46 170-60 9-4 12-8 12-18v-81h-557l0 81z m-262 44c0 1 2 7 10 10 29 12 96 35 137 47 28 9 28 34 28 48 0 19-7 36-14 50-4 9-9 25-11 39l-1 9-7 8c-2 2-8 11-13 35-4 17-2 21-1 24l0 0 0 1c1 2 1 3 2 4l0 1 0 2c4 15-1 55-4 72-2 8 1 32 16 52 14 18 36 29 65 31h25c35-3 54-18 64-31 15-20 17-44 16-52-3-18-8-58-5-72l1-1 0-1c0-2 1-4 2-6 1-3 2-7-1-24-5-24-12-33-14-35l-6-8-1-9c-2-14-7-30-12-39-6-13-8-29-8-50 0-15 0-39 26-48 17-5 38-12 59-19-34-12-67-24-86-32-26-11-38-32-38-50 0-4 0-9 0-15h-229v59z" horiz-adv-x="875" />
<glyph glyph-name="vector" unicode="&#xe823;" d="M833 542l-30-30c-65 56-148 88-235 88-58 0-116-15-166-42l126 127c10-7 22-10 34-10 16 0 33 7 46 20 27 27 27 68 0 95-13 13-30 20-46 20s-34-7-47-20c-22-23-25-57-10-82l-160-160-30 30-82-81 30-30-163-164c-10 7-22 10-33 10-17 0-34-6-47-20-27-26-27-68 0-95 13-11 30-18 47-18s33 7 46 20c22 22 25 55 10 82l127 126c-67-128-52-288 47-401l-30-32 83-82 82 82-82 82-28-29c-97 114-102 277-20 397l13-13 83 81-15 14c54 38 119 58 185 58 79 0 152-28 212-78l-30-29 83-81 82 81-82 84z m-448-567l-35-35-35 35 35 35 35-35z m153 790c7 7 15 10 24 10s16-3 23-10c13-13 13-33 0-47-7-6-15-10-23-10s-17 4-24 10c-13 12-13 34 0 47z m-448-542c-7-6-15-10-23-10s-17 4-24 10c-6 5-10 14-10 24 0 8 4 16 10 23s15 10 24 10c8 0 16-3 23-10 13-13 13-35 0-47z m223 235l-35 35 35 35 35-35-35-35z m520-35l-35 35 35 35 35-35-35-35z" horiz-adv-x="906" />
<glyph glyph-name="video" unicode="&#xe824;" d="M881 567l-214-129v145c0 28-23 50-50 50h-533c-28 0-50-22-50-50v-466c0-28 22-50 50-50h533c27 0 50 22 50 50v148l219-132h81v434h-86z m-248-450c0-9-7-17-16-17h-533c-10 0-17 8-17 17v466c0 9 7 17 17 17h533c9 0 16-8 16-17v-466z m300 50h-38l-228 137v95l223 134h43v-366z" horiz-adv-x="1000" />
<glyph glyph-name="voicemail" unicode="&#xe825;" d="M775 575c-124 0-225-101-225-225 0-81 43-152 108-192h-315c64 40 107 111 107 192 0 124-101 225-225 225s-225-101-225-225c0-124 101-225 225-225h550c124 0 225 101 225 225s-101 225-225 225z m-741-225c0 106 86 192 191 192s192-86 192-192-86-192-192-192-191 86-191 192z m741-192c-106 0-192 86-192 192s86 192 192 192 192-86 192-192-86-192-192-192z" horiz-adv-x="1000" />
<glyph glyph-name="volume" unicode="&#xe826;" d="M426 685l-240-191h-186v-148l0-1 0 0v-146h187l239-188v188h0v295h0v191h0z m-33-454h0v-153l-195 153h-165v230h164l196 156v-123l0-33v-230h0z m110 284c35-48 54-104 54-164 0-61-19-118-56-167l26-20c41 54 63 119 63 187 0 67-21 130-61 183l-26-19z m132 119l-25-21c61-75 95-169 95-266 0-96-31-186-91-261l26-20c64 80 98 177 98 281 0 104-37 206-103 287z m102 106l-25-22c91-102 140-234 140-371 0-135-48-265-135-367l25-21c92 108 143 245 143 388 0 145-52 284-148 393z" horiz-adv-x="875" />
<glyph glyph-name="volume1" unicode="&#xe827;" d="M350 433v-166h137l113-114v394l-113-114h-137z m160-23l57 56v-232l-66 66h-118v100h118l9 10z m324 189l-27-20c48-64 76-143 76-229s-28-165-76-229l27-20c52 70 83 156 83 249s-31 179-83 249z m-80-438c39 53 63 118 63 189s-24 136-63 189l-27-20c35-47 56-106 56-169s-21-122-56-169l27-20z m-81 60c27 36 44 81 44 129s-17 93-44 129l-26-20c23-30 36-68 36-109s-13-79-36-109l26-20z m-173-254c-211 0-383 172-383 383s172 383 383 383c105 0 201-43 270-112l24 24c-76 75-179 122-294 122-230 0-416-187-416-417s186-417 416-417c115 0 218 47 294 122l-24 24c-69-69-165-112-270-112z" horiz-adv-x="1000" />
<glyph glyph-name="volume2" unicode="&#xe828;" d="M350 433v-166h137l113-114v394l-113-114h-137z m160-23l57 56v-232l-66 66h-118v100h118l9 10z m-10 357c-230 0-416-187-416-417s186-417 416-417c230 0 417 187 417 417s-187 417-417 417z m0-800c-211 0-383 172-383 383s172 383 383 383c211 0 383-172 383-383s-172-383-383-383z" horiz-adv-x="1000" />
<glyph glyph-name="wallet" unicode="&#xe829;" d="M875 583h-108v92c0 41-34 75-76 75h-516c-41 0-75-34-75-75v-700c0-14 11-25 25-25h750c14 0 25 11 25 25v583c0 14-11 25-25 25z m-700 134h516c23 0 42-19 42-42v-92h-599v92c0 23 18 42 41 42z m692-734h-733v567h733v-567z m-234 284c0-46 38-84 84-84s83 38 83 84c0 46-37 83-83 83s-84-37-84-83z m134 0c0-28-23-50-50-50s-50 22-50 50c0 27 22 50 50 50s50-23 50-50z" horiz-adv-x="1000" />
<glyph glyph-name="way" unicode="&#xe82a;" d="M361 497h229l99 116-99 114h-229v66h-33v-66h-295v-230h295v-32h-230l-98-114 98-116h230v-328h33v328h295v230h-295v32z m-295 33v164h509l70-81-70-83h-509z m557-98v-164h-509l-71 83 70 81 510 0z m-525 229h164v-32h-164v32z m328-262h164v-33h-164v33z" horiz-adv-x="688" />
<glyph glyph-name="airplay" unicode="&#xe82b;" d="M900 700h-800v-500h272l-172-200h600l-171 200h271v500z m-627-666l227 265 227-265h-454z m594 199h-267l-100 117-100-117h-266v434h733v-434z" horiz-adv-x="1000" />
<glyph glyph-name="albums" unicode="&#xe82c;" d="M50 617v-667h900v667h-900z m867-634h-833v600h833v-600z m-800 700h766v-33h-766v33z m67 67h633v-33h-633v33z" horiz-adv-x="1000" />
<glyph glyph-name="angle-down" unicode="&#xe82d;" d="M476 251l24-24 188 189-23 23-165-165-165 165-23-24 94-94z" horiz-adv-x="1000" />
<glyph glyph-name="angle-left" unicode="&#xe82e;" d="M400 374l-24-24 189-188 23 23-165 165 165 165-24 23-94-94z" horiz-adv-x="1000" />
<glyph glyph-name="angle-right" unicode="&#xe82f;" d="M599 326l23 24-188 188-24-23 165-165-164-165 24-23 94 94z" horiz-adv-x="1000" />
<glyph glyph-name="angle-up" unicode="&#xe830;" d="M524 450l-24 23-188-188 23-24 165 165 165-164 23 24-94 94z" horiz-adv-x="1000" />
<glyph glyph-name="bluetooth" unicode="&#xe831;" d="M232-149v456l-198-199-24 24 211 210-221 221 23 23 209-209v472l271-271-236-236 228-228-263-263z m33 447v-367l184 183-184 184z m0 471v-383l192 192-192 191z" horiz-adv-x="500" />
<glyph glyph-name="wine" unicode="&#xe832;" d="M495 798v0l-175-175c-107-106-110-276-12-388l-141-142-142 142-25-27 307-306 23 23-142 142 142 141c112-98 282-95 388 12l94 93h3v4l80 80-400 401z m200-555c-97-96-257-96-353 0-22 22-37 45-50 70h473l-70-70z m103 105h-518c-27 85-5 182 62 250l153 152 353-353-50-49z" horiz-adv-x="906" />
<glyph glyph-name="world" unicode="&#xe833;" d="M99 407c0-172 139-311 311-311 172 0 311 139 311 311s-139 312-311 312c-172 0-311-140-311-312z m311 279c154 0 279-125 279-279s-125-278-279-278c-154 0-279 125-279 278s125 279 279 279z m186-644l15-32 30 15-45 90-29-15 14-29c-53-27-111-41-171-41-208 0-377 169-377 377 0 142 80 272 206 336l15-30 29 14-44 90-30-14 15-30c-136-70-224-211-224-366 0-220 175-401 394-409v-50c-76-3-147-26-206-65h68c47 21 99 33 154 33 53 0 106-12 153-33h69c-61 39-131 62-206 65v50c59 2 117 17 170 44z" horiz-adv-x="719" />
<glyph glyph-name="wristwatch" unicode="&#xe834;" d="M410 512h-32v-187l103-103 23 23-94 93z m448 35l-232 232-175-175c-18 4-37 6-57 6-154 0-279-125-279-278 0-20 3-39 6-58l-121-121 48-187 184-45 133 133c10 0 19-1 29-1 154 0 279 125 279 279 0 9-1 19-2 29l187 186z m-232 186l185-186-147-147c-23 90-90 163-177 194l139 139z m-404-776l-147 36-39 150 96 95c31-86 104-153 194-176l-104-105z m172 129c-135 0-246 110-246 246s111 245 246 245c136 0 246-110 246-245s-110-246-246-246z" horiz-adv-x="844" />
<glyph glyph-name="anchor" unicode="&#xe835;" d="M938 84l-68 137-147-60 13-30 98 40c-45-133-167-230-314-237v600c66 9 117 65 117 133 0 73-60 133-133 133s-134-60-134-133c0-68 51-124 117-133v-600c-145 7-266 102-313 233l90-36 13 30-147 60-68-137 30-15 47 97c50-154 195-266 365-266 167 0 309 107 361 256l43-87 30 15z m-534 583c0 55 45 100 100 100s100-45 100-100c0-56-45-100-100-100s-100 44-100 100z" horiz-adv-x="1000" />
<glyph glyph-name="call" unicode="&#xe836;" d="M732-100c-76 0-261 97-416 306-145 195-216 336-216 431 0 74 52 110 79 129l7 5c31 22 79 29 97 29 32 0 45-19 53-35 7-14 65-137 71-153 9-23 6-58-22-77l-5-4c-14-9-39-27-43-48-1-11 2-22 11-34 45-60 187-236 212-260 20-18 46-21 63-6 18 15 26 24 26 24l2 1c1 2 15 13 38 13 17 0 33-6 50-17 43-29 140-94 140-94l2-1c12-11 30-42 9-82-22-41-89-127-159-127z m-449 867c-16 0-55-7-77-23l-8-5c-25-18-64-45-64-102 0-88 68-222 209-411 153-207 329-293 388-293 51 0 110 72 130 110 12 23 2 36-2 40-11 7-98 66-139 93-11 8-21 11-31 11-9 0-15-3-17-4-3-3-12-13-28-26-29-25-75-22-107 8-28 27-174 208-216 264-14 20-20 39-17 59 6 35 39 58 57 71l5 3c15 11 12 32 9 38-5 13-61 136-68 150-6 12-11 17-24 17z" horiz-adv-x="1000" />
<glyph glyph-name="add-user" unicode="&#xe837;" d="M585 169c-36 15-121 45-174 60-4 2-5 2-5 20 0 16 6 31 13 44 6 15 14 39 17 60 8 9 19 28 26 62 6 31 3 42-1 53 0 1-1 2-1 3-2 7 0 45 6 74 3 19-1 62-29 97-17 22-50 49-110 53l-34 0c-59-4-92-31-109-53-28-35-32-78-29-97 6-29 8-67 6-74 0-1-1-2-1-3-4-11-7-22-1-53 7-34 18-53 26-62 3-21 11-45 18-60 4-10 7-24 7-44 0-19-1-19-5-20-55-17-141-48-173-62-26-11-32-31-32-48s0-71 0-82c0-12 7-32 32-32 19 0 172 0 242 0 21 0 34 0 34 0h6c0 0 14 0 35 0 70 0 223 0 242 0 25 0 32 20 32 32s0 64 0 82-12 39-38 50z m5-131h-557v81c0 10 3 14 12 18 31 14 117 45 170 60 28 9 28 34 28 52 0 25-4 43-11 58-5 12-12 32-14 50l-2 10-6 8c-4 4-13 16-19 47-4 24-2 29-1 34 1 2 2 4 3 7l0 1 0 0c4 16-1 62-5 86-2 12 0 44 22 71 13 17 38 38 85 41l31 0c38-3 67-16 86-41 21-27 24-59 21-71-4-25-9-70-5-86l0-1 0-1c1-2 2-4 2-5l0-1 0 0c2-5 4-10 0-34-6-31-15-43-19-47l-6-8-1-10c-3-18-10-38-15-50-8-16-16-36-16-58 0-18 0-42 29-51 51-16 136-45 170-59 13-6 18-15 18-20l0-81z m131 361v131h-33v-131h-130v-33h130v-131h33v131h131v33z" horiz-adv-x="844" />
<glyph glyph-name="battery" unicode="&#xe838;" d="M1 517v-334c0-27 22-50 49-50h417v434h-417c-27 0-49-22-49-50z m433-350h-384c-9 0-16 7-16 16v334c0 9 7 16 16 16h384v-366z m565 183c0 55-44 100-99 100v67c0 28-22 50-49 50h-351v-34h351c9 0 16-7 16-16v-334c0-9-7-16-16-16h-351v-34h351c27 0 49 23 49 50v67c55 1 99 45 99 100z m-99-67v134c37-1 66-30 66-67s-29-66-66-67z" horiz-adv-x="1000" />
<glyph glyph-name="chat" unicode="&#xe839;" d="M667 517v250h-583v-450h249v-250h346l133-134h21v134h84v450h-250z m-550-167v383h516v-216h-300v-167h-216z m766-250h-83v-107l-107 107h-326v383h516v-383z" horiz-adv-x="1000" />
<glyph glyph-name="calculator" unicode="&#xe83a;" d="M267 533h466v134h-466v-134z m33 100h400v-66h-400v66z m433 117h-466c-37 0-67-30-67-67v-666c0-37 30-67 67-67h466c37 0 67 30 67 67v666c0 37-30 67-67 67z m34-733c0-19-15-34-34-34h-466c-19 0-34 15-34 34v666c0 19 15 34 34 34h466c19 0 34-15 34-34v-666z m-467 366v100h-33v-133h133v33h-33z m0-166v100h-33v-134h133v34h-33z m0-167v100h-33v-133h133v33h-33z m167 333v100h-34v-133h134v33h-34z m166 0v100h-33v-133h133v33h-33z m-166-166v100h-34v-134h134v34h-34z m0-167v100h-34v-133h134v33h-34z m166 0v267h-33v-300h133v33h-33z" horiz-adv-x="1000" />
<glyph glyph-name="bicycle" unicode="&#xe83b;" d="M817 442c-23 0-45-5-66-13l-82 163h64v33h-118l34-67h-289l-17 34h57v33h-111l38-74c-1-1-1-1-1-1l-71-123c-22 9-46 15-72 15-101 0-183-83-183-184s82-183 183-183c96 0 174 73 183 167h136c6 0 12 3 15 8l154 265 50-100c-52-33-88-90-88-157 0-101 82-183 184-183s183 82 183 183-82 184-183 184z m-472 73l121-240h-100c-5 57-36 106-81 136l60 104z m-13-240h-125l61 107c35-24 59-63 64-107z m-148-167c-83 0-150 68-150 150s67 150 150 150c19 0 38-3 55-10l-76-131c-3-5-3-12 0-17s9-8 15-8h154c-8-75-71-134-149-134z m314 177l-121 240h261l-140-240z m319-177c-83 0-150 68-150 150 0 54 28 100 69 127l71-140 30 15-71 140c16 5 33 8 51 8 82 0 150-67 150-150s-68-150-150-150z" horiz-adv-x="1000" />
<glyph glyph-name="close" unicode="&#xe83c;" d="M335 539l-23-24 164-165-164-164 24-24 164 164 164-164 24 24-164 164 165 165-24 24-165-165z" horiz-adv-x="1000" />
<glyph glyph-name="browser" unicode="&#xe83d;" d="M84 767v-834h833v834h-833z m799-34v-133h-766v133h766z m-766-766v600h766v-600h-766z m183 716h517v-33h-517v33z m-133 0h33v-33h-33v33z m66 0h34v-33h-34v33z" horiz-adv-x="1000" />
<glyph glyph-name="cloud" unicode="&#xe83e;" d="M559 633c124 0 225-101 225-225 0-1 0-1 0-2 0-2 0-3 0-5l-1-34 34 0c82 0 149-68 149-150 0-82-66-149-149-150l-7 0h-610c-92 0-166 75-166 167 0 71 45 134 112 157l19 7 3 19c8 48 50 83 99 83 15 0 30-3 44-10l31-16 14 31c38 78 117 128 203 128z m0 33c-103 0-191-60-233-147-18 9-38 15-59 15-66 0-121-48-132-111-78-27-135-102-135-189 0-111 90-200 200-200l617 0c101 0 183 82 183 183 0 101-82 183-183 183 0 3 0 5 0 8 0 143-115 258-258 258v0z" horiz-adv-x="1000" />
<glyph glyph-name="clock" unicode="&#xe83f;" d="M500 750c-221 0-400-179-400-400s179-400 400-400 400 179 400 400c0 221-179 400-400 400z m0-767c-202 0-366 165-366 367s164 367 366 367 367-165 367-367c0-202-165-367-367-367z m0 334h-200v-34h233v332h-33z" horiz-adv-x="1000" />
<glyph glyph-name="bookmarks" unicode="&#xe840;" d="M850 733h-300c-20 0-38-9-50-23-12 14-30 23-50 23h-300c-37 0-66-30-66-66v-567c0-37 29-67 66-67h300c0 0 1 0 1 0 18 0 32-14 32-32v-34h34v18h0v15c0 18 14 33 32 33 1 0 1 0 1 0h300c37 0 67 30 67 67v567c0 36-30 66-67 66z m-733-633v567c0 18 15 33 33 33h300c18 0 33-15 33-33v-567c0-18-15-33-33-33h-300c-18 0-33 15-33 33z m766 0c0-18-15-33-33-33h-300c-18 0-33 15-33 33v567c0 18 15 33 33 33h300c18 0 33-15 33-33v-567z" horiz-adv-x="1000" />
<glyph glyph-name="angle-up-circle" unicode="&#xe841;" d="M499-67c230 0 417 187 417 417s-186 417-417 417-416-186-416-417 186-417 416-417z m0 801c212 0 384-172 384-384s-172-383-384-383-383 172-383 383c0 212 172 384 383 384z m24-284l-23 23-189-188 23-24 166 165 164-164 23 24-94 94z" horiz-adv-x="1000" />
<glyph glyph-name="arc" unicode="&#xe842;" d="M702 613l93 94v-77h33v133h-133v-33h77l-94-93c-85 80-196 128-321 128-137 0-267-60-357-162l25-21c3 3 7 6 10 10l298-300-111-112h-84l-116-117h106v-106l117 116v84l112 111 298-298c-3-3-7-7-10-10l22-25c103 90 161 220 161 357 2 125-46 238-126 321z m-490-525l-50-50v60h-59l50 50h60v-60z m-154 527c80 75 187 117 299 117 115 0 220-45 298-117l-298-298-299 298z m620-25c74-78 117-183 117-298 0-112-42-217-117-299l-298 299 298 298z" horiz-adv-x="844" />
<glyph glyph-name="angle-right-circle" unicode="&#xe843;" d="M83 350c0-230 186-417 416-417s417 187 417 417-186 417-417 417-416-186-416-417z m800 0c0-211-172-383-384-383s-383 172-383 383 172 384 383 384c212 0 384-172 384-384z m-284-24l23 24-188 189-24-24 165-165-164-164 24-24 94 94z" horiz-adv-x="1000" />
<glyph glyph-name="cloud-download" unicode="&#xe844;" d="M627 57l23-23-149-149-149 149 23 23 109-109v437h34v-437l109 109z m191 494c0 3 0 5 0 8 0 143-115 258-258 258-103 0-191-60-233-147-18 9-38 14-59 14-66 0-121-48-132-111-78-26-135-101-135-189 0-110 90-199 200-199h217v33h-217c-92 0-166 75-166 167 0 71 45 134 112 157l19 7 3 19c9 48 50 83 99 83 15 0 30-3 45-10l30-16 15 31c37 78 116 128 202 128 124 0 225-101 225-225 0-1 0-1 0-2 0-2 0-3 0-5l-1-34 34 0c82-1 150-68 150-150 0-83-67-150-150-150h-234v-34h234c101 1 183 83 183 184 0 101-82 183-183 183z" horiz-adv-x="1000" />
<glyph glyph-name="cloud-upload" unicode="&#xe845;" d="M376 345l-24 24 149 149 150-149-24-24-109 109v-436h-33v436l-109-109z m443 206c0 3 0 5 0 8 0 143-116 258-258 258-103 0-192-60-233-147-18 9-39 14-60 14-66 0-121-48-131-111-79-26-135-101-135-189 0-110 89-199 199-199h217v33h-217c-91 0-166 75-166 167 0 71 45 134 113 157l18 7 4 19c8 48 49 83 98 83 16 0 31-3 45-10l30-16 15 31c37 78 117 128 203 128 124 0 225-101 225-225 0-1 0-2-1-2 0-2 0-4 0-5l-1-34 34-1c83 0 150-67 150-150 0-82-67-149-149-149h-234v-34h234c101 1 182 83 182 183 0 102-81 184-182 184z" horiz-adv-x="1000" />
<glyph glyph-name="config" unicode="&#xe846;" d="M550 733v-81l25-6c28-8 55-19 80-34l23-14 58 58 70-70-59-59 13-22c14-25 25-52 31-79l7-26h85v-100h-87l-7-24c-7-27-18-52-33-76l-13-22 63-64-70-70-65 64-22-12c-23-14-48-24-74-30l-25-7v-92h-100v92l-25 7c-26 6-51 16-74 30l-22 12-64-64-71 70 63 64-13 22c-14 24-25 49-33 76l-6 24h-88v100h86l6 26c6 27 17 54 31 79l13 22-59 59 71 70 58-58 22 14c25 15 52 26 80 34l25 6v81h100z m-50-533c83 0 150 67 150 150s-67 150-150 150-150-67-150-150c0-83 67-150 150-150z m83 567h-166v-89c-32-8-62-21-89-38l-64 63-117-117 64-65c-15-27-27-56-35-88h-92v-166h95c8-30 21-58 36-84l-68-69 117-117 70 70c26-15 54-26 83-34v-100h166v100c29 8 57 19 83 34l70-70 117 117-68 69c15 26 28 54 36 84h95v166h-92c-8 32-20 61-35 88l64 65-117 117-64-63c-27 17-57 30-89 38v89h0z m-83-534c-64 0-117 53-117 117s53 117 117 117 117-53 117-117c0-64-53-117-117-117v0z" horiz-adv-x="1000" />
<glyph glyph-name="crop" unicode="&#xe847;" d="M783 84v540l61 61-24 24-58-59h-545v100h-33v-100h-100v-33h100v-567h566v-100h33v100h134v34h-134z m-55 533l-511-510v510h511z m-487-533l509 507v-507h-509z" horiz-adv-x="1000" />
<glyph glyph-name="angle-down-circle" unicode="&#xe848;" d="M499 767c-230 0-416-187-416-417s186-417 416-417 417 187 417 417-186 417-417 417z m0-800c-211 0-383 172-383 383s172 384 383 384 384-172 384-384c0-211-172-383-384-383z m-24 284l24-24 189 189-24 23-165-165-164 165-24-24 94-94z" horiz-adv-x="1000" />
<glyph glyph-name="bottom-arrow" unicode="&#xe849;" d="M0 350c0-226 184-410 410-410s410 184 410 410c0 226-184 410-410 410s-410-184-410-410z m787 0c0-208-169-377-377-377s-377 169-377 377c0 208 169 377 377 377s377-169 377-377z m-553-25l-24-23 200-199 199 199-23 23-160-160v398h-33v-398z" horiz-adv-x="813" />
<glyph glyph-name="box1" unicode="&#xe84a;" d="M900 725h-800v-217h34v-533h733v533h33v217z m-67-716h-666v499h666v-499z m34 533h-733v150h733v-150z m-487-250h241c35 0 63 27 63 60v12c0 34-28 61-63 61h-241c-35 0-63-27-63-61v-12c0-33 28-60 63-60z m-29 72c0 15 13 28 29 28h241c16 0 29-13 29-28v-12c0-15-13-27-29-27h-241c-16 0-29 12-29 27v12z" horiz-adv-x="1000" />
<glyph glyph-name="box2" unicode="&#xe84b;" d="M934 662l-434 159-450-165v-614l450-163 450 163v614l-17 6z m-451-742l-399 146v554l399-145v-555z m17 584l-385 140 385 142 385-142-385-140z m417-438l-400-146v555l400 145v-554z" horiz-adv-x="1000" />
<glyph glyph-name="bell" unicode="&#xe84c;" d="M784 182v268c0 139-101 255-234 278v22c0 18-15 33-33 33h-34c-18 0-33-15-33-33v-22c-132-23-233-139-233-278v-268l-117-95v-54h800v54l-116 95z m83-115h-733v5l116 94v284c0 138 113 250 250 250 138 0 250-112 250-250v-284l117-94v-5z m-367-150c46 0 83 37 83 83h-166c0-46 37-83 83-83z" horiz-adv-x="1000" />
<glyph glyph-name="cup" unicode="&#xe84d;" d="M883 766c-1 0-2 0-3 0h-97v0l-663 0c-1 0-2 0-3 0-37 0-67-29-67-66 0-19 8-35 20-48l147-146v11c0-151 118-274 266-283v-267h-133v-33h300v33h-133v267c148 9 266 132 266 283v-11l147 146c12 13 20 29 20 48 0 37-30 66-67 66z m-666-213l-124 123c-6 7-9 15-9 24 0 18 14 32 32 33 1 0 2 0 3 0l1 0h97v-180z m533-36c0-138-112-250-250-250s-250 112-250 250v216h500v-216z m157 159l-124-123v180l98 0c2 0 3 0 4 0 17-1 32-15 32-33 0-9-4-17-10-24z" horiz-adv-x="1000" />
<glyph glyph-name="date" unicode="&#xe84e;" d="M100 750v-800h800v800h-800z m767-33v-150h-733v150h733z m-733-734v550h733v-550h-733z m216 684h50v-50h-50v50z m250 0h50v-50h-50v50z m-214-252c-6-41-25-41-64-43l-6 0v-28h66v-185h34v261h-29l-1-5z m197-79c-16 0-32-5-44-13l11 61h110v33h-136l-26-142h30l2 3c11 17 30 27 50 27 33 0 58-25 58-59 0-30-20-61-56-61-32 0-54 21-55 51l0 6h-35l0-6c1-49 36-82 88-82 52 0 92 39 92 90 0 55-36 92-89 92z" horiz-adv-x="1000" />
<glyph glyph-name="coffee" unicode="&#xe84f;" d="M749 233h134v267h-766v-250c0-175 142-317 316-317 170 0 307 133 316 300z m1 234h100v-200h-100v200z m-317-500c-156 0-283 127-283 283v217h567v-217c0-156-127-283-284-283z m-316-67h633v33h-633z m166 850h34v-150h-34v150z m267 0h33v-150h-33v150z m-133 50h33v-200h-33v200z" horiz-adv-x="1000" />
<glyph glyph-name="alarm" unicode="&#xe850;" d="M500 667c-203 0-367-165-367-367 0-92 34-176 90-240l-86-105 26-21 83 102c66-64 155-103 254-103 98 0 188 40 254 103l83-102 26 21-86 105c56 65 89 148 89 240 0 202-164 367-366 367z m0-700c-184 0-333 149-333 333 0 184 149 333 333 333s333-149 333-333c0-184-149-333-333-333z m-151 800h-99c-92 0-166-75-166-167v-100h47l218 219v48z m-33-34l-199-200v67c0 73 60 133 133 133h66v0z m434 34h-99v-48l218-219h48v100c0 92-75 167-167 167z m133-234h0l-199 200v0h66c73 0 133-60 133-133v-67z m-400-233h-183v-33h217v300h-34z" horiz-adv-x="1000" />
<glyph glyph-name="album" unicode="&#xe851;" d="M0 750v-800h900v800h-900z m33-33h84v-734h-84v734z m834-734h-717v734h717v-734z m-350 50c175 0 316 142 316 317s-141 317-316 317c-175 0-317-142-317-317s142-317 317-317z m0 600c156 0 283-126 283-283s-127-283-283-283c-157 0-284 126-284 283s127 283 284 283z m0-383c55 0 100 45 100 100s-45 100-100 100c-55 0-100-45-100-100s45-100 100-100z m0 167c36 0 66-30 66-67s-30-67-66-67-67 30-67 67c0 37 30 67 67 67z m16-67c0-9-7-17-16-17s-17 8-17 17c0 9 8 17 17 17s16-8 16-17z" horiz-adv-x="906" />
<glyph glyph-name="download" unicode="&#xe852;" d="M354 434l-23-24 169-169 169 169-23 24-129-129v527h-34v-527z m229 232v-34h217v-566h-600v566h217v34h-250v-633h666v633z" horiz-adv-x="1000" />
<glyph glyph-name="bandaid" unicode="&#xe853;" d="M917 592l-212 211c-7 7-15 10-23 10s-17-3-24-10l-648-648c-13-13-13-33 0-47l212-211c6-7 15-10 23-10s17 3 23 10l649 648c13 12 13 33 0 47z m-447-447l-212 212 189 188 211-212-188-188z m-225-225l-212 212 202 201 212-211-202-202z m437 437l-212 211 212 212c0 0 0 0 0 0v0l211-212-211-211z m-7 283c0-9-7-17-17-17s-16 8-16 17c0 9 7 17 16 17s17-8 17-17z m95-95c0-9-7-17-17-17s-16 8-16 17c0 9 7 17 16 17s17-8 17-17z m-165 23c0-9-7-16-17-16s-16 7-16 16c0 10 7 17 16 17s17-7 17-17z m93-93c0-9-7-17-16-17s-17 8-17 17c0 9 8 17 17 17s16-8 16-17z m-446-260c0-9-8-17-17-17s-17 8-17 17c0 9 8 17 17 17s17-8 17-17z m93-93c0-10-7-17-17-17s-16 8-16 17c0 9 7 16 16 16s17-7 17-16z m-165 23c0-9-7-17-17-17s-16 8-16 17c0 9 7 17 16 17s17-8 17-17z m95-95c0-9-7-17-17-17s-16 8-16 17c0 9 7 17 16 17s17-8 17-17z" horiz-adv-x="938" />
<glyph glyph-name="close-circle" unicode="&#xe854;" d="M206 645c-163-163-163-427 0-589s426-163 589 0c162 162 162 426 0 589s-427 162-589 0z m565-566c-149-149-393-149-542 0s-149 393 0 542c149 149 393 149 542 0s149-392 0-542z m-436 460l-23-24 164-165-164-164 24-24 164 164 164-164 24 24-164 164 165 165-24 24-165-165z" horiz-adv-x="1000" />
<glyph glyph-name="display1" unicode="&#xe855;" d="M933 141v599h-866v-599h416v-65l-158-87 16-29 159 87 159-87 16 29-158 87v65h416z m-833 566h800v-533h-800v533z m378-339l-99 138-66-128-104 209-76-280 32-9 53 196 94-190 72 138 107-149 92 309-32 10z m255 173c-55 0-100-45-100-100s45-100 100-100c55 0 100 44 100 100s-45 100-100 100z m0-167c-36 0-66 30-66 67s30 66 66 66c37 0 67-30 67-66s-30-67-67-67z" horiz-adv-x="1000" />
<glyph glyph-name="cart" unicode="&#xe856;" d="M957 550h-700l-57 233h-157v-33h131l162-670c-34-10-60-42-60-80 0-46 38-83 84-83s83 37 83 83c0 19-7 36-17 50h234c-11-14-17-31-17-50 0-46 37-83 83-83s83 37 83 83c0 46-37 84-83 84v0h-356l-16 66h467l136 400z m-547-550c0-27-23-50-50-50s-50 23-50 50c0 28 22 50 50 50s50-22 50-50z m366 0c0-27-22-50-50-50s-50 23-50 50c0 28 23 50 50 50 28 0 50-22 50-50z m-430 183l-81 334h646l-113-334h-452z" horiz-adv-x="1000" />
<glyph glyph-name="car" unicode="&#xe857;" d="M183 367c-36 0-66-30-66-67s30-67 66-67 67 30 67 67-30 67-67 67z m0-100c-18 0-33 15-33 33s15 33 33 33c19 0 34-15 34-33s-15-33-34-33z m534 100c-37 0-67-30-67-67s30-67 67-67c36 0 66 30 66 67s-30 67-66 67z m0-100c-19 0-34 15-34 33s15 33 34 33c18 0 33-15 33-33s-15-33-33-33z m68 233l-28 133c-12 44-45 67-90 67h-434c-46 0-73-23-86-67l-30-133h-117v-33h108v-2c-51-3-91-47-91-100v-232h50v-50c0-46 36-83 83-83s83 37 83 83v50h434v-50c0-46 36-83 83-83s83 37 83 83v50h50v232c0 52-40 95-90 100v2h107v33h-115z m-607 123c10 30 25 44 55 44h434c31 0 50-14 58-42l33-160h-616l36 158z m22-540c0-28-22-50-50-50s-50 22-50 50v50h100v-50z m600 0c0-28-22-50-50-50s-50 22-50 50v50h100v-50z m50 282v-198h-800v198c0 37 30 67 67 67h666c37 0 67-30 67-67z" horiz-adv-x="906" />
<glyph glyph-name="check" unicode="&#xe858;" d="M500 767c-230 0-416-187-416-417s186-417 416-417c230 0 417 187 417 417s-187 417-417 417z m0-800c-211 0-383 172-383 383s172 383 383 383c211 0 383-172 383-383s-172-383-383-383z m208 532l-267-260-94 94c-10 10-25 10-35 0s-10-25 0-35l111-111c5-5 11-8 18-8 6 0 12 3 17 7l285 277c10 10 10 25 1 35-10 10-26 10-36 1z" horiz-adv-x="1000" />
<glyph glyph-name="camera" unicode="&#xe859;" d="M850 567h-138l-80 80c0 0 0 0 0 0l0 0c-12 12-29 20-47 20h-167c-19 0-37-9-49-22l0 0-78-78h-141c-37 0-66-30-66-67v-400c0-37 29-67 66-67h700c37 0 67 30 67 67v400c0 37-30 67-67 67z m33-467c0-18-15-33-33-33h-700c-18 0-33 15-33 33v400c0 18 15 33 33 33h155l50 51 1-3 38 41c6 7 15 11 24 11h167c9 0 17-3 23-10l90-90h152c18 0 33-15 33-33v-400z m-383 433c-120 0-217-97-217-216s97-217 217-217 217 97 217 217-97 216-217 216z m0-400c-101 0-183 83-183 184s82 183 183 183 183-82 183-183c0-101-82-184-183-184z m0 334c-83 0-150-67-150-150s67-150 150-150 150 67 150 150-67 150-150 150z m0-267c-64 0-117 52-117 117s53 116 117 116 117-52 117-116-53-117-117-117z" horiz-adv-x="1000" />
<glyph glyph-name="file" unicode="&#xe85a;" d="M791 467l-283 283h-299v-800h583v517l-1 0z m-283 236l220-220h-220v220z m-266-720v734h233v-267h283v-467h-516z" horiz-adv-x="1000" />
<glyph glyph-name="ball" unicode="&#xe85b;" d="M500 767c-230 0-416-187-416-417s186-417 416-417c230 0 417 187 417 417s-187 417-417 417z m383-400h-299c3 114 39 223 104 317 112-64 189-181 195-317z m-383 366c56 0 110-12 158-34-68-98-105-212-108-332h-100c-3 120-40 234-108 332 48 22 102 34 158 34z m-188-49c65-94 101-203 104-317h-299c6 136 83 253 195 317z m-195-351h299c-3-114-39-223-104-317-112 64-189 181-195 317z m383-366c-56 0-110 12-158 34 68 98 105 212 108 332h100c3-120 40-234 108-332-48-22-102-34-158-34z m188 49c-65 94-101 203-104 317h299c-6-136-83-254-195-317z" horiz-adv-x="1000" />
<glyph glyph-name="filter" unicode="&#xe85c;" d="M600-33h-200v325l-333 441h866l-333-441v-325z m-167 33h134v303l299 397h-732l299-397v-303z" horiz-adv-x="1000" />
<glyph glyph-name="cash" unicode="&#xe85d;" d="M525 514c-55 0-99-44-99-98s44-99 99-99c54 0 98 44 98 99s-44 98-98 98z m0-164c-37 0-66 29-66 66s29 65 66 65c36 0 65-29 65-65s-29-66-65-66z m-394 311v-491h787v491h-787z m754-110v-348h-721v426h721v-78z m-143-414h-644v459h-32v-492h786v33h-32z m-65-66h-644v459h-33v-491h787v32h-33z m-464 524h98v-33h-98v33z m0-327h98v-33h-98v33z m525 327h98v-33h-98v33z m0-327h98v-33h-98v33z" horiz-adv-x="906" />
<glyph glyph-name="folder" unicode="&#xe85e;" d="M833 608h-433v17c0 37-30 67-67 67h-166c-37 0-67-30-67-67v-550c0-37 30-67 67-67h666c37 0 67 30 67 67v467c0 36-30 66-67 66z m-699 17c0 18 14 33 33 33h166c19 0 34-15 34-33v-50h466c19 0 34-15 34-33v-34h-733v117z m699-583h-666c-19 0-33 15-33 33v400h733v-400c0-18-15-33-34-33z" horiz-adv-x="1000" />
<glyph glyph-name="comment" unicode="&#xe85f;" d="M833 699h-666c-37 0-67-29-67-66v-434c0-36 30-66 67-66h468l132-132v132h66c37 0 67 30 67 66v434c0 37-30 66-67 66z m34-500c0-18-15-33-34-33h-100v-85l-85 85h-481c-19 0-34 15-34 33v434c0 18 15 33 34 33h666c19 0 34-15 34-33v-434z m-367 250c-18 0-33-15-33-33s15-33 33-33 33 15 33 33c0 18-15 33-33 33z m133 0c-18 0-33-15-33-33s15-33 33-33 34 15 34 33c0 18-15 33-34 33z m-263 0c-19 0-33-15-33-33s14-33 33-33 33 15 33 33c0 18-15 33-33 33z" horiz-adv-x="1000" />
<glyph glyph-name="compass" unicode="&#xe860;" d="M562 678c13 15 21 34 21 55 0 46-37 84-83 84s-83-38-83-84c0-21 8-40 21-55-191-30-338-195-338-395 0-220 179-400 400-400s400 180 400 400c0 200-146 365-338 395z m-62 105c28 0 50-22 50-50s-22-50-50-50-50 23-50 50 22 50 50 50z m0-866c-202 0-366 164-366 366s164 367 366 367 367-164 367-367-165-366-367-366z m-200 166l271 129 129 271-272-128-128-272z m145 231l85-85-160-76 75 161z m109-61l-85 85 161 75-76-160z" horiz-adv-x="1000" />
<glyph glyph-name="gift" unicode="&#xe861;" d="M705 550c27 24 45 60 45 100 0 73-60 133-133 133-50 0-94-28-117-69-23 41-66 69-117 69-73 0-133-60-133-133 0-40 18-76 46-100h-196v-633h800v633h-195z m162-33v-267h-350v267h21l81-142 29 17-72 125h291z m-367 66l19-33h-38l19 33z m117 167c55 0 100-45 100-100s-45-100-100-100c-55 0-100 45-100 100s45 100 100 100z m-334-100c0 55 45 100 100 100s100-45 100-100c0-55-44-100-100-100s-100 45-100 100z m141-133l-72-125 29-17 81 142h21v-267h-349v267h290z m-290-300h349v-267h-349v267z m383-267v267h350v-267h-350z" horiz-adv-x="1000" />
<glyph glyph-name="gleam" unicode="&#xe862;" d="M585 732l-43-349h191l-318-415 43 349h-190l317 415z m48 118l-433-567h220l-53-433 433 567h-220l53 433z" horiz-adv-x="1000" />
<glyph glyph-name="glasses" unicode="&#xe863;" d="M975 375h-10c-12 103-100 183-207 183-99 0-181-69-203-161l-47 24c-5 3-11 3-16 0l-47-24c-21 92-104 161-203 161-107 0-194-80-207-183h-10c-14 0-25-11-25-25 0-14 11-25 25-25h10c13-103 100-183 207-183 115 0 208 93 208 208 0 4 0 8-1 12l51 26 51-26c-1-4-1-8-1-12 0-115 93-208 208-208 107 0 194 80 207 183h10c14 0 25 11 25 25s-11 25-25 25z m-733-200c-97 0-175 79-175 175s78 175 175 175c96 0 175-78 175-175s-79-175-175-175z m516 0c-96 0-175 79-175 175s79 175 175 175c97 0 175-79 175-175s-78-175-175-175z" horiz-adv-x="1000" />
<glyph glyph-name="eyedropper" unicode="&#xe864;" d="M772 715c-27 27-64 40-99 40s-71-13-98-40l-120-120-68 68-24-23 80-80-361-360c-44-43-49-113-12-162l-70-70 23-23 70 70c22-17 49-25 75-25 32 0 64 12 87 37l362 360 75-75 23 23-65 65 120 120c55 53 55 140 2 195z m-540-667c-17-16-40-26-64-26s-46 10-63 26c-35 35-35 92 0 127l362 362 126-127-361-362z m396 374l-150 150 120 120c20 20 47 31 75 31s55-11 75-31c20-20 32-47 32-75s-12-55-32-75l-120-120z" horiz-adv-x="813" />
<glyph glyph-name="female" unicode="&#xe865;" d="M485 298c112 112 112 290 0 402-55 55-128 83-200 83-73 0-147-26-202-83-111-112-111-290 0-402 52-51 117-78 184-81v-134h-134v-33h134v-133h33v133h133v33h-133v134c67 3 133 31 185 81z m-378 379c46 48 110 73 176 73s130-27 177-73c98-99 98-257 0-355-47-47-110-72-177-72s-130 27-176 73c-99 97-99 257 0 354z" horiz-adv-x="563" />
<glyph glyph-name="graph3" unicode="&#xe866;" d="M883 400v-400h-166v733h-34v-733h-166v500h-34v-500h-166v200h-33v-200h-167v300h-33v-300h0v-33h833v433z" horiz-adv-x="1000" />
<glyph glyph-name="graph2" unicode="&#xe867;" d="M100 750v-800h800v800h-800z m767-33v-144l-220-317-150 119-168-234-99 66-96-113v623h733z m-733-734v60l103 120 101-68 165 232 151-119 213 307v-532h-733z" horiz-adv-x="1000" />
<glyph glyph-name="flag" unicode="&#xe868;" d="M800 706l-22-7c-1-1-61-21-156-21-48 0-94 10-139 19-45 10-91 20-141 20-98 0-131-22-135-24l-7-5v-705h33v319c14 5 46 15 109 15 46 0 89-10 134-19 47-10 94-20 146-20 101 0 164 21 167 22l11 4 0 402z m-33-378c-22-5-74-17-145-17-48 0-94 10-139 19-45 10-91 20-141 20-54 0-88-7-109-13v332c14 5 46 14 109 14 46 0 89-9 134-19 47-9 94-20 146-20 67 0 118 10 145 17v-333z" horiz-adv-x="1000" />
<glyph glyph-name="film" unicode="&#xe869;" d="M0 694v-688h820v688h-820z m131-655h-98v131h98v-131z m0 164h-98v131h98v-131z m0 163h-98v132h98v-132z m0 164h-98v131h98v-131z m525-54v-437h-492v622h492v-185z m131-437h-99v131h99v-131z m0 164h-99v131h99v-131z m0 163h-99v132h99v-132z m0 164h-99v131h99v-131z m-459-47v-265l229 132-229 133z m33-57l131-76-131-76v152z" horiz-adv-x="813" />
<glyph glyph-name="back-2" unicode="&#xe86a;" d="M167 458v-553h766v767h-600v125l-333-227 167-112z m133 212c0 0 0-2 0 0v0-33h32c0 0 0 0 1 0 0 0 2 0 2 0h2c156 0 260-87 305-197-95 80-219 90-279 90-1 0-1 0-3 0h-60v-33c0 0 0 0 0 0v-89l-240 162 240 163v-63z m-100-235l133-90v150c7 0 17 2 30 2 84 0 262-22 337-192 0 140-72 272-205 332h405v-700h-700v498z" horiz-adv-x="938" />
<glyph glyph-name="back" unicode="&#xe86b;" d="M450 601v-136l33-1c229-2 358-104 392-310-126 145-271 145-392 145h-33v-135l-309 219 309 218z m33 65l-400-283 400-284v167c160 0 308-8 434-232 0 142-24 460-434 464v168z" horiz-adv-x="1000" />
<glyph glyph-name="delete-user" unicode="&#xe86c;" d="M585 169c-36 15-121 45-174 60-4 2-5 2-5 20 0 16 6 31 13 44 6 15 14 39 17 60 8 9 19 28 26 62 6 31 3 42-1 53 0 1-1 2-1 3-2 7 0 45 6 74 3 19-1 62-29 97-17 22-50 49-110 53l-34 0c-59-4-92-31-109-53-28-35-32-78-29-97 6-29 8-67 6-74 0-1 0-2-1-3-4-11-7-22-1-53 7-34 18-53 26-62 3-21 11-45 18-60 4-10 7-24 7-44 0-19-1-19-5-20-54-17-141-48-173-62-26-11-32-31-32-48s0-71 0-82c0-12 7-32 32-32 19 0 172 0 242 0 21 0 34 0 34 0h6c0 0 14 0 35 0 70 0 223 0 242 0 25 0 32 20 32 32s0 64 0 82-12 39-38 50z m5-131h-557v81c0 10 3 14 12 18 31 14 117 45 170 60 28 9 28 34 28 52 0 25-4 43-11 58-5 12-12 32-14 50l-2 10-6 8c-4 4-12 16-19 47-4 24-2 29-1 34 1 2 2 4 3 7l0 1 0 0c4 16-1 62-5 86-2 12 0 44 22 71 13 17 38 38 85 41l31 0c38-3 67-16 86-41 21-27 24-59 21-71-4-25-9-70-5-86l0-1 0-1c1-2 2-4 2-5l0-1v0c2-5 4-10 0-34-6-31-15-43-19-47l-6-8-1-10c-3-18-10-38-15-50-8-16-16-36-16-58 0-18 0-42 29-51 51-16 136-45 170-59 13-6 18-15 18-20l0-81z m138 344l86 86-23 23-86-85-86 85-23-23 86-86-86-85 23-23 86 85 86-85 23 23z" horiz-adv-x="813" />
<glyph glyph-name="diamond" unicode="&#xe86d;" d="M858 517l-196 233h-450l-197-233-15-17 13-17 424-533 436 550-15 17z m-43 0h-335l167 198 168-198z m-380 0l-173 200h343l-170-200z m-212 195l169-195h-334l165 195z m197-229v-458l-365 458h365z m33-458v458h364l-364-458z" horiz-adv-x="875" />
<glyph glyph-name="attention" unicode="&#xe86e;" d="M500 742l-450-784h900l-450 784z m0-67l392-683h-784l392 683z m-17-250h34v-233h-34v233z m17-283c-14 0-25-11-25-25 0-14 11-25 25-25 14 0 25 11 25 25 0 14-11 25-25 25z" horiz-adv-x="1000" />
<glyph glyph-name="credit" unicode="&#xe86f;" d="M900 650h-800c-27 0-50-22-50-50v-500c0-27 23-50 50-50h800c27 0 50 23 50 50v500c0 28-23 50-50 50z m-816-133h833v-67h-833v67z m833-417c0-9-8-17-17-17h-800c-9 0-16 8-16 17v317h833v-317z m-833 450v50c0 9 7 17 16 17h800c9 0 17-8 17-17v-50h-833z m66-367h333v-33h-333v33z m0 100h200v-33h-200v33z m599-133h68c18 0 33 15 33 32v2c0 18-15 33-33 33h-68c-18 0-32-15-32-33v-2c0-17 14-32 32-32z" horiz-adv-x="1000" />
<glyph glyph-name="culture" unicode="&#xe870;" d="M844 474h133l-483 286-471-286h121v-500h-67v-34h833v34h-66v500z m-702 33l352 214 361-214h-713z m35-533v500h100v-500h-100z m134 0v500h99v-500h-99z m133 0v500h100v-500h-100z m133 0v500h100v-500h-100z m133 0v500h100v-500h-100z" horiz-adv-x="1000" />
<glyph glyph-name="angle-left-circle" unicode="&#xe871;" d="M916 350c0 230-187 417-417 417s-417-186-417-417 187-417 417-417 417 187 417 417z m-800 0c0 212 172 384 383 384s384-172 384-384-172-383-384-383c-211 0-383 172-383 383z m284 24l-24-23 189-189 23 23-165 166 165 164-24 23-94-94z" horiz-adv-x="1000" />
<glyph glyph-name="copy-file" unicode="&#xe872;" d="M870 619l-168 169h-370v-135h-202v-740h538v134h202v572z m-168 121l121-121h-121v121z m-538-794v673h302v-168h169v-505h-471z m336 659l121-120h-121v120z m168-524v404l-168 168h-135v101h303v-168h169v-505h-169z" horiz-adv-x="1000" />
<glyph glyph-name="diskette" unicode="&#xe873;" d="M733 750h-633v-800h800v633l-167 167z m-66-33v-234h-334v234h334z m200-734h-733v734h166v-267h400v267h20l147-148v-586z m-300 667h34v-100h-34v100z m-234-433h334v-34h-334v34z m0-100h334v-34h-334v34z" horiz-adv-x="1000" />
<glyph glyph-name="display2" unicode="&#xe874;" d="M950 725h-900v-33h67v-600h366v-83h-266v-34h566v34h-266v83h366v600h67v33z m-100-600h-700v567h700v-567z m-400 467h-200v-200h200v200z m-33-167h-134v133h134v-133z m100 0h233v-33h-233v33z m0 167h233v-34h-233v34z m0-84h233v-33h-233v33z m-267-183h500v-33h-500v33z m0-100h500v-33h-500v33z" horiz-adv-x="1000" />
<glyph glyph-name="door-lock" unicode="&#xe875;" d="M417 767c-230 0-417-187-417-417s187-417 417-417c230 0 416 187 416 417s-186 417-416 417z m0-800c-212 0-384 171-384 383s172 383 384 383c211 0 383-171 383-383s-172-383-383-383z m133 483c0 73-60 133-133 133s-134-60-134-133c0-50 29-95 70-117l-70-200h267l-68 200c40 24 68 67 68 117z m-47-283h-173l53 155 10 26-25 14c-31 18-51 51-51 88 0 55 45 100 100 100s100-45 100-100c0-37-20-70-52-87l-25-13 8-27 55-156z" horiz-adv-x="844" />
<glyph glyph-name="drawer" unicode="&#xe876;" d="M735 633h-468l-183-200v-366h833v366l-182 200z m-454-33h439l151-167h-254c0-62-55-112-117-112s-117 50-117 112h-254l152 167z m602-500h-766v300h237c16-64 77-113 146-113s130 49 146 113h237v-300z" horiz-adv-x="1000" />
<glyph glyph-name="global" unicode="&#xe877;" d="M500 767c0 0 0 0 0 0 0 0 0 0 0 0-1 0-1 0-1 0-230-1-415-187-415-417 0-230 185-416 415-417 0 0 0 0 1 0 0 0 0 0 0 0 0 0 0 0 0 0 230 0 417 187 417 417s-187 417-417 417z m17-250c44 2 87 7 128 17 13-49 20-105 22-167h-150v150z m0 34v180c45-13 90-73 119-165-38-9-78-14-119-15z m-34 180v-180c-41 1-81 6-120 16 29 92 75 152 120 164z m0-214v-150h-151c2 62 9 118 22 168 42-11 85-16 129-18z m-184-150h-182c4 85 36 164 87 226 37-20 76-37 118-50-14-53-22-113-23-176z m0-34c1-63 9-123 23-176-42-13-81-29-118-50-51 62-83 141-87 226h182z m33 0h151v-150c-44-1-87-7-129-17-13 49-20 105-22 167z m151-183v-181c-45 12-91 72-120 165 39 9 79 15 120 16z m34-181v181c41-2 81-7 119-16-29-92-74-152-119-165z m0 214v150h150c-2-62-9-118-22-167-41 10-84 16-128 17z m183 150h183c-4-85-36-164-87-226-37 21-77 38-118 50 13 53 21 113 22 176z m0 34c-1 63-9 123-23 176 42 13 82 30 119 50 51-62 83-141 87-226h-183z m73 252c-33-18-68-33-105-44-19 63-46 114-79 148 71-17 135-54 184-104z m-363 103c-33-33-60-84-79-146-36 11-71 25-104 43 49 50 112 86 183 103z m-183-640c33 17 67 32 104 43 19-63 46-114 79-147-71 17-134 54-183 104z m362-105c33 34 60 85 79 148 37-11 72-26 105-43-49-51-113-88-184-105z" horiz-adv-x="1000" />
<glyph glyph-name="graph" unicode="&#xe878;" d="M917 350c0 224-178 407-400 416v1h-34v-1c-222-9-399-192-399-416 0-230 186-417 416-417 81 0 156 24 220 63l0 0 13 9c0 0 0 0 0 0l15 10 0 0c102 76 169 198 169 335z m-66 155l-334-131v359c149-7 276-99 334-228z m-351-538c-211 0-383 172-383 383 0 206 163 374 366 383v-388l218-321c-58-36-127-57-201-57z m229 76l-203 299 337 131c13-38 20-80 20-123 0-126-61-237-154-307z" horiz-adv-x="1000" />
<glyph glyph-name="graph1" unicode="&#xe879;" d="M875 817c-46 0-83-38-83-84 0-29 14-54 37-69l-158-415c-4 0-8 1-13 1-20 0-38-7-52-19l-158 130c6 12 10 25 10 39 0 46-37 83-83 83s-83-37-83-83c0-25 11-47 28-62l-168-293c-8 3-17 5-27 5-46 0-83-37-83-83 0-46 37-83 83-83s83 37 83 83c0 24-10 46-27 62l168 292c8-2 17-4 26-4 20 0 38 7 52 19l158-131c-6-11-10-24-10-38 0-46 37-83 83-83s83 37 83 83c0 29-15 55-38 70l157 415c5-1 10-2 15-2 46 0 83 37 83 83s-37 84-83 84z m-750-900c-27 0-50 22-50 50 0 27 23 50 50 50s50-23 50-50c0-28-22-50-50-50z m250 433c-28 0-50 22-50 50s22 50 50 50 50-22 50-50-23-50-50-50z m283-233c-27 0-50 22-50 50s23 50 50 50 50-23 50-50c0-28-22-50-50-50z m217 566c-28 0-50 23-50 50 0 28 22 50 50 50s50-22 50-50c0-27-23-50-50-50z" horiz-adv-x="1000" />
<glyph glyph-name="gym" unicode="&#xe87a;" d="M1000 367h-98v200h-100v83h-134v-283h-333v283h-133v-83h-100v-200h-102v-34h102v-200h100v-83h133v283h333v-283h134v83h100v200h98v34z m-865-200v366h67v-366h-67z m167-84h-67v534h67v-534z m466 0h-66v534h66v-534z m100 84h-66v366h66v-366z" horiz-adv-x="1000" />
<glyph glyph-name="light" unicode="&#xe87b;" d="M833 500c0 184-149 333-333 333s-333-149-333-333c0-108 52-204 132-265l0 0c1-1 3-2 4-4 1 0 1 0 1 0 26-20 63-68 63-131v-233h266v233c0 67 39 115 67 134l0 0c81 61 133 157 133 266z m-433-600v100h200v-100h-200z m100 567c-18 0-33 15-33 33s15 34 33 34 33-15 33-34c0-18-15-33-33-33z m180-206c-1-1-1-1-1-1-37-27-79-83-79-160v-66h-83v402c28 7 50 33 50 64 0 37-30 67-67 67s-67-30-67-67c0-31 22-57 50-64v-402h-83v66c0 72-41 130-75 157 0 0-1 0-1 1-1 1-2 1-3 2-1 1-1 1-2 2-76 57-119 144-119 238 0 166 135 300 300 300s300-134 300-300c0-95-44-182-120-239z" horiz-adv-x="1000" />
<glyph glyph-name="link" unicode="&#xe87c;" d="M548 200c-41 0-81 16-112 47l23 23c49-49 129-49 178 0l210 210c48 49 48 129 0 178l-40 39c-48 48-128 48-177 0l-148-149-24 24 149 148c61 62 162 62 224 0l39-39c62-62 62-163 0-224l-210-210c-31-31-71-47-112-47z m-267-267c-42 0-82 17-112 47l-39 39c-62 62-62 163 0 225l210 209c62 62 163 62 224 0l39-39-23-23-39 39c-49 49-129 49-178 0l-209-210c-49-49-49-128 0-177l39-39c23-24 55-37 88-37s65 13 89 37l140 139 23-23-139-140c-30-30-70-47-113-47z" horiz-adv-x="1000" />
<glyph glyph-name="like2" unicode="&#xe87d;" d="M852 361c0 41-31 72-74 72h-267c17 39 48 122 48 208 0 98-49 118-90 118-26 0-62-19-62-54 0-15-3-146-83-213-85-72-110-91-156-91-55 0-152-1-152-1l-16 0v-382h179c11 0 46-15 77-29 50-22 108-48 146-48l258 0c42 0 76 33 76 74 0 16-6 31-15 44 31 8 53 37 53 70 0 17-6 32-15 45 30 9 52 37 52 71 0 17-6 32-15 45 32 8 56 37 56 71z m-74-41h-57v-33h15c23 0 42-19 42-42s-19-42-42-42h-48v-33h13c22 0 41-18 41-41s-19-41-41-41h-45v-32h4c24 0 44-19 44-41 0-23-20-41-44-41h-42v0h-216c-31 0-88 25-133 45-45 20-73 32-90 32h-146v316c30 1 94 1 135 1 60 0 92 27 177 98 90 76 94 212 94 239 0 13 21 21 30 21 17 0 57 0 57-85 0-108-54-216-55-217l-12-24h201c0-1 1 0 1 0h117c24 0 42-17 42-39 0-22-19-41-42-41z" horiz-adv-x="844" />
<glyph glyph-name="like" unicode="&#xe87e;" d="M684 690c110 0 199-89 199-199 0-57-23-108-61-144l-322-323-328 329c-34 36-55 84-55 138 0 110 89 199 199 199 83 0 154-50 184-122 30 72 101 122 184 122z m0 34c-73 0-141-35-184-91-43 56-111 91-184 91-128 0-232-105-232-233 0-60 23-117 64-161l352-354 345 348c46 43 72 103 72 167 0 128-105 232-233 232v0z" horiz-adv-x="1000" />
<glyph glyph-name="lintern" unicode="&#xe87f;" d="M267 850v-100l116-200v-700h234v700l116 200v100h-466z m33-33h400v-58l-5-9h-390l-5 9v58z m117-934v67h166v-67h-166z m171 684l-5-8v-575h-166v575l-92 158h350l-87-150z m-88-184c-28 0-50-22-50-50v-66c0-28 22-50 50-50s50 22 50 50v66c0 28-22 50-50 50z m17-116c0-10-8-17-17-17s-17 7-17 17v66c0 10 8 17 17 17s17-7 17-17v-66z" horiz-adv-x="1000" />
<glyph glyph-name="lock" unicode="&#xe880;" d="M717 367v200c0 119-97 216-217 216-120 0-217-97-217-216v-200h-116v-450h666v450h-116z m-400 200c0 101 82 183 183 183s183-82 183-183v-200h-366v200z m483-617h-600v383h600v-383z" horiz-adv-x="1000" />
<glyph glyph-name="disk" unicode="&#xe881;" d="M410 268c45 0 82 37 82 82s-37 82-82 82c-45 0-82-37-82-82s37-82 82-82z m0 131c27 0 49-22 49-49s-22-49-49-49-49 22-49 49c0 27 22 49 49 49z m406-100c2 17 4 34 4 51 0 226-184 410-410 410v0c0 0 0 0 0 0-156 0-291-87-360-214 0 0 0 0 0-1-2-2-3-5-4-7-5-9-10-19-14-28 0-2-1-3-1-5-20-48-31-100-31-155 0-226 184-410 410-410 203 0 372 149 404 343 1 6 2 11 2 16z m-30 29c0-2 0-5 0-7-1-5-1-10-2-15 0-3 0-5-1-8-1-5-1-10-2-16-1-1-1-3-1-5-2-7-3-15-5-22 0 0 0 0 0 0-2-7-4-14-6-20-1-2-1-4-2-5-2-6-4-11-6-16 0-2-1-4-2-5-2-6-4-11-7-17 0-1-1-2-1-3-4-7-7-13-10-20l-197 119c9 19 14 40 14 62 0 81-66 148-148 148 0 0 0 0 0 0s0 0 0 0c-1 0-1-1-2-1-5 0-10 0-14 0-1 0-1-1-2-1-28-3-53-14-74-31l-163 163c33 30 71 54 112 71v0c22 9 45 16 69 21 0 0 1 0 1 0 6 1 11 2 17 3 1 0 2 0 4 0 4 1 9 2 14 2 3 0 5 1 8 1 3 0 7 0 11 1 6 0 12 0 18 0 0 0 1 0 1 0 188 0 345-139 372-320 3-18 5-37 5-57 0-7-1-15-1-22z m-88-221c-4-5-8-9-13-14 0-1-1-2-2-2-4-4-8-8-12-12-1-1-2-2-3-3-4-4-8-8-12-11-1-1-2-2-3-3-5-4-10-8-15-12 0 0 0 0 0 0-11-8-23-16-35-24l-109 202c13 9 24 20 33 32l197-119c-8-11-17-22-25-33-1 0-1-1-1-1z m-166-113c-4-2-9-4-14-5-2-1-4-1-6-2-4-1-9-2-14-3-2-1-4-1-6-2-4-1-9-2-13-3-3 0-5 0-7-1-5-1-9-1-14-2-2 0-4 0-7-1-5 0-10-1-15-1-2 0-3 0-5 0-7-1-14-1-21-1-202 0-367 159-377 358 0 6 0 13 0 19 0 6 0 13 0 19 1 5 1 10 1 14 1 2 1 3 1 5 3 37 13 72 26 105 0 0 0 0 0 1 17 41 41 78 71 111l163-163c-18-23-30-51-32-81 0-4-1-7-1-11 0 0 0 0 0 0s0 0 0 0c0-82 66-148 148-148 20 0 38 4 55 10l109-201c-12-6-24-11-37-16-2-1-3-1-5-2z m-7 356c0-63-52-115-115-115-63 0-115 52-115 115 0 63 52 115 115 115 63 0 115-52 115-115z" horiz-adv-x="813" />
<glyph glyph-name="keypad" unicode="&#xe882;" d="M217 167c-55 0-100-45-100-100s45-100 100-100c55 0 100 45 100 100s-45 100-100 100z m0-167c-37 0-67 30-67 67s30 66 67 66c37 0 67-29 67-66s-30-67-67-67z m0 733c-55 0-100-45-100-100s45-100 100-100c55 0 100 45 100 100s-45 100-100 100z m0-166c-37 0-67 30-67 66s30 67 67 67c37 0 67-30 67-67s-30-66-67-66z m0-116c-55 0-100-45-100-100s45-100 100-100c55 0 100 45 100 100s-45 100-100 100z m0-167c-37 0-67 30-67 67s30 66 67 66c37 0 67-29 67-66s-30-67-67-67z m283-117c-55 0-100-45-100-100s45-100 100-100c55 0 100 45 100 100s-45 100-100 100z m0-167c-37 0-67 30-67 67s30 66 67 66c37 0 67-29 67-66s-30-67-67-67z m0 733c-55 0-100-45-100-100s45-100 100-100c55 0 100 45 100 100s-45 100-100 100z m0-166c-37 0-67 30-67 66s30 67 67 67c37 0 67-30 67-67s-30-66-67-66z m0-116c-55 0-100-45-100-100s45-100 100-100c55 0 100 45 100 100s-45 100-100 100z m0-167c-37 0-67 30-67 67s30 66 67 66c37 0 67-29 67-66s-30-67-67-67z m283-117c-55 0-100-45-100-100s45-100 100-100c55 0 100 45 100 100s-45 100-100 100z m0-167c-36 0-66 30-66 67s29 66 66 66c37 0 67-29 67-66s-30-67-67-67z m0 533c55 0 100 45 100 100s-45 100-100 100c-55 0-100-45-100-100s45-100 100-100z m0 167c37 0 67-30 67-67s-30-66-67-66c-36 0-66 29-66 66s29 67 66 67z m0-249c-55 0-100-45-100-100s45-100 100-100c55 0 100 45 100 100s-45 100-100 100z m0-167c-36 0-66 30-66 67s29 66 66 66c37 0 67-29 67-66s-30-67-67-67z" horiz-adv-x="1000" />
<glyph glyph-name="loop" unicode="&#xe883;" d="M639 512l-289-288 23-23 290 287z m-422-345c-101 0-183 82-183 183s82 183 183 183c49 0 93-19 126-50l0 0 2-2 65-64h-60v-34h117v117h-34v-60l-65 65 0 0c-39 38-92 62-151 62-120 0-217-97-217-217s97-217 217-217c61 0 117 26 156 68l-23 23c-34-35-81-57-133-57z m566 400c-55 0-105-21-143-55l23-24c32 28 74 45 120 45 101 0 184-82 184-183s-83-183-184-183c-48 0-93 19-126 50l0 0-110 110-24-24 111-110 0 1c39-38 91-61 149-61 120 0 217 98 217 217s-97 217-217 217z" horiz-adv-x="1000" />
<glyph glyph-name="look" unicode="&#xe884;" d="M500 650c-183 0-325-114-500-300 151-158 277-300 500-300s387 179 500 297c-116 137-280 303-500 303z m0-567c-198 0-317 123-454 267 162 169 291 267 454 267 193 0 343-139 455-269-110-115-259-265-455-265z m0 467c-110 0-200-90-200-200s90-200 200-200 200 90 200 200-90 200-200 200z m0-367c-92 0-167 75-167 167s75 167 167 167 167-75 167-167c0-92-75-167-167-167z m0 284c-64 0-117-53-117-117s53-117 117-117c64 0 117 53 117 117s-53 117-117 117z m0-200c-46 0-83 37-83 83s37 83 83 83 83-37 83-83c0-46-37-83-83-83z" horiz-adv-x="1000" />
<glyph glyph-name="mail-open-file" unicode="&#xe885;" d="M913 433l-362 362c-14 14-32 22-51 22s-37-8-51-22l-79-79h-120v-119l-166-167v-547h833v547l-4 3z m-34-13l-129-129v258l129-129z m-406 352c14 15 40 15 55 0l55-56h-166l56 56z m143-89l101-100v-325l-78-77-88 88c-14 14-32 22-51 22s-37-8-51-22l-90-89-76 75v428h333z m-479-247l113 114v-261l-130 130 17 17z m-20-88v27l219-219-3-2 0 0-216-217v411z m26-431l18 18h0l312 311c14 15 40 15 55 0l329-329h-714z m740 453v-433l-220 220 220 221v-8z m-500 213h234v-33h-234v33z m0-200h234v-33h-234v33z m0 100h167v-33h-167v33z" horiz-adv-x="1000" />
<glyph glyph-name="male" unicode="&#xe886;" d="M462 672l6-32 255 58-251-253c-50 45-115 72-189 72-156 0-283-127-283-284s127-283 283-283c157 0 284 127 284 283 0 72-27 139-72 189l253 253-60-255 32-8 80 338-338-78z m-179-689c-138 0-250 112-250 250s112 250 250 250c139 0 250-111 250-250s-111-250-250-250z" horiz-adv-x="813" />
<glyph glyph-name="less" unicode="&#xe887;" d="M500 767c-230 0-416-187-416-417s186-417 416-417c230 0 417 187 417 417s-187 417-417 417z m0-800c-211 0-383 172-383 383s172 383 383 383c211 0 383-172 383-383s-172-383-383-383z m-215 400h432v-34h-432v34z" horiz-adv-x="1000" />
<glyph glyph-name="leaf" unicode="&#xe888;" d="M533 328c0 224-150 387-266 522-117-135-267-298-267-522 0-210 155-265 250-295v-183h33v183c95 30 250 85 250 295z m-250-260v130l105 105-23 24-82-82v338h-33v-160l-87 87-23-23 110-110v-309c-92 30-217 82-217 260 0 195 122 342 234 470 111-128 233-275 233-470 0-178-125-230-217-260z" horiz-adv-x="531" />
<glyph glyph-name="map" unicode="&#xe889;" d="M721 744l-21 10-17-8v0l-183-92-200 100-216-108v-700l216 108 200-100 200 100 217-108v700l-196 98z m-438-661l-166-83v625l166 83v-625z m200-83l-166 83v625l166-83v-625z m200 83l-166-83v625l166 83v-625z m200-83l-166 83v625l166-83v-625z" horiz-adv-x="1000" />
<glyph glyph-name="map-2" unicode="&#xe88a;" d="M500 308l-100 57v203c57 9 100 57 100 115 0 65-52 117-117 117s-116-52-116-117c0-58 43-106 100-115v-183l-100 57-267-109v-408l267 108 233-133 267 133v409l-267-134z m-267-253l-200-80v337l200 81v-338z m67 628c0 47 37 84 83 84s84-37 84-84c0-46-37-83-84-83s-83 37-83 83z m200-746l-233 133v333l100-56v-147h33v128l100-56v-335z m233 116l-200-100v334l200 100v-334z" horiz-adv-x="781" />
<glyph glyph-name="map-marker" unicode="&#xe88b;" d="M500 817c165 0 300-135 300-300 0-53-14-105-40-150l-260-450-260 450c-26 45-40 97-40 150 0 165 135 300 300 300z m0-417c64 0 117 52 117 117s-53 116-117 116c-64 0-117-52-117-116s53-117 117-117z m0 450c-184 0-333-149-333-333 0-61 16-118 45-167l288-500 288 500c29 49 45 106 45 167 0 184-149 333-333 333v0z m0-417c-46 0-83 38-83 84 0 46 37 83 83 83s83-37 83-83c0-46-37-84-83-84v0z" horiz-adv-x="1000" />
<glyph glyph-name="medal" unicode="&#xe88c;" d="M425 451c20 47 83 199 83 231v127h-426v-127c0-32 63-185 82-232-97-48-164-148-164-264 0-163 132-295 295-295s295 132 295 295c0 116-67 216-165 265z m-310 231v94h163v-224h33v224h164v-94c0-18-40-123-80-219-31 12-65 18-100 18-35 0-69-6-101-18-34 82-79 200-79 219z m180-758c-145 0-262 118-262 262s117 262 262 262c145 0 262-117 262-262s-117-262-262-262z m0 459c-109 0-197-88-197-197s88-197 197-197c109 0 197 89 197 197s-88 197-197 197z m0-361c-90 0-164 74-164 164s74 164 164 164c90 0 164-73 164-164s-74-164-164-164z" horiz-adv-x="594" />
<glyph glyph-name="menu" unicode="&#xe88d;" d="M100 633v-133h800v133h-800z m767-100h-733v67h733v-67z m-767-250h800v134h-800v-134z m34 100h733v-66h-733v66z m-34-316h800v133h-800v-133z m34 100h733v-67h-733v67z" horiz-adv-x="1000" />
<glyph glyph-name="monitor" unicode="&#xe88e;" d="M933 133v600h-866v-600h416v-133h-116v-33h266v33h-116v133h416z m-833 567h800v-533h-800v533z" horiz-adv-x="1000" />
<glyph glyph-name="micro" unicode="&#xe88f;" d="M500 151c101 0 183 82 183 183v332c0 101-82 183-183 183s-183-82-183-183v-332c0-101 82-183 183-183z m-149 515c0 83 67 150 149 150s150-67 150-150v-332c0-83-67-150-150-150s-149 67-149 150v332z m398-166v-166c0-138-111-250-249-250s-249 112-249 250v166h-34v-166c0-151 120-275 269-282h-2v-168h-150v-33h332v33h-149v168h-3c150 7 269 131 269 282v166h-34z" horiz-adv-x="1000" />
<glyph glyph-name="mail-open" unicode="&#xe890;" d="M913 433l-362 362c-14 14-32 22-51 22s-37-8-51-22l-365-365v-547h833v547l-4 3z m-776 3l336 336c14 15 40 15 55 0l351-352-240-239-88 88c-14 14-32 22-51 22s-37-8-51-22l-90-89-239 239 17 17z m199-280l-3-2 0 0-216-217v438l219-219z m-193-239l18 18h0l312 311c14 15 40 15 55 0l329-329h-714z m740 446v-426l-220 220 220 221v-15z" horiz-adv-x="1000" />
<glyph glyph-name="magic-wand" unicode="&#xe891;" d="M0-32l435 435 23-24-435-435-23 24z m312 555h133v-33h-133v33z m366 0h134v-33h-134v33z m-133-133h33v-133h-33v133z m0 367h33v-134h-33v134z m205-86l-95-94-23 24 94 94 24-24z m-24-354l-94 95 24 23 94-94-24-24z m-258 260l-94 94 24 24 94-95-24-23z" horiz-adv-x="813" />
<glyph glyph-name="magnet" unicode="&#xe892;" d="M667 767v-467c0-92-75-167-167-167-92 0-167 75-167 167v467h-199v-467c0-202 164-367 366-367s367 165 367 367v467h-200z m166-34v-100h-133v100h133z m-533 0v-100h-133v100h133z m200-766c-184 0-333 149-333 333v300h133v-300c0-110 90-200 200-200s200 90 200 200v300h133v-300c0-184-149-333-333-333z" horiz-adv-x="1000" />
<glyph glyph-name="mail" unicode="&#xe893;" d="M883 617h-799v-534h833v534h-34z m-34-34l-321-322c-15-14-41-14-55 0l-322 322h698z m-732-13l216-216-216-217v433z m26-453l214 213 92-92c14-14 32-21 51-21s37 7 51 21l92 92 214-213h-714z m740 20l-216 217 216 216v-433z" horiz-adv-x="1000" />
<glyph glyph-name="left-arrow" unicode="&#xe894;" d="M410 760c-226 0-410-184-410-410s184-410 410-410c226 0 410 184 410 410s-184 410-410 410z m0-787c-208 0-377 169-377 377s169 377 377 377c208 0 377-169 377-377s-169-377-377-377z m-25 553l-23 23-200-199 200-199 23 23-160 160h398v32h-398z" horiz-adv-x="813" />
<glyph glyph-name="next" unicode="&#xe895;" d="M34 617v-534l466 267-466 267z m33-58l366-209-366-209v418z m433 58v-534l467 267-467 267z m33-58l366-209-366-209v418z" horiz-adv-x="1000" />
<glyph glyph-name="info" unicode="&#xe896;" d="M502 501c28 0 50 23 50 50 0 28-22 50-50 50s-50-22-50-50c0-27 23-50 50-50z m34-66v33h-100v-33h33v-283h-33v-34h133v34h-33z m-36 332c-230 0-416-187-416-417 0-230 186-417 416-417s417 187 417 417c0 230-187 417-417 417z m0-800c-211 0-383 172-383 383s172 383 383 383c211 0 383-172 383-383s-172-383-383-383z" horiz-adv-x="1000" />
<glyph glyph-name="joy" unicode="&#xe897;" d="M680 452c-63 0-128-56-205-64v32c1 81 61 164 162 164h19c92 0 187 73 197 196h-32c-10-103-89-164-165-164h-19c-119 0-193-100-194-194h0v-2c0 0 0 0 0 0h0v-32c-77 8-142 64-205 64-67 0-238-133-238-395 0-133 90-137 101-137 1 0 1 0 1 0 56 0 107 27 171 91s90 81 137 81c18 0 40 0 48 0 1 0 2 0 2 0 8 0 30 0 48 0 47 0 73-17 137-81s115-91 171-91c0 0 0 0 1 0 11 0 101 4 101 137 0 262-171 395-238 395z m137-499l0 0h-1c-47 0-91 24-148 81-63 63-97 91-160 91h-98c-63 0-97-28-160-91-57-57-101-81-148-81l0 0-1 0c-16 0-68 7-68 104 0 250 163 363 205 363 25 0 54-14 85-28 40-17 85-38 136-38 51 0 96 21 136 38 31 14 60 28 85 28 42 0 205-113 205-363 0-97-52-104-68-104z m-555 368h-32v-65h-66v-33h66v-66h32v66h66v33h-66z m345-32c-28 0-50-22-50-50 0-27 22-49 50-49s49 22 49 49c0 28-22 50-49 50z m0-66c-10 0-17 7-17 16 0 9 8 17 17 17s16-8 16-17c0-9-7-16-16-16z m131 33c-28 0-50-22-50-49s22-50 50-50c27 0 49 22 49 50 0 27-22 49-49 49z m0-66c-9 0-17 8-17 17s8 16 17 16c9 0 16-7 16-16s-7-17-16-17z" horiz-adv-x="906" />
<glyph glyph-name="junk" unicode="&#xe898;" d="M624 384l-24 24-100-101-100 101-24-24 101-100-101-101 24-23 100 100 101-100 23 23-100 101z m293 249h-833v-33h24l9-67c0-26 16-49 38-60l59-343c6-34 28-63 63-63h446c35 0 56 28 63 63l59 343c23 11 38 34 38 60l9 67h25v33z m-163-496c-3-14-11-37-31-37h-446c-22 0-29 28-30 36l-57 331h620l-56-330z m96 401l0-3v-2c0-18-15-33-33-33h-633c-19 0-34 15-34 33v2l0 3-8 62h716l-8-62z" horiz-adv-x="1000" />
<glyph glyph-name="key" unicode="&#xe899;" d="M213 661h33v-131h-33v131z m246-98c0 127-103 230-229 230-127 0-230-103-230-230 0-97 61-181 147-214v-442h164v115l50 49-50 50v65l82 82-81 81c86 34 147 117 147 214z m-159-183l-22-9v-34l69-69-69-69v-91l36-37-36-36v-95h-98v432l-21 8c-77 29-126 101-126 183 0 109 88 197 196 197 109 0 197-88 197-197 0-82-49-154-126-183z" horiz-adv-x="469" />
<glyph glyph-name="hammer" unicode="&#xe89a;" d="M890 395l-23-25-390 390 25 23-24 24-25-24-251-253 23-23 17 16 183-183-425-423 23-24 425 425 184-183-17-17 23-23 277 277-25 23z m-237-237l-58 59 188 190 59-59-189-190z m-81 84l-224 223 189 188 223-223-188-188z m-119 495l59-59-187-190-58 59 186 190z" horiz-adv-x="906" />
<glyph glyph-name="headphones" unicode="&#xe89b;" d="M833 400c0 230-186 417-416 417s-417-187-417-417v-170h2c0-5 0-10 0-13 0-110 88-200 198-200v0 400h-2c-70 0-130-35-165-90v73c0 212 172 383 384 383s383-171 383-383v-73c-35 53-97 90-165 90h-2v-400h2c17 0 32 1 48 6-50-48-111-81-181-98v58h-169v-100h167v7c107 22 198 83 258 170 45 37 75 93 75 157 0 5 0 10 0 13v0 170z m-666-20v-327c-75 15-134 84-134 164s59 148 134 163z m300-463h-100v33h100v-33z m200 136v327c76-15 133-83 133-163s-57-149-133-164z" horiz-adv-x="844" />
<glyph glyph-name="helm" unicode="&#xe89c;" d="M967 333v34h-117c-3 90-38 170-95 233l83 83-23 24-83-84c-62 57-142 92-230 95v115h-34v-115c-88-3-168-40-230-95l-83 84-23-24 83-83c-58-63-95-143-98-233h-117v-34h117c5-88 40-168 95-228l-84-83 24-24 83 84c62-57 142-92 230-95v-120h33v118c89 3 170 40 230 95l84-83 23 23-83 83c55 62 91 140 95 229h120z m-150 34h-200c-4 25-14 48-29 66l142 142c50-55 82-128 87-208z m-334-117c-55 0-100 45-100 100s45 100 100 100c55 0 100-45 100-100s-45-100-100-100z m224 348l-144-143c-18 13-40 23-63 27v203c80-5 152-37 207-87z m-240 87v-202c-24-3-45-11-64-26l-143 143c55 48 127 80 207 85z m-230-110l141-142c-15-18-25-41-28-66h-200c5 80 37 153 87 208z m-85-242h200c3-23 11-45 26-63l-140-140c-51 53-83 125-86 203z m108-228l140 140c18-15 42-25 67-28v-199c-80 5-152 37-207 87z m240-85v198c25 4 48 14 67 29l140-140c-55-52-127-84-207-87z m230 108l-140 140c13 19 23 40 27 64h200c-5-77-37-149-87-204z" horiz-adv-x="969" />
<glyph glyph-name="help1" unicode="&#xe89d;" d="M500 767c-230 0-416-187-416-417s186-417 416-417 417 187 417 417c0 230-187 417-417 417z m0-800c-211 0-383 172-383 383s172 383 383 383 383-172 383-383c0-211-172-383-383-383z m-1 601c-85 0-132-52-133-135h37c-1 60 30 104 94 104 45 0 83-32 83-78 0-31-16-55-38-75-44-42-56-61-59-117h38c2 51 1 50 45 94 30 28 51 56 51 100 0 67-54 107-118 107z m1-368c-18 0-33-15-33-33 0-19 15-34 33-34s33 15 33 34c0 18-15 33-33 33z" horiz-adv-x="1000" />
<glyph glyph-name="paper-plane" unicode="&#xe89e;" d="M387 233l149-300 380 834-832-400 303-134z m9 33l-233 102 639 307-406-409z m139-256l-116 232 410 413-294-645z" horiz-adv-x="1000" />
<glyph glyph-name="more" unicode="&#xe89f;" d="M100 450c-55 0-100-45-100-100s45-100 100-100c55 0 100 45 100 100s-45 100-100 100z m0-167c-37 0-66 30-66 67s29 67 66 67c37 0 67-30 67-67s-30-67-67-67z m800 167c-55 0-100-45-100-100s45-100 100-100c55 0 100 45 100 100s-45 100-100 100z m0-167c-37 0-67 30-67 67s30 67 67 67c37 0 67-30 67-67s-30-67-67-67z m-400 167c-55 0-100-45-100-100s45-100 100-100c55 0 100 45 100 100s-45 100-100 100z m0-167c-37 0-67 30-67 67s30 67 67 67c37 0 67-30 67-67s-30-67-67-67z" horiz-adv-x="1000" />
<glyph glyph-name="help2" unicode="&#xe8a0;" d="M500 750c-221 0-400-179-400-400s179-400 400-400c221 0 400 179 400 400s-179 400-400 400z m0-583c-101 0-183 82-183 183s82 183 183 183h0c101 0 183-82 183-183s-82-183-183-183z m200 267l126 84c26-51 41-108 41-168 0-60-15-116-40-166l-126 85c10 25 16 52 16 81 0 30-6 58-17 84z m109 113l-125-84c-18 30-43 54-72 72l83 125c46-29 85-68 114-113z m-143 130l-84-126c-25 10-53 16-82 16h0c-29 0-56-6-82-16l-84 126c50 25 106 40 166 40s116-15 166-40z m-361-17l83-125c-29-18-54-42-72-72l-125 84c29 45 68 84 114 113z m-131-142l126-85c-11-25-17-53-17-83 0-29 6-56 16-81l-126-85c-25 50-39 106-39 166 0 60 14 117 40 168z m16-363l124 84c18-30 43-55 73-74l-83-124c-46 29-85 68-114 114z m143-131l84 126c26-11 54-17 83-17 0 0 0 0 0 0 29 0 57 6 83 17l84-126c-50-26-107-41-167-41s-117 15-167 41z m363 17l-83 124c30 19 55 44 73 74l124-84c-29-46-68-85-114-114z" horiz-adv-x="1000" />
<glyph glyph-name="home" unicode="&#xe8a1;" d="M500 767l-167-167v67h-133v-200l-117-118 23-23 394 393 394-393 23 23-417 418z m-267-134h67v-66l-67-67v133z m-33-300v-400h233v234h134v-234h233v400l-300 300-300-300z m567-366h-167v233h-200v-233h-167v353l267 266 267-266v-353z" horiz-adv-x="1000" />
<glyph glyph-name="hourglass" unicode="&#xe8a2;" d="M498 535v198h85v34h-583v-34h83v-198c0-55 22-122 169-193-125-60-169-114-169-202v-173h-83v-34h583v34h-85v173c0 88-43 142-168 203 147 70 168 137 168 192z m-33-395v-173h-348v173c0 70 28 118 175 185 145-68 173-117 173-185z m-175 220c-153 70-173 128-173 175v198h348v-198c0-47-22-105-175-175z" horiz-adv-x="594" />
<glyph glyph-name="id" unicode="&#xe8a3;" d="M525 465h229v-33h-229v33z m0-197h229v-33h-229v33z m0 98h163v-32h-163v32z m-33 295v99h-131v-99h-361v-721h852v721h-360z m328-32v-66h-328v66h328z m-427 98h66v-164h-66v164z m-360-98h328v-66h-328v66z m0-656v557h787v-557h-787z m450 146c-23 10-79 29-114 39-3 1-3 1-3 14 0 10 4 20 8 29 4 9 10 25 11 39 6 6 13 18 18 41 4 20 2 27-1 34 0 1-1 2-1 3-1 4 1 29 4 48 2 13-1 41-19 64-11 14-33 32-73 35l-21 0c-39-3-61-21-73-35-18-23-21-51-18-64 3-19 5-44 4-48-1-1-1-2-1-3-3-7-5-14-1-34 5-23 12-35 17-41 2-14 7-30 12-39 3-7 5-17 5-30 0-12-1-12-4-13-35-11-92-31-114-41-16-7-21-20-21-31 0-4 0-9 0-15h33v15c0 0 0 0 0 1 1 0 1 0 2 0 20 9 76 29 110 40 26 8 26 32 26 44 0 18-2 32-8 44-3 7-7 19-8 29l-1 10-7 7c-1 1-6 8-10 26-2 13-1 15-1 16 1 3 2 5 3 8 2 13-1 46-4 61-1 5 0 23 12 38 11 13 27 20 48 22l19 0c22-2 38-9 49-22 11-15 13-33 12-38-3-15-7-48-4-61l0-2 1-1c0-1 1-3 1-5 1-1 2-3-1-16-3-18-8-25-9-26l-7-7-1-10c-1-10-5-23-9-30-5-11-11-26-11-42 0-12 0-37 27-45 33-10 87-29 110-38 4-2 5-4 5-4v-14h33c0 6 0 11 0 14 0 12-8 26-25 34z" horiz-adv-x="844" />
<glyph glyph-name="photo-gallery" unicode="&#xe8a4;" d="M833 583v134h-783v-600h117v-134h783v600h-117z m-749-433v533h716v-100h-633v-433h-83z m833-133h-717v533h717v-533z" horiz-adv-x="1000" />
<glyph glyph-name="moon" unicode="&#xe8a5;" d="M309 692c-27-53-41-113-41-174 0-218 178-395 396-395 64 0 126 15 181 44-67-121-195-199-339-199-215 0-389 174-389 389 0 140 75 267 192 335z m91 73c-182-47-316-211-316-408 0-233 189-422 422-422 200 0 366 138 411 324-66-63-155-103-253-103-200 0-362 162-362 362 0 96 37 183 98 247v0z" horiz-adv-x="1000" />
<glyph glyph-name="play" unicode="&#xe8a6;" d="M233 642l501-292-501-292v584z m-33 58v-700l600 350-600 350z" horiz-adv-x="1000" />
<glyph glyph-name="next-2" unicode="&#xe8a7;" d="M933 570l-333 227v-125h-600v-767h767v553l166 112z m-300 163l240-161-240-164v89c0 0 0 0 0 0v33h-60c-1 0-1 0-3 0-60 0-183-12-278-90 45 110 148 197 305 197v0c0 0 1 0 1 0s0 0 2 0h33v31c0 0 0 0 0 2v63z m100-796h-700v700h405c-133-59-205-192-205-330 77 170 255 191 337 191 12 0 22 0 30-1v-150l133 90v-500z" horiz-adv-x="938" />
<glyph glyph-name="musiclist" unicode="&#xe8a8;" d="M84 583h433v-33h-433v33z m0-150h433v-33h-433v33z m0-150h433v-33h-433v33z m599 280l234-30c0 167-134 200-267 234v-634c-20 0-52 0-103 0-98 0-130-51-130-99 0-40 30-101 133-101 148 0 133 119 133 200v430z m197 9l-197 25v127c111-30 182-63 197-152z m-254-582c-15-16-41-23-76-23-95 0-100 56-100 67 0 42 35 66 97 66h103v-25h0c-1-34-6-66-24-85z" horiz-adv-x="1000" />
<glyph glyph-name="music" unicode="&#xe8a9;" d="M900 805l-550-195v-482c-26 31-65 51-108 51-78 0-142-64-142-142s64-142 142-142c77 0 140 63 141 140h0v552l484 170v-445c-26 30-65 50-109 50-78 0-141-63-141-142s63-141 141-141 142 63 142 141c0 3 0 6-1 8h1v577z m-658-876c-60 0-108 48-108 108s48 108 108 108 108-48 108-108c0-60-48-108-108-108z m516 183c-59 0-108 49-108 108s49 109 108 109c60 0 109-49 109-109s-49-108-109-108z" horiz-adv-x="1000" />
<glyph glyph-name="news-paper" unicode="&#xe8aa;" d="M283 767v-467h-199c0 0 0-206 0-272s62-95 107-95c46 0 509 0 626 0 50 0 100 50 100 101 0 36 0 733 0 733h-634z m-92-800c-20 0-74 11-74 61v239h166v-225c0-22-29-75-75-75h-17z m692 67c0-33-34-67-66-67h-535c22 23 35 54 35 75v691h566v-699z m-500 633h434v-34h-434v34z m0-450h434v-34h-434v34z m0-117h434v-33h-434v33z m434 450h-434v-250h434v250z m-34-217h-366v184h366v-184z" horiz-adv-x="1000" />
<glyph glyph-name="network" unicode="&#xe8ab;" d="M639 284v82h-229v50h147v327h-327v-327h147v-50h-229v-82h-148v-327h328v327h-148v50h427v-50h-148v-327h328v327h-148z m-377 427h263v-263h-263v263z m33-722h-262v263h262l0-263z m459 0h-262v263h262v-263z" horiz-adv-x="781" />
<glyph glyph-name="paint-bucket" unicode="&#xe8ac;" d="M698 387v0l-325 326-6-5v9c0 55-45 100-100 100s-100-45-100-100v-209l-139-138c-38-38-38-100 0-138l189-189c18-20 45-28 70-28s50 10 70 28l238 240h205l-102 104z m-498 330c0 36 30 66 67 66s66-30 66-66v-42l-133-133v175z m382-400l-250-250c-12-12-29-19-47-19-17 0-33 7-45 19l-188 188c-25 25-25 67 0 92l281 280v-210h34v243l5 5 348-348h-138z m300-310c-10 90-107 210-107 210s-98-122-107-212c0-5 0-8 0-13 0-60 49-109 109-109s108 49 108 109c-2 5-2 10-3 15z m-107-90c-42 0-75 33-75 75 0 3 0 5 0 8v0 0c5 50 43 115 73 160 30-43 69-110 75-158 0-4 0-7 0-10 2-42-31-75-73-75z" horiz-adv-x="875" />
<glyph glyph-name="paint" unicode="&#xe8ad;" d="M875 683v52c0 45-37 82-82 82h-536c-45 0-82-37-82-82v-52h-15c-38 0-68-30-68-68v-114c0-37 30-68 68-68l314 0c19 0 34-15 34-35v-115h-66v-400h166v400h-66v115c0 38-31 68-68 68h-42v0h-272c-19 0-35 16-35 35v114c0 19 16 35 35 35h15v-52c0-45 37-81 82-81h536c45 0 82 36 82 81v52h33v33h-33z m-300-766h-100v333h100v-333z m267 681c0-26-22-48-49-48h-536c-27 0-48 22-48 48v137c0 27 21 48 48 48h536c27 0 49-21 49-48v-137z" horiz-adv-x="1000" />
<glyph glyph-name="paperclip" unicode="&#xe8ae;" d="M66 666c41 40 95 63 153 63v0c58 0 112-23 153-63l439-439c58-58 58-154 0-212-29-28-66-44-106-44s-78 16-106 44l-194 194 0 0-231 231c-16 16-25 37-25 59 0 22 9 43 25 59 15 16 36 24 58 24s43-8 59-24l371-371-23-23-371 371c-19 19-52 19-71 0-10-10-15-22-15-36s5-26 15-36l425-425c22-22 51-34 83-34s60 12 82 34c46 46 46 120 0 166l-438 438c-35 35-81 54-130 54s-96-19-130-54c-35-34-54-80-54-130s19-95 54-130l384-384-23-23-384 384c-41 41-64 96-64 153s23 113 64 154z" horiz-adv-x="844" />
<glyph glyph-name="pen" unicode="&#xe8af;" d="M962 669l-133 133-33-33-45 46c-7 6-17 6-24 0l-270-270c-6-7-6-18 0-24 4-3 8-5 12-5s9 2 12 5l258 258 34-34-573-572 39-39c-16 8-34 13-52 13-30 0-60-12-82-35-3-2-5-4-7-7-1-1-2-3-3-4-1-1-2-3-4-4 0-2-1-3-2-4-48-73-51-212-51-212s6 0 14 0c40 0 157 5 218 66 36 36 43 91 22 134l41-41 629 629z m-716-698c-37-38-102-50-149-55l76 76-23 24-73-73c6 44 18 98 40 132l1 1 1 1c0 1 1 2 2 4 1 1 2 2 3 3 1 1 2 3 4 5 16 16 37 24 59 24s43-8 59-24c33-33 33-86 0-118z m669 698l-198-198-86 86 198 197 86-85z m-307-136l85-85-360-361-86 86 361 360z" horiz-adv-x="1000" />
<glyph glyph-name="pendrive" unicode="&#xe8b0;" d="M367 533v267h-267v-267h-100v-541c0-50 42-92 92-92h283c50 0 92 42 92 92v541h-100z m-234 234h200v-234h-200v234z m300-775c0-32-26-59-58-59h-283c-32 0-59 27-59 59v508h400v-508z m-266 725h33v-84h-33v84z m100 0h33v-84h-33v84z" horiz-adv-x="469" />
<glyph glyph-name="phone" unicode="&#xe8b1;" d="M721 800h-442c-25 0-46-20-46-45v-810c0-25 21-45 46-45h442c25 0 46 20 46 45v810c0 25-21 45-46 45z m12-855c0-6-5-12-11-12h-443c-7 0-12 6-12 12v155h466v-155z m0 188h-466v533h466v-533z m0 566h-466v56c0 6 5 12 12 12h442c7 0 12-6 12-12v-56z m-283-665h100v-34h-100v34z" horiz-adv-x="1000" />
<glyph glyph-name="photo" unicode="&#xe8b2;" d="M0 750v-800h833v800h-833z m33-503l234 245 231-232 117 100 173-177h-755v64z m767-264h-767v167h767v-167z m0 235l-182 189-116-100-235 233-234-245v422h767v-499z m-183 265c46 0 83 37 83 84s-37 83-83 83c-47 0-84-37-84-83s37-84 84-84z m0 134c28 0 50-22 50-50s-22-50-50-50c-29 0-50 21-50 50s21 50 50 50z" horiz-adv-x="844" />
<glyph glyph-name="piggy" unicode="&#xe8b3;" d="M868 383h-18c-25 65-75 120-142 160 0 89 9 109 27 165-68-10-137-51-172-111-23 5-46 6-70 8 4 13 7 28 7 45 0 83-67 150-150 150s-150-67-150-150c0-42 17-78 45-107-65-38-115-91-142-155-45 17-70 42-70 74 0 35 29 66 54 75l-10 31c-42-11-77-58-77-103 0-27 12-77 92-107-7-21-9-43-9-66 0-84 42-160 109-217l-20-58c-14-40 6-82 46-95l47-17c8-3 17-5 25-5 32 0 60 20 72 50l13 38c33-6 67-11 103-11 24 0 47 1 69 5l20-42c13-27 40-42 68-42 12 0 22 2 33 9l44 21c36 19 53 64 35 100l-12 25c45 30 80 69 105 114h33c45 0 82 36 82 81v54c-5 45-42 81-87 81z m-635 267c0 65 52 117 117 117s117-52 117-117c0-17-4-32-10-47-67-1-129-18-182-43-25 22-42 53-42 90z m684-402c0-26-22-48-49-48h-53l-10-17c-22-38-53-73-93-101l-24-17 14-25 11-25c10-20 2-47-20-57l-43-20c-5-3-12-5-18-5-17 0-30 9-39 24l-20 41-10 22-25-3c-21-4-43-5-63-5-32 0-65 3-97 10l-28 6-8-28-14-38c-6-17-21-29-40-29-5 0-10 0-13 2l-47 17c-21 8-33 31-25 53l20 60 9 22-19 15c-63 51-96 118-96 190 0 153 161 280 358 280 27 0 55-4 82-7l23-5 12 20c20 35 55 63 93 80-7-28-10-60-12-117v-18l17-10c60-37 107-87 128-143l9-22h41c27 0 49-22 49-48v-54z m-184 110c0-23-18-41-41-41s-42 18-42 41c0 23 19 42 42 42s41-19 41-42z" horiz-adv-x="938" />
<glyph glyph-name="pin" unicode="&#xe8b4;" d="M0 529l16-12c3-2 29-19 81-19 9 0 17 0 26 1 118-135 201-233 221-259-38-85-44-181-17-271l8-27 239 239 259-260 23 23-259 260 238 239-26 8c-88 27-187 21-271-17-26 20-123 103-259 220 3 21 7 68-18 108l-11 17-250-250z m54 7l189 189c12-35 2-73 2-73l-2-10 7-7c232-200 270-231 281-235l0-1 6-1 6 2c71 34 153 43 230 26l-422-421c-17 77-8 158 27 230l3 6-3 7-1 0c-10 20-57 74-235 279l-5 7-9-1c-11-1-21-2-31-2-18 0-33 2-43 5z" horiz-adv-x="844" />
<glyph glyph-name="plane" unicode="&#xe8b5;" d="M285-102l-41 196-198 44 40 77 181 10c10 12 30 38 43 51l165 165-343 168 86 87 436-76 154 154c18 18 47 28 82 28 25 0 44-4 45-5l9-2 3-9c15-48 6-103-21-130l-155-155 76-433-87-87-168 342-153-154c-17-16-51-48-64-60l-13-169-77-42z m-189 263l176-39 37-174 21 12 13 165 5 4c0 1 48 44 67 63l187 187 168-342 41 42-76 434 167 167c15 14 24 50 16 87-7 1-17 2-28 2-18 0-43-3-58-18l-167-167-435 76-42-41 343-169-197-197c-15-15-45-54-45-54l-5-7-177-9-11-22z" horiz-adv-x="1000" />
<glyph glyph-name="plug" unicode="&#xe8b6;" d="M588 273l-259-258 0 0c-1-1-2-2-3-3-67-67-176-67-243 0-65 65-67 170-5 237l34-34 54 54c74-35 164-22 224 39l93 92 23-23 23 23-92 93 139 139-24 23-139-139-92 93 139 139-23 23-140-139-92 93-23-23 23-24-93-92c-61-61-73-151-38-224l-55-54 35-36c-74-80-72-205 6-283 80-80 210-80 290 0l261 261c57 57 150 57 208 0l23 23c-70 70-184 70-254 0z m-453 290l93 92 232-232-93-92c-64-64-168-64-232 0s-64 168 0 232z m-44-230c6-9 13-18 21-25s16-15 25-22l-25-25-46 47 25 25z" horiz-adv-x="844" />
<glyph glyph-name="plugin" unicode="&#xe8b7;" d="M450 550c-73 0-133-37-133-83s60-84 133-84c73 0 133 37 133 84s-60 83-133 83z m0-133c-57 0-100 26-100 50s43 50 100 50 100-27 100-50-43-50-100-50z m388 116c9 10 12 22 12 35 0 47-60 84-133 84-39 0-72-10-95-25l-44 18c4 7 5 15 5 23 0 47-60 84-133 84s-133-37-133-84c0-8 1-15 5-23l-34-15c-23 13-55 22-88 22-73 0-133-37-133-84 0-10 3-20 8-30l-75-33v-330l450-192 450 194v328l-62 28z m-388-206l-392 168 42 17c25-17 60-29 100-29 73 0 133 37 133 84 0 13-5 26-15 38l25 10c25-20 64-33 107-33s82 13 107 33l38-17c-7-10-12-21-12-33 0-47 60-83 134-83 36 0 70 8 93 23l32-13-392-165z m367 241c0-23-44-50-100-50s-100 27-100 50 43 50 100 50c56 0 100-26 100-50z m-367 149c57 0 100-27 100-50s-43-50-100-50-100 26-100 50 43 50 100 50z m-250-99c57 0 100-26 100-50s-43-50-100-50c-57 0-100 27-100 50s43 50 100 50z m-167-148l400-172v-271l-400 171v272z m434-443v271l400 172v-272l-400-171z" horiz-adv-x="906" />
<glyph glyph-name="plus" unicode="&#xe8b8;" d="M500 767c-230 0-416-187-416-417s186-417 416-417c230 0 417 187 417 417s-187 417-417 417z m0-800c-211 0-383 172-383 383s172 383 383 383c211 0 383-172 383-383s-172-383-383-383z m17 633h-34v-233h-232v-34h232v-232h34v232h233v34h-233z" horiz-adv-x="1000" />
<glyph glyph-name="portfolio" unicode="&#xe8b9;" d="M617 625v83h-234v-83h-283v-633h800v633h-283z m-200 50h166v-50h-166v50z m-34-83h484v-267h-250v67h-234v-67h-249v267h249z m200-234v-100h-166v100h166z m-449-333v267h249v-67h234v67h250v-267h-733z" horiz-adv-x="1000" />
<glyph glyph-name="drop" unicode="&#xe8ba;" d="M776 355c0 2-2 5-3 7l-273 454-39-65h0l-235-392c-1-1-1-2-1-3-27-47-42-101-42-155 0-175 142-317 317-317s317 142 317 317c0 53-14 106-41 154z m-276-438c-156 0-283 127-283 284 0 49 13 98 38 141 0 1 1 2 1 3l244 406 244-406c0-1 1-2 1-3 25-43 38-92 38-141 0-157-127-284-283-284z" horiz-adv-x="1000" />
<glyph glyph-name="edit" unicode="&#xe8bb;" d="M883 667c0 46-37 83-83 83s-83-37-83-83c0-41 28-74 66-82v-568h34v568c38 8 66 41 66 82z m-83-50c-28 0-50 22-50 50s22 50 50 50c27 0 50-23 50-50s-23-50-50-50z m-583-502v568h-33v-568c-39-8-67-41-67-81 0-47 37-84 83-84s84 37 84 84c0 40-29 73-67 81z m-17-132c-27 0-50 23-50 50s23 50 50 50 50-22 50-50-22-50-50-50z m317 449v251h-34v-251c-38-8-66-42-66-82s28-74 66-82v-251h34v251c38 8 66 42 66 82s-28 74-66 82z m-17-132c-28 0-50 22-50 50s22 50 50 50 50-22 50-50-22-50-50-50z" horiz-adv-x="1000" />
<glyph glyph-name="exapnd2" unicode="&#xe8bc;" d="M100-50h333v333h-333v-333z m34 300h266v-267h-266v267z m599 100h34v267h-267v-34h211l-246-246 24-24 244 245z m-633 400v-400h34v367h733v-734h-367v-33h400v800z" horiz-adv-x="1000" />
<glyph glyph-name="expand1" unicode="&#xe8bd;" d="M350 717v33h-250v-250h34v193l237-237 23 23-237 238z m300 33v-33h193l-237-238 23-23 238 237v-193h33v250z m-279-506l-237-237v193h-34v-250h250v33h-193l237 238z m496-237l-238 237-23-23 237-238h-193v-33h250v250h-33z" horiz-adv-x="1000" />
<glyph glyph-name="mute" unicode="&#xe8be;" d="M759 707l-23 23-223-223v181l-240-191h-186v-148l0 0 0 0v-147h121l-208-209 23-23 232 232h1l31 31 0 1 193 193v0l33 32v1l246 247z m-639-472v229h164l196 156v-123l0-23-239-239h-121z m360 0h0v-153l-167 131-23-23 223-176v188h0v211l-33-33z" horiz-adv-x="750" />
<glyph glyph-name="note2" unicode="&#xe8bf;" d="M197 407h393v-32h-393v32z m0-131h393v-32h-393v32z m0-131h262v-33h-262v33z m293 590c-8 47-48 82-97 82s-89-35-96-82h-297v-852h787v852h-297z m-162-75v59c0 36 29 65 65 65s66-29 66-65v-59l17-9c32-19 56-47 71-80h-307c14 33 39 61 71 80l17 9z m426-744h-721v786h262v-23c-51-29-88-80-98-140h393c-10 60-47 111-98 140v23h262v-786z" horiz-adv-x="781" />
<glyph glyph-name="power" unicode="&#xe8c0;" d="M478 767h34v-400h-34v400z m184-68v-37c121-60 205-184 205-329 0-202-165-366-367-366s-366 164-366 366c0 141 79 262 194 324v38c-135-65-228-202-228-362 0-220 179-400 400-400s400 180 400 400c0 164-98 304-238 366z" horiz-adv-x="1000" />
<glyph glyph-name="study" unicode="&#xe8c1;" d="M985 501l-485 233-485-233 69-41v-361h33v340l100-60v-413h566v413l202 122z m-485 196l415-200-415-250-415 250 415 200z m250-698h-500v360l250-151 250 151v-360z" horiz-adv-x="1000" />
<glyph glyph-name="ribbon" unicode="&#xe8c2;" d="M183 750v-800l317 233 317-233v800h-634z m600-734l-283 209-283-209v701h566v-701z m-450 534h334v-33h-334v33z m0-133h334v-34h-334v34z" horiz-adv-x="1000" />
<glyph glyph-name="refresh" unicode="&#xe8c3;" d="M867 267c0-202-165-367-367-367s-366 165-366 367c0 201 163 366 365 366v-166l316 183-316 183v-166c-221-1-399-180-399-400 0-221 179-400 400-400 221 0 400 179 400 400h-33z m-335 508l217-125-217-126v251z" horiz-adv-x="1000" />
<glyph glyph-name="refresh-2" unicode="&#xe8c4;" d="M640 268l-35-245 238 37-93 95c32 58 50 123 50 195 0 222-178 400-400 400v-33c202 0 367-165 367-367 0-62-15-118-42-170l-85 88z m3-205l20 134 110-114-130-20z m-610 287c0 88 32 168 84 232l101-104 35 245-238-38 77-80c-57-68-92-158-92-255 0-222 178-400 400-400v33c-202 0-367 165-367 367z m180 332l-20-134-110 114 130 20z" horiz-adv-x="844" />
<glyph glyph-name="refresh-cloud" unicode="&#xe8c5;" d="M817 400c0 3 0 5 0 8 0 143-115 258-258 258-103 0-191-60-233-147-18 9-38 15-59 15-66 0-121-48-132-111-78-27-135-102-135-189 0-111 90-200 200-200l617 0c101 0 183 82 183 183 0 101-82 183-183 183z m0-333l-7 0h-610c-92 0-166 75-166 167 0 71 45 134 112 157l19 7 3 19c8 48 50 83 99 83 15 0 30-3 44-10l31-16 14 31c38 78 117 128 203 128 124 0 225-101 225-225 0-1 0-1 0-2 0-2 0-3 0-5l-1-34 34 0c82 0 149-68 149-150 0-82-67-149-149-150z m-317 117c-64 0-117 52-117 116s53 117 117 117v-62l125 73-125 72v-50c-83 0-150-67-150-150s67-150 150-150c83 0 150 68 150 150h-33c0-64-53-116-117-116z" horiz-adv-x="1000" />
<glyph glyph-name="repeat" unicode="&#xe8c6;" d="M849 133h-703l141 140-24 24-179-180 179-179 24 23-138 139h734v299h-34z m-699 433h703l-140-139 24-24 179 180-179 179-24-23 139-140h-736v-300h34z" horiz-adv-x="1000" />
<glyph glyph-name="radio" unicode="&#xe8c7;" d="M879 566c-1 0-1 0-1 0l-707 167c-9 2-18-4-20-13s3-18 12-20l568-133h-601c-25 0-46-21-46-47v-506c0-26 21-47 46-47h740c26 0 47 21 47 47v506c0 23-17 42-38 46z m4-552c0-8-6-14-13-14h-740c-7 0-13 6-13 14v506c0 7 6 13 13 13h740c7 0 13-6 13-13v-506z m-500 286c-13 0-25-11-25-25 0-14 11-25 25-25 14 0 25 11 25 25 0 14-11 25-25 25z m-183-25c0 14-11 25-25 25s-25-11-25-25c0-14 11-25 25-25s25 11 25 25z m392 25c-14 0-25-11-25-25 0-14 11-25 25-25 14 0 25 11 25 25 0 14-11 25-25 25z m-300-49c-14 0-25-11-25-24s11-25 25-25c14 0 25 11 25 25s-11 24-25 24z m208-26c0 14-11 25-25 25-14 0-25-11-25-25s11-25 25-25c14 0 25 11 25 25z m-208 125c-14 0-25-11-25-25 0-14 11-25 25-25s25 11 25 25c0 14-11 25-25 25z m183-50c14 0 25 11 25 25 0 14-11 25-25 25-14 0-25-11-25-25 0-14 11-25 25-25z m-267-100c-13 0-25-12-25-25s12-25 25-25c14 0 25 11 25 25s-11 25-25 25z m350 0c-13 0-25-12-25-25s12-25 25-25c14 0 25 11 25 25s-11 25-25 25z m-350 200c-13 0-25-11-25-25s12-25 25-25c14 0 25 11 25 25s-11 25-25 25z m350-50c14 0 25 11 25 25s-11 25-25 25c-13 0-25-11-25-25s12-25 25-25z m-284-217c-14 0-25-11-25-24s11-25 25-25c14 0 25 11 25 25s-11 24-25 24z m217 0c-14 0-25-11-25-24s11-25 25-25c14 0 25 11 25 25s-11 24-25 24z m-216 284c14 0 25 11 25 25s-11 25-25 25c-14 0-25-12-25-25 0-14 11-25 25-25z m216 50c-14 0-25-12-25-25 0-14 11-25 25-25s25 11 25 25c0 13-11 25-25 25z m-108-267c-13 0-25-12-25-25 0-14 12-25 25-25s25 11 25 25c0 13-11 25-25 25z m0-100c-13 0-25-11-25-25s12-25 25-25c14 0 25 11 25 25s-11 25-25 25z m0 300c-13 0-25-11-25-25s12-25 25-25c14 0 25 11 25 25s-11 25-25 25z m0 100c-13 0-25-11-25-25s12-25 25-25c14 0 25 11 25 25s-11 25-25 25z m384-33c-28 0-50-23-50-50s22-50 50-50c27 0 50 22 50 50s-23 50-50 50z m0-67c-10 0-17 8-17 17s7 16 17 16c9 0 16-7 16-16s-7-17-16-17z m0-67c-28 0-50-22-50-50s22-50 50-50c27 0 50 23 50 50s-23 50-50 50z m0-66c-10 0-17 7-17 16s7 17 17 17c9 0 16-7 16-17s-7-16-16-16z" horiz-adv-x="1000" />
<glyph glyph-name="note" unicode="&#xe8c8;" d="M868 719c-10 10-22 14-35 14s-26-4-36-14l-147-147v28h-533v-634h633v534h-30l148 148c20 20 20 51 0 71z m-151-719h-566v566h494l-261-261v-72h69l264 264v-497z m128 672l-406-406h-22v25l404 404c4 5 9 5 12 5s7 0 12-5c4-4 4-9 4-11s0-8-4-12z" horiz-adv-x="1000" />
<glyph glyph-name="notebook" unicode="&#xe8c9;" d="M500 750h-267c-79 0-133-54-133-133v-555c0-26 10-112 136-112h664v800h-400z m-33-33v-319l-82 74-90-76v321h172z m-234 0h28v-393l123 104 116-106v395h367v-550h-633c-43 0-77-13-100-35v485c0 60 39 100 100 100z m3-734c-76 0-98 35-102 68 0 52 37 82 99 82h634v-150h-631z" horiz-adv-x="1000" />
<glyph glyph-name="mouse" unicode="&#xe8ca;" d="M517 582v52c0 15 32 35 58 51 37 24 75 48 75 83v82h-33v-82c0-17-33-38-60-54-36-23-74-46-74-80v-51c-130-9-233-114-233-242v-248c0-134 112-243 250-243s250 109 250 243v248c0 128-103 233-233 242z m200-241v-24h-200v232c111-8 200-98 200-208z m-434 0c0 110 89 200 200 208v-232h-200v24z m217-458c-119 0-217 94-217 210v190h434v-190c0-116-98-210-217-210z" horiz-adv-x="1000" />
</font>
</defs>
</svg>
