<?xml version="1.0" standalone="no"?>
<!DOCTYPE svg PUBLIC "-//W3C//DTD SVG 1.1//EN" "http://www.w3.org/Graphics/SVG/1.1/DTD/svg11.dtd" >
<svg xmlns="http://www.w3.org/2000/svg">
<metadata>Generated by IcoMoon</metadata>
<defs>
<font id="icomoon" horiz-adv-x="1024">
<font-face units-per-em="1024" ascent="960" descent="-64" />
<missing-glyph horiz-adv-x="1024" />
<glyph unicode="&#x20;" horiz-adv-x="512" d="" />
<glyph unicode="&#xe900;" glyph-name="wishlist" d="M32 556.080c0 148.141 129.965 262.206 282.514 262.206 78.636 0 147.831-36.871 197.486-84.58 49.654 47.709 118.85 84.58 197.486 84.58 152.547 0 282.514-114.065 282.514-262.206 0-101.478-43.279-190.719-103.234-266.152-59.853-75.303-138.138-139.216-213.102-191.148-28.632-19.836-57.597-38.129-84.107-51.632-24.892-12.676-53.514-24.291-79.557-24.291s-54.666 11.615-79.557 24.291c-26.51 13.502-55.475 31.795-84.107 51.632-74.961 51.931-153.253 115.844-213.104 191.148-59.956 75.434-103.232 164.674-103.232 266.152zM314.514 736c-114.062 0-200.229-83.882-200.229-179.92 0-76.992 32.683-148.674 85.363-214.953 52.783-66.41 123.803-125.003 195.547-174.706 27.147-18.804 52.718-34.807 74.59-45.947 23.49-11.966 37.095-15.331 42.215-15.331s18.726 3.365 42.215 15.331c21.872 11.14 47.443 27.143 74.59 45.947 71.744 49.703 142.765 108.296 195.545 174.706 52.685 66.279 85.365 137.961 85.365 214.953 0 96.039-86.17 179.92-200.229 179.92-65.507 0-126.676-39.137-164.87-88.809-7.788-10.129-19.839-16.064-32.616-16.064s-24.828 5.936-32.616 16.064c-38.194 49.673-99.362 88.809-164.87 88.809z" />
<glyph unicode="&#xe901;" glyph-name="video" d="M971.11 341.413c70.519 53.951 70.519 159.223 0 213.174-213.123 163.053-451.103 291.571-705.034 380.744l-46.39 16.291c-88.75 31.166-182.494-28.205-194.509-118.79-33.57-253.092-33.57-516.573 0-769.666 12.015-90.584 105.759-149.956 194.509-118.79l46.39 16.293c253.931 89.173 491.911 217.691 705.034 380.743z" />
<glyph unicode="&#xe902;" glyph-name="user" d="M512 874.667c-42.193 0-83.439-12.512-118.522-35.953s-62.426-56.759-78.573-95.741c-16.147-38.982-20.371-81.876-12.14-123.258s28.55-79.395 58.385-109.229c29.835-29.837 67.846-50.155 109.228-58.385 41.387-8.235 84.279-4.006 123.26 12.139s72.299 43.49 95.74 78.573c23.445 35.082 35.955 76.328 35.955 118.522 0 56.579-22.477 110.842-62.485 150.849-40.004 40.008-94.268 62.484-150.848 62.484zM512 533.333c-25.314 0-50.065 7.507-71.113 21.572-21.050 14.065-37.456 34.056-47.144 57.445s-12.223 49.126-7.284 73.955c4.939 24.829 17.13 47.637 35.031 65.538 17.9 17.901 40.709 30.092 65.537 35.031 24.832 4.939 50.569 2.404 73.958-7.284 23.386-9.688 43.379-26.094 57.442-47.144 14.067-21.050 21.572-45.797 21.572-71.113 0-33.948-13.487-66.505-37.491-90.51s-56.563-37.49-90.509-37.49zM896 64v42.667c0 79.211-31.467 155.179-87.479 211.187-56.009 56.013-131.977 87.479-211.187 87.479h-170.667c-79.212 0-155.178-31.467-211.189-87.479-56.011-56.009-87.477-131.977-87.477-211.187v-42.667h85.333v42.667c0 56.58 22.476 110.844 62.484 150.848 40.008 40.009 94.27 62.485 150.849 62.485h170.667c56.58 0 110.844-22.477 150.848-62.485 40.009-40.004 62.485-94.268 62.485-150.848v-42.667h85.333z" />
<glyph unicode="&#xe903;" glyph-name="twiter-two" d="M640.916 817.352c21.692 3.716 45.983 4.956 68.841 1.089 40.829-6.907 78.541-25.882 108.351-54.33 19.484-0.441 38.633 3.398 55.58 8.871 14.336 4.631 26.453 10.224 34.941 14.645 4.221 2.199 7.481 4.074 9.603 5.344 1.058 0.634 1.826 1.114 2.281 1.403l0.404 0.259c12.663 8.436 29.531 6.794 40.317-3.936 10.792-10.733 12.533-27.583 4.159-40.294-8.863-13.453-21.168-37.434-34.953-64.304-2.167-4.225-4.369-8.521-6.599-12.859-7.908-15.358-16.014-30.881-23.569-44.199-4.745-8.362-9.819-16.852-14.933-24.188v-11.681c0.324-42.907-4.597-85.59-14.586-127.114-6.286-26.127-14.575-51.795-24.821-76.771-26.561-64.711-65.746-123.479-115.268-172.881-49.522-49.397-108.396-88.428-173.174-114.819-64.721-26.368-134.044-39.589-203.926-38.884-101.304-0.091-200.477 29.099-285.585 84.048-12.535 8.095-17.813 23.78-12.722 37.803 5.092 14.029 19.201 22.67 34.010 20.838 12.815-1.587 25.718-2.361 38.631-2.315 46.398 0.131 91.912 10.382 133.464 29.69-13.207 6.013-25.817 13.426-37.6 22.164-34.633 25.682-60.4 61.52-73.715 102.529-3.46 10.656-1.095 22.347 6.236 30.82 0.131 0.151 0.264 0.302 0.398 0.451-7.831 6.982-15.157 14.585-21.903 22.761-30.35 36.787-47.061 82.929-47.308 130.619l-0.001 0.166 0.001 2.133c0 11.344 6.005 21.839 15.784 27.587 2.479 1.457 5.107 2.554 7.81 3.29-14.436 28.803-21.943 60.609-21.887 92.876-0.017 36.556 9.531 72.48 27.697 104.202 5.244 9.158 14.666 15.142 25.185 15.994s20.781-3.536 27.431-11.73c41.069-50.603 92.324-92.001 150.435-121.504 29.872-15.166 61.213-27.014 93.46-35.395 18.079-4.699 36.444-8.308 54.994-10.801-0.817 30.859 5.276 61.701 18.065 90.2 18.76 41.806 50.865 76.203 91.279 97.796 17.118 9.145 39.839 16.428 63.192 20.429zM159.716 495.325c5.532-15.569 13.761-30.174 24.43-43.106 20.963-25.41 50.059-42.799 82.367-49.226 14.391-2.863 24.991-15.146 25.718-29.801s-8.607-27.926-22.645-32.198c-11.626-3.538-23.538-6.003-35.585-7.373 7.961-10.262 17.326-19.454 27.881-27.282 23.944-17.754 52.827-27.604 82.63-28.178 13.522-0.26 25.42-8.992 29.722-21.815s0.079-26.965-10.55-35.328c-44.764-35.22-96.527-59.785-151.378-72.323 45.461-14.558 93.138-22.056 141.364-21.993h0.371c61.442-0.637 122.396 10.968 179.301 34.15 56.902 23.182 108.62 57.475 152.123 100.87 43.503 43.39 77.926 95.017 101.257 151.862 9.006 21.94 16.287 44.488 21.806 67.439 8.784 36.512 13.107 74.045 12.811 111.774v22.864c0 7.759 2.816 15.254 7.93 21.089 2.953 3.372 8.124 11.162 15.337 23.872 6.855 12.080 14.438 26.583 22.329 41.908 0.478 0.927 0.956 1.859 1.439 2.794-20.463-4.444-43.657-6.773-67.971-4.145-7.697 0.832-14.837 4.429-20.087 10.122-21.453 23.268-50.028 38.756-81.232 44.035-13.847 2.343-30.589 1.806-47.36-1.067-18.222-3.121-34.082-8.583-43.839-13.796-27.915-14.915-50.093-38.674-63.051-67.55s-15.965-61.237-8.549-92.006c2.364-9.81-0.037-20.16-6.479-27.926s-16.169-12.040-26.247-11.53c-35.986 1.82-71.59 7.309-106.273 16.323-36.689 9.536-72.347 23.016-106.334 40.271-50.039 25.404-95.609 58.56-135.069 98.141-1.8-9.199-2.714-18.587-2.707-28.035v-0.082c-0.045-23.497 5.721-46.641 16.786-67.371s27.082-38.402 46.628-51.443c11.862-7.914 17.056-22.723 12.736-36.313s-17.112-22.682-31.366-22.294c-12.911 0.351-25.714 1.921-38.244 4.665z" />
<glyph unicode="&#xe904;" glyph-name="twiter" d="M982.867 757.092c2.784 3.877-1.325 8.883-5.773 7.158-31.622-12.256-64.666-20.525-98.374-24.6 37.536 22.422 66.496 56.554 82.554 96.963 1.638 4.116-2.861 7.793-6.733 5.651-34.886-19.264-72.506-33.136-111.584-41.125-1.638-0.334-3.322 0.223-4.474 1.434-29.325 30.944-67.93 51.548-110.010 58.668-42.97 7.269-87.136 0.072-125.571-20.464s-68.969-53.249-86.81-93.007c-16.964-37.803-21.541-79.942-13.174-120.413 0.65-3.14-1.809-6.104-5.009-5.906-76.035 4.723-150.324 24.947-218.293 59.453-67.796 34.42-127.83 82.303-176.449 140.696-2.157 2.592-6.247 2.256-7.82-0.727-15.128-28.707-23.049-60.704-23.027-93.223-0.061-32.371 7.882-64.253 23.124-92.811s37.308-52.903 64.236-70.869c-28.556 0.777-56.556 7.837-82.020 20.636-3.282 1.65-7.218-0.699-7.048-4.368 1.986-42.683 17.656-85.534 44.779-118.41 28.863-34.986 68.925-58.929 113.409-67.778-17.124-5.212-34.902-7.959-52.8-8.16-9.741 0.114-19.463 0.833-29.11 2.152-3.577 0.489-6.497-2.909-5.245-6.295 13.268-35.88 36.708-67.187 67.528-90.040 32.95-24.433 72.696-37.987 113.708-38.776-69.254-54.493-154.758-84.234-242.88-84.483-9.055-0.026-18.106 0.269-27.135 0.883-5.088 0.346-7.429-6.432-3.043-9.037 85.861-50.95 183.998-77.888 284.098-77.76 73.905-0.768 147.222 13.197 215.67 41.082s130.652 69.126 182.979 121.324c52.333 52.195 93.734 114.293 121.792 182.668 28.064 68.375 42.221 141.656 41.638 215.564v23.032c0 1.516 0.717 2.941 1.926 3.854 32.557 24.582 61.19 53.932 84.941 87.036z" />
<glyph unicode="&#xe905;" glyph-name="time" d="M512 874.667c-235.264 0-426.667-191.403-426.667-426.667s191.403-426.667 426.667-426.667c235.264 0 426.667 191.403 426.667 426.667s-191.403 426.667-426.667 426.667zM512 106.667c-188.203 0-341.333 153.131-341.333 341.333s153.131 341.333 341.333 341.333c188.203 0 341.333-153.131 341.333-341.333s-153.131-341.333-341.333-341.333zM554.667 661.333h-85.333v-256h256v85.333h-170.667v170.667z" />
<glyph unicode="&#xe906;" glyph-name="star-two" d="M436.576 840.546c33.571 57.855 117.12 57.855 150.691 0l102.809-177.177c9.476-16.331 25.856-27.476 44.525-30.296l170.718-25.785c74.419-11.24 100.523-105.199 42.564-153.214l-124.386-103.056c-17.459-14.465-25.668-37.28-21.427-59.553l34.844-182.982c13.648-71.678-61.597-127.367-126.159-93.37l-169.843 89.429c-18.145 9.551-39.834 9.551-57.979 0l-169.844-89.429c-64.562-33.997-139.808 21.692-126.159 93.37l34.843 182.982c4.241 22.272-3.968 45.088-21.427 59.553l-124.39 103.056c-57.955 48.015-31.852 141.974 42.565 153.214l170.72 25.785c18.67 2.819 35.049 13.965 44.525 30.296l102.809 177.177zM522.685 803.072c-4.796 8.265-16.731 8.265-21.527 0l-102.809-177.177c-20.848-35.929-56.882-60.448-97.956-66.651l-170.72-25.785c-10.631-1.606-14.36-15.028-6.081-21.888l124.39-103.055c38.41-31.823 56.471-82.019 47.141-131.018l-34.844-182.982c-1.95-10.24 8.8-18.193 18.023-13.338l169.843 89.428c39.92 21.019 87.634 21.019 127.554 0l169.844-89.428c9.223-4.855 19.972 3.098 18.022 13.338l-34.843 182.982c-9.33 48.999 8.73 99.196 47.14 131.018l124.389 103.055c8.277 6.86 4.548 20.282-6.076 21.888l-170.724 25.785c-41.073 6.204-77.108 30.723-97.957 66.651l-102.809 177.177z" />
<glyph unicode="&#xe907;" glyph-name="star" d="M548.911 832.158c-16.443 28.337-57.364 28.337-73.808 0l-115.8-199.565c-8.123-13.998-22.162-23.551-38.164-25.968l-217.016-32.778c-36.449-5.505-49.235-51.526-20.848-75.044l161.668-133.941c14.965-12.398 22.001-31.955 18.366-51.046l-42.29-222.089c-6.685-35.101 30.17-62.384 61.792-45.729l204.348 107.593c15.554 8.192 34.143 8.192 49.697 0l204.345-107.593c31.627-16.655 68.484 10.628 61.798 45.729l-42.291 222.089c-3.635 19.091 3.401 38.648 18.366 51.046l161.668 133.941c28.387 23.518 15.601 69.538-20.853 75.044l-217.013 32.778c-16.003 2.417-30.042 11.97-38.164 25.968l-115.8 199.565z" />
<glyph unicode="&#xe908;" glyph-name="short-arrow-up" d="M975.906 188.894c29.992 29.992 29.992 78.62 0 108.612l-409.6 409.6c-29.992 29.992-78.62 29.992-108.612 0l-409.6-409.6c-29.992-29.992-29.992-78.62 0-108.612s78.62-29.992 108.612 0l355.294 355.294 355.294-355.294c29.992-29.992 78.62-29.992 108.612 0z" />
<glyph unicode="&#xe909;" glyph-name="short-arrow-down" d="M975.906 707.106c29.992-29.992 29.992-78.62 0-108.612l-409.6-409.6c-29.992-29.992-78.62-29.992-108.612 0l-409.6 409.6c-29.992 29.992-29.992 78.619 0 108.612s78.62 29.992 108.612 0l355.294-355.294 355.294 355.294c29.992 29.992 78.62 29.992 108.612 0z" />
<glyph unicode="&#xe90a;" glyph-name="shopping-bag" d="M929.162 793.6h-707.203l-60.425 108.308c-6.782 12.157-19.613 19.692-33.534 19.692h-76.8c-21.208 0-38.4-17.192-38.4-38.4s17.192-38.4 38.4-38.4h54.252l59.632-106.888 149.782-331.405-138.078-147.282c-9.929-10.593-13.037-25.876-8.032-39.501 5.004-13.629 17.264-23.27 31.686-24.919l125.856-14.382c157.424-17.992 316.386-17.992 473.805 0l125.86 14.382c21.069 2.412 36.198 21.443 33.792 42.516-2.412 21.069-21.443 36.198-42.511 33.787l-125.86-14.382c-151.629-17.326-304.737-17.326-456.366 0l-49.947 5.709 101.344 108.099c0.98 1.050 1.891 2.135 2.732 3.256l38.544-5.018c54.012-7.030 108.609-8.407 162.906-4.111 126.643 10.015 244.014 70.277 325.96 167.354l29.594 35.063c0.998 1.178 1.92 2.414 2.765 3.702l55.163 84.063c39.096 59.585-3.645 138.757-74.916 138.757zM281.6 115.2c-42.416 0-76.8-34.386-76.8-76.8s34.384-76.8 76.8-76.8c42.416 0 76.8 34.386 76.8 76.8s-34.384 76.8-76.8 76.8zM768 38.4c0 42.414 34.386 76.8 76.8 76.8s76.8-34.386 76.8-76.8c0-42.414-34.386-76.8-76.8-76.8s-76.8 34.386-76.8 76.8z" />
<glyph unicode="&#xe90b;" glyph-name="share" d="M231.95 304c42.004 0.237 82.405 16.159 113.28 44.64l300.48-171.84c-3.827-13.261-5.766-26.995-5.76-40.8-0.308-38.957 12.815-76.826 37.164-107.238 24.346-30.406 58.426-51.501 96.499-59.725 38.080-8.224 77.83-3.078 112.55 14.579 34.726 17.651 62.31 46.726 78.106 82.336s18.842 75.578 8.621 113.165c-10.221 37.594-33.088 70.515-64.736 93.216-31.654 22.707-70.163 33.818-109.050 31.456-38.88-2.368-75.763-18.054-104.435-44.429l-300.479 171.84c3.626 11.828 5.565 24.109 5.76 36.48l295.199 168.96c28.518-25.768 65.024-40.948 103.405-42.993 38.374-2.046 76.294 9.167 107.386 31.759s53.472 55.187 63.379 92.32c9.914 37.133 6.758 76.545-8.941 111.626s-42.982 63.697-77.274 81.050c-34.291 17.353-73.51 22.386-111.072 14.256s-71.187-28.929-95.238-58.909c-24.048-29.98-37.057-67.316-36.844-105.749 0.163-13.791 2.099-27.503 5.76-40.8l-273.12-156c-15.825 24.482-37.748 44.425-63.615 57.869s-54.787 19.924-83.917 18.807c-29.13-1.117-57.468-9.796-82.228-25.182s-45.091-36.95-58.994-62.573c-13.903-25.623-20.899-54.422-20.301-83.568s8.77-57.633 23.712-82.664c14.942-25.031 36.14-45.743 61.511-60.1s54.041-21.865 83.192-21.788zM807.949 208c14.24 0 28.16-4.224 40-12.134s21.069-19.155 26.522-32.314c5.446-13.152 6.874-27.629 4.096-41.6-2.778-13.965-9.632-26.797-19.706-36.864-10.067-10.067-22.899-16.928-36.864-19.706s-28.442-1.35-41.6 4.096c-13.158 5.453-24.403 14.682-32.314 26.522s-12.134 25.76-12.134 40c0 19.098 7.59 37.408 21.088 50.912 13.504 13.504 31.821 21.088 50.912 21.088zM807.949 832c14.24 0 28.16-4.223 40-12.134s21.069-19.156 26.522-32.312c5.446-13.156 6.874-27.633 4.096-41.6s-9.632-26.796-19.706-36.865c-10.067-10.070-22.899-16.927-36.864-19.705s-28.442-1.352-41.6 4.097c-13.158 5.449-24.403 14.678-32.314 26.518s-12.134 25.761-12.134 40.001c0 19.096 7.59 37.409 21.088 50.912 13.504 13.502 31.821 21.088 50.912 21.088zM231.95 544c14.241 0 28.161-4.223 40.001-12.134s21.069-19.156 26.518-32.312c5.45-13.156 6.875-27.633 4.097-41.6s-9.636-26.796-19.705-36.865c-10.070-10.070-22.899-16.927-36.865-19.705s-28.444-1.352-41.6 4.097c-13.156 5.449-24.401 14.678-32.312 26.518s-12.134 25.761-12.134 40.001c0 19.096 7.586 37.409 21.089 50.912s31.816 21.088 50.911 21.088z" />
<glyph unicode="&#xe90c;" glyph-name="quote" d="M819.2 801.018c27.159 0 53.204-10.625 72.408-29.537 19.202-18.912 29.992-44.563 29.992-71.309s-10.789-52.396-29.992-71.31c-19.205-18.911-45.249-29.538-72.408-29.538-27.157 0-53.204 10.626-72.408 29.538-19.202 18.914-29.992 44.564-29.992 71.31s10.789 52.397 29.992 71.309c19.205 18.912 45.251 29.537 72.408 29.537zM909.824 519.252c-23.552-160.547-87.245-299.11-229.274-438.884-4.759-4.687-8.536-10.254-11.113-16.379s-3.903-12.691-3.903-19.319c0-6.63 1.327-13.196 3.903-19.321s6.353-11.692 11.113-16.379c4.759-4.689 10.412-8.406 16.631-10.945 6.221-2.537 12.886-3.842 19.619-3.842s13.398 1.306 19.619 3.842c6.218 2.539 11.871 6.256 16.631 10.945 216.986 213.795 270.95 429.808 270.95 691.202-0.009 43.835-14.52 86.473-41.335 121.461s-64.472 60.419-107.276 72.446c-42.801 12.027-88.418 9.993-129.941-5.792s-76.695-44.464-100.191-81.694c-23.494-37.23-34.034-80.985-30.024-124.641s22.353-84.838 52.252-117.311c29.898-32.472 69.725-54.467 113.452-62.657s88.972-2.127 128.887 17.268zM204.8 801.018c27.158 0 53.204-10.625 72.408-29.537 19.202-18.912 29.992-44.563 29.992-71.309s-10.789-52.396-29.992-71.31c-19.205-18.911-45.25-29.538-72.408-29.538s-53.204 10.626-72.408 29.538c-19.204 18.914-29.992 44.564-29.992 71.31s10.789 52.397 29.992 71.309c19.204 18.912 45.25 29.537 72.408 29.537zM295.424 519.252c-23.552-160.547-87.245-299.11-229.273-438.884-4.76-4.687-8.536-10.254-11.113-16.379s-3.902-12.691-3.902-19.319c0-6.63 1.326-13.196 3.902-19.321s6.352-11.692 11.113-16.379c4.76-4.689 10.412-8.406 16.631-10.945 6.22-2.537 12.886-3.842 19.618-3.842s13.398 1.306 19.618 3.842c6.22 2.539 11.871 6.256 16.631 10.945 216.985 213.795 270.95 429.808 270.95 691.202-0.009 43.835-14.52 86.473-41.335 121.461s-64.472 60.419-107.276 72.446c-42.802 12.027-88.417 9.993-129.94-5.792s-76.695-44.464-100.191-81.694c-23.496-37.23-34.036-80.985-30.025-124.641s22.354-84.838 52.252-117.311c29.899-32.472 69.726-54.467 113.452-62.657s88.971-2.127 128.886 17.268z" />
<glyph unicode="&#xe90d;" glyph-name="quick-view" d="M332 448c0 99.411 80.589 180 180 180s180-80.589 180-180c0-99.411-80.589-180-180-180s-180 80.589-180 180zM512 556c-59.647 0-108-48.353-108-108s48.353-108 108-108c59.647 0 108 48.353 108 108s-48.353 108-108 108zM143.524 512.975c-20.118-28.988-27.524-51.664-27.524-64.975s7.407-35.987 27.524-64.975c19.447-28.022 48.353-58.399 84.924-86.467 73.302-56.259 173.798-100.559 283.552-100.559s210.253 44.3 283.552 100.559c36.57 28.068 65.478 58.444 84.922 86.467 20.122 28.988 27.526 51.664 27.526 64.975s-7.405 35.987-27.526 64.975c-19.443 28.022-48.352 58.399-84.922 86.467-73.299 56.259-173.798 100.559-283.552 100.559s-210.25-44.3-283.552-100.559c-36.571-28.068-65.476-58.444-84.924-86.467zM184.611 656.559c83.052 63.741 198.556 115.441 327.389 115.441s244.339-51.7 327.386-115.441c41.606-31.932 75.968-67.556 100.243-102.534 23.603-34.012 40.371-71.336 40.371-106.025s-16.768-72.013-40.371-106.025c-24.275-34.978-58.637-70.602-100.243-102.534-83.046-63.742-198.554-115.441-327.386-115.441s-244.337 51.699-327.389 115.441c-41.605 31.932-75.964 67.556-100.238 102.534-23.603 34.012-40.373 71.336-40.373 106.025s16.77 72.013 40.373 106.025c24.274 34.978 58.633 70.602 100.238 102.534z" />
<glyph unicode="&#xe90e;" glyph-name="date" d="M857.28 824h-112.64v16c0 17.673-14.327 32-32 32s-32-14.327-32-32v0-16h-337.28v16c0 17.673-14.327 32-32 32s-32-14.327-32-32v0-16h-112.64c-74.331-0.182-134.538-60.389-134.72-134.703v-561.297c0.182-74.331 60.389-134.538 134.703-134.72h690.577c74.331 0.182 134.538 60.389 134.72 134.703v561.297c-0.182 74.331-60.389 134.538-134.703 134.72h-0.017zM166.72 760h112.64v-16c0-17.673 14.327-32 32-32s32 14.327 32 32v0 16h337.28v-16c0-17.673 14.327-32 32-32s32 14.327 32 32v0 16h112.64c39.058 0 70.72-31.662 70.72-70.72v0-75.84h-832v75.84c0 39.058 31.662 70.72 70.72 70.72v0zM857.28 56h-690.56c-0.003 0-0.008 0-0.012 0-39.058 0-70.72 31.662-70.72 70.72 0 0.45 0.004 0.899 0.013 1.347l-0.001-0.067v421.44h832v-421.44c0.007-0.381 0.012-0.83 0.012-1.28 0-39.058-31.662-70.72-70.72-70.72-0.004 0-0.008 0-0.012 0h0.001z" />
<glyph unicode="&#xe90f;" glyph-name="codicon_quote" d="M458.24 736.007c-155.52-99.84-231.040-202.882-231.040-375.040 10.24 3.198 19.2 3.198 28.16 3.198 81.28 0 159.998-55.040 159.998-154.238 0-103.042-65.918-167.042-159.998-167.042-121.6 0-191.36 97.28-191.36 272.002 0 243.2 112 417.92 321.28 538.88l72.96-117.76zM906.24 736.007c-155.522-99.84-231.042-202.882-231.042-375.040 10.243 3.198 19.203 3.198 28.16 3.198 81.282 0 160-55.040 160-154.238 0-103.042-65.918-167.042-160-167.042-120.958 0-190.717 97.28-190.717 272.002 0 243.2 111.998 417.92 321.277 538.88l72.963-117.76h-0.642z" />
<glyph unicode="&#xe910;" glyph-name="plus" d="M984 488h-432v432c0 22.092-17.908 40-40 40s-40-17.908-40-40v-432h-432c-22.092 0-40-17.908-40-40s17.908-40 40-40h432v-432c0-22.092 17.908-40 40-40s40 17.908 40 40v432h432c22.092 0 40 17.908 40 40s-17.908 40-40 40z" />
<glyph unicode="&#xe911;" glyph-name="close" d="M73.44 9.44c5.792-5.798 13.797-9.385 22.64-9.385s16.848 3.587 22.64 9.385v0l393.28 393.28 393.44-393.28c5.794-5.794 13.799-9.378 22.64-9.378 17.683 0 32.018 14.335 32.018 32.018 0 8.841-3.584 16.846-9.378 22.64l-393.44 393.28 393.28 393.44c5.794 5.794 9.378 13.799 9.378 22.64 0 17.683-14.335 32.018-32.018 32.018-8.841 0-16.846-3.584-22.64-9.378v0l-393.28-393.44-393.44 393.28c-5.559 4.783-12.847 7.695-20.815 7.695-17.673 0-32-14.327-32-32 0-7.968 2.912-15.255 7.73-20.857l-0.035 0.042 393.28-393.44-393.28-393.44c-5.751-5.784-9.305-13.757-9.305-22.56s3.555-16.776 9.307-22.562l-0.002 0.002z" />
<glyph unicode="&#xe912;" glyph-name="linkedin" d="M164 902c-56.333 0-102-45.667-102-102s45.667-102 102-102c56.333 0 102 45.667 102 102s-45.667 102-102 102zM68 614c-3.314 0-6-2.686-6-6v-624c0-3.315 2.686-6.003 6-6.003h192c3.314 0 6 2.688 6 6.003v624c0 3.314-2.686 6-6 6h-192zM380 614c-3.314 0-6-2.686-6-6v-624c0-3.315 2.686-6.003 6-6.003h192c3.314 0 6 2.688 6 6.003v336c0 23.869 9.482 46.762 26.36 63.64s39.768 26.36 63.64 26.36c23.872 0 46.758-9.482 63.642-26.36 16.877-16.878 26.362-39.77 26.362-63.64v-336c0-3.315 2.682-6.003 5.997-6.003h192c3.315 0 5.997 2.688 5.997 6.003v413.748c0 116.484-101.306 207.612-217.203 197.076-35.744-3.25-71.085-12.135-104.083-26.278l-62.71-26.876v66.33c0 3.314-2.686 6-6 6h-192z" />
<glyph unicode="&#xe913;" glyph-name="instagram" d="M703.968 688.006c0 26.509 21.491 48 48 48s48-21.491 48-48c0-26.51-21.491-48-48-48s-48 21.49-48 48zM511.97 676.006c-125.921 0-228-102.079-228-228s102.079-227.999 228-227.999c125.921 0 227.998 102.078 227.998 227.999s-102.077 228-227.998 228zM355.97 448.006c0 86.156 69.843 156 156 156s155.998-69.844 155.998-156c0-86.157-69.842-155.999-155.998-155.999s-156 69.843-156 155.999zM764.365 888.021c-166.394 18.597-338.394 18.597-504.79 0-96.579-10.794-174.547-86.875-185.901-183.956-19.898-170.126-19.898-341.992 0-512.116 11.354-97.082 89.322-173.165 185.901-183.955 166.396-18.598 338.396-18.598 504.79 0 96.582 10.79 174.547 86.874 185.901 183.955 19.898 170.124 19.898 341.99 0 512.116-11.354 97.082-89.318 173.162-185.901 183.956zM267.572 816.467c161.081 18.003 327.716 18.003 488.799 0 63.84-7.136 114.989-57.517 122.381-120.765 19.251-164.57 19.251-330.821 0-495.388-7.392-63.251-58.541-113.632-122.381-120.768-161.083-18.003-327.718-18.003-488.799 0-63.845 7.136-114.988 57.517-122.386 120.768-19.248 164.566-19.248 330.818 0 495.388 7.398 63.248 58.541 113.629 122.386 120.765z" />
<glyph unicode="&#xe914;" glyph-name="hover-active" d="M512 857.6l443.405-768h-886.81l443.405 768z" />
<glyph unicode="&#xe915;" glyph-name="bi_reply-all" d="M518.229 639.171c1.412 0.623 2.961 0.879 4.501 0.748s3.021-0.649 4.305-1.503c1.289-0.854 2.342-2.017 3.059-3.384 0.721-1.367 1.088-2.892 1.062-4.437v-73.792c0-8.487 3.371-16.626 9.374-22.627 5.999-6 14.14-9.371 22.626-9.371 42.688 0 128.832-0.32 211.2-52.608 62.976-39.936 127.36-112.64 166.080-248.064-65.28 62.912-139.84 97.024-205.12 115.136-40.124 11.081-81.361 17.651-122.944 19.584-17.020 0.747-34.069 0.576-51.072-0.512h-0.832l-0.32-0.064h-0.064l3.072-31.872-3.2 31.872c-7.898-0.794-15.219-4.497-20.544-10.385-5.321-5.892-8.265-13.551-8.256-21.487v-73.792c0-6.912-7.040-11.264-12.928-8.576l-254.976 187.712c-0.865 0.64-1.762 1.237-2.688 1.792-1.391 0.836-2.543 2.018-3.343 3.43s-1.219 3.008-1.219 4.634c0 1.621 0.42 3.217 1.219 4.629 0.8 1.417 1.951 2.598 3.343 3.435 0.926 0.55 1.823 1.148 2.688 1.792l254.976 187.71zM595.157 295.3c4.352 0 9.152-0.192 14.272-0.384 27.776-1.28 66.176-5.504 108.8-17.344 84.864-23.552 185.344-76.928 252.16-197.12 3.614-6.49 9.37-11.52 16.286-14.229 6.916-2.705 14.558-2.927 21.615-0.619s13.094 6.997 17.075 13.269c3.977 6.268 5.653 13.726 4.736 21.099-29.696 237.44-120.704 362.368-221.44 426.24-79.68 50.558-161.728 60.286-213.504 62.142v42.24c0.009 13.18-3.546 26.117-10.278 37.446-6.737 11.329-16.405 20.63-27.985 26.922s-24.644 9.341-37.815 8.826c-13.167-0.515-25.954-4.576-37.009-11.753l-255.616-188.158c-10.568-6.596-19.283-15.774-25.325-26.671-6.042-10.893-9.212-23.147-9.212-35.601 0-12.459 3.17-24.713 9.212-35.605s14.757-20.070 25.325-26.667l255.616-188.16c11.055-7.181 23.842-11.238 37.009-11.755 13.171-0.516 26.236 2.534 37.815 8.823 11.58 6.293 21.248 15.595 27.985 26.923 6.733 11.332 10.287 24.269 10.278 37.449v42.688zM334.825 685.255c-2.493 3.391-5.63 6.257-9.233 8.434s-7.599 3.622-11.76 4.252c-4.162 0.63-8.407 0.433-12.492-0.58s-7.93-2.822-11.316-5.323l-255.488-188.158c-10.568-6.596-19.283-15.774-25.325-26.671-6.042-10.893-9.212-23.147-9.212-35.601 0-12.459 3.17-24.713 9.212-35.605s14.757-20.070 25.325-26.667l255.616-188.16c3.376-2.586 7.234-4.467 11.346-5.542s8.398-1.323 12.607-0.721c4.209 0.597 8.255 2.031 11.904 4.211s6.827 5.065 9.348 8.491c2.521 3.422 4.335 7.313 5.336 11.443s1.169 8.418 0.494 12.617c-0.675 4.198-2.18 8.218-4.426 11.827s-5.189 6.733-8.657 9.195l-256.832 189.056c-0.866 0.64-1.763 1.237-2.688 1.792-1.392 0.836-2.543 2.018-3.343 3.43s-1.22 3.008-1.22 4.634c0 1.621 0.42 3.217 1.22 4.629 0.799 1.417 1.951 2.598 3.343 3.435 0.925 0.55 1.823 1.148 2.688 1.792l256.768 189.054c6.831 5.033 11.383 12.574 12.655 20.963s-0.84 16.94-5.871 23.773z" />
<glyph unicode="&#xe916;" glyph-name="facebook-two" d="M439.409 842.191c47.259 47.26 111.356 73.809 178.191 73.809h129.6c19.882 0 36-16.118 36-36v-172.8c0-19.882-16.118-36-36-36h-129.6c-1.91 0-3.741-0.758-5.091-2.109s-2.109-3.181-2.109-5.091v-93.6h136.8c11.085 0 21.553-5.107 28.375-13.845s9.238-20.131 6.55-30.886l-43.2-172.8c-4.006-16.026-18.406-27.268-34.925-27.268h-93.6v-309.6c0-19.885-16.118-36-36-36h-172.8c-19.882 0-36 16.115-36 36v309.6h-93.6c-19.882 0-36 16.118-36 36v172.8c0 19.882 16.118 36 36 36h93.6v93.6c0 66.835 26.55 130.932 73.809 178.191zM617.6 844c-47.739 0-93.523-18.964-127.279-52.721s-52.721-79.54-52.721-127.279v-129.6c0-19.882-16.118-36-36-36h-93.6v-100.8h93.6c19.882 0 36-16.118 36-36v-309.6h100.8v309.6c0 19.882 16.118 36 36 36h101.492l25.2 100.8h-126.692c-19.882 0-36 16.118-36 36v129.6c0 21.005 8.344 41.15 23.197 56.003s34.998 23.197 56.003 23.197h93.6v100.8h-93.6z" />
<glyph unicode="&#xe917;" glyph-name="facebook" d="M632.686 948.571c-67.289 0-131.822-26.731-179.403-74.311s-74.311-112.114-74.311-179.403v-141.257h-135.771c-6.817 0-12.343-5.526-12.343-12.343v-186.514c0-6.817 5.526-12.343 12.343-12.343h135.771v-382.629c0-6.817 5.526-12.347 12.343-12.347h186.514c6.817 0 12.343 5.53 12.343 12.347v382.629h136.974c5.664 0 10.601 3.855 11.974 9.349l46.629 186.514c1.948 7.79-3.945 15.337-11.974 15.337h-183.602v141.257c0 11.276 4.479 22.089 12.452 30.062s18.787 12.452 30.062 12.452h142.629c6.817 0 12.343 5.526 12.343 12.343v186.514c0 6.817-5.526 12.343-12.343 12.343h-142.629z" />
<glyph unicode="&#xe918;" glyph-name="compare" d="M225.941 798.059c18.745 18.745 18.745 49.137 0 67.883s-49.137 18.745-67.883 0l-128-128c-18.745-18.745-18.745-49.137 0-67.883l128-128c18.745-18.745 49.137-18.745 67.883 0s18.745 49.137 0 67.883l-46.059 46.059h652.117c26.513 0 48 21.49 48 48s-21.487 48-48 48h-652.117l46.059 46.059zM798.059 353.941c-18.745-18.745-18.745-49.137 0-67.883l46.059-46.059h-652.117c-26.51 0-48-21.49-48-48s21.49-48 48-48h652.117l-46.059-46.063c-18.745-18.739-18.745-49.135 0-67.874 18.745-18.748 49.137-18.748 67.878 0l128 127.996c18.748 18.745 18.748 49.137 0 67.883l-128 128c-18.741 18.745-49.133 18.745-67.878 0z" />
<glyph unicode="&#xe919;" glyph-name="cat-arrow" horiz-adv-x="717" d="M99.294 911.906c29.992 29.992 78.62 29.992 108.612 0l409.6-409.6c29.992-29.992 29.992-78.62 0-108.612l-409.6-409.6c-29.992-29.992-78.62-29.992-108.612 0s-29.992 78.62 0 108.612l355.294 355.294-355.294 355.294c-29.992 29.992-29.992 78.619 0 108.612z" />
<glyph unicode="&#xe91a;" glyph-name="list" d="M972.922 76.171h-684.745c-28.222 0-51.095 22.874-51.095 51.095s22.874 51.095 51.095 51.095h684.728c28.222 0 51.095-22.874 51.095-51.095s-22.857-51.095-51.078-51.095zM972.922 396.896h-684.745c-28.222 0-51.095 22.874-51.095 51.095s22.874 51.095 51.095 51.095h684.728c28.222 0 51.095-22.874 51.095-51.095 0.017-28.222-22.857-51.095-51.078-51.095zM972.922 717.621h-684.745c-28.222 0-51.095 22.874-51.095 51.095s22.874 51.095 51.095 51.095h684.728c28.222 0 51.095-22.874 51.095-51.095s-22.857-51.095-51.078-51.095zM137.242 764.765c0-37.898-30.723-68.621-68.621-68.621s-68.621 30.723-68.621 68.621c0 37.898 30.723 68.621 68.621 68.621s68.621-30.723 68.621-68.621zM137.242 447.991c0-37.898-30.723-68.621-68.621-68.621s-68.621 30.723-68.621 68.621c0 37.898 30.723 68.621 68.621 68.621s68.621-30.723 68.621-68.621zM137.242 131.218c0-37.898-30.723-68.621-68.621-68.621s-68.621 30.723-68.621 68.621c0 37.898 30.723 68.621 68.621 68.621s68.621-30.723 68.621-68.621z" />
<glyph unicode="&#xe91b;" glyph-name="grid" d="M298.667 874.667h-170.667c-23.564 0-42.667-19.103-42.667-42.667v0-170.667c0-23.564 19.103-42.667 42.667-42.667v0h170.667c23.564 0 42.667 19.103 42.667 42.667v0 170.667c0 23.564-19.103 42.667-42.667 42.667v0zM256 704h-85.333v85.333h85.333zM597.333 874.667h-170.667c-23.564 0-42.667-19.103-42.667-42.667v0-170.667c0-23.564 19.103-42.667 42.667-42.667v0h170.667c23.564 0 42.667 19.103 42.667 42.667v0 170.667c0 23.564-19.103 42.667-42.667 42.667v0zM554.667 704h-85.333v85.333h85.333zM896 874.667h-170.667c-23.564 0-42.667-19.103-42.667-42.667v0-170.667c0-23.564 19.103-42.667 42.667-42.667v0h170.667c23.564 0 42.667 19.103 42.667 42.667v0 170.667c0 23.564-19.103 42.667-42.667 42.667v0zM853.333 704h-85.333v85.333h85.333zM298.667 277.333h-170.667c-23.564 0-42.667-19.103-42.667-42.667v0-170.667c0-23.564 19.103-42.667 42.667-42.667v0h170.667c23.564 0 42.667 19.103 42.667 42.667v0 170.667c0 23.564-19.103 42.667-42.667 42.667v0zM256 106.667h-85.333v85.333h85.333zM597.333 277.333h-170.667c-23.564 0-42.667-19.103-42.667-42.667v0-170.667c0-23.564 19.103-42.667 42.667-42.667v0h170.667c23.564 0 42.667 19.103 42.667 42.667v0 170.667c0 23.564-19.103 42.667-42.667 42.667v0zM554.667 106.667h-85.333v85.333h85.333zM896 277.333h-170.667c-23.564 0-42.667-19.103-42.667-42.667v0-170.667c0-23.564 19.103-42.667 42.667-42.667v0h170.667c23.564 0 42.667 19.103 42.667 42.667v0 170.667c0 23.564-19.103 42.667-42.667 42.667v0zM853.333 106.667h-85.333v85.333h85.333zM298.667 576h-170.667c-23.564 0-42.667-19.103-42.667-42.667v0-170.667c0-23.564 19.103-42.667 42.667-42.667v0h170.667c23.564 0 42.667 19.103 42.667 42.667v0 170.667c0 23.564-19.103 42.667-42.667 42.667v0zM256 405.333h-85.333v85.333h85.333zM597.333 576h-170.667c-23.564 0-42.667-19.103-42.667-42.667v0-170.667c0-23.564 19.103-42.667 42.667-42.667v0h170.667c23.564 0 42.667 19.103 42.667 42.667v0 170.667c0 23.564-19.103 42.667-42.667 42.667v0zM554.667 405.333h-85.333v85.333h85.333zM896 576h-170.667c-23.564 0-42.667-19.103-42.667-42.667v0-170.667c0-23.564 19.103-42.667 42.667-42.667v0h170.667c23.564 0 42.667 19.103 42.667 42.667v0 170.667c0 23.564-19.103 42.667-42.667 42.667v0zM853.333 405.333h-85.333v85.333h85.333z" />
<glyph unicode="&#xe91c;" glyph-name="arrow-right" d="M441.076 701.782c21.423 21.423 21.423 56.157 0 77.58s-56.157 21.423-77.58 0l-292.571-292.571c-10.712-10.712-16.067-24.751-16.067-38.79 0-7.438 1.48-14.531 4.162-20.999 2.677-6.47 6.645-12.532 11.905-17.791l292.571-292.571c21.423-21.423 56.157-21.423 77.58 0s21.423 56.157 0 77.58l-198.924 198.924h708.706c30.296 0 54.857 24.561 54.857 54.857s-24.561 54.857-54.857 54.857h-708.706l198.924 198.924z" />
<glyph unicode="&#xe91d;" glyph-name="arrow-left" d="M619.496 701.782c-21.423 21.423-21.423 56.157 0 77.58s56.157 21.423 77.58 0l292.569-292.571c21.424-21.423 21.424-56.157 0-77.58l-292.569-292.571c-21.423-21.423-56.157-21.423-77.58 0s-21.423 56.157 0 77.58l198.922 198.924h-708.703c-30.297 0-54.857 24.561-54.857 54.857s24.561 54.857 54.857 54.857h708.703l-198.922 198.924z" />
<glyph unicode="&#xe91e;" glyph-name="zoom-in" d="M560.333 573.337h-115.999v115.999c0 10.672-8.661 19.333-19.333 19.333s-19.333-8.661-19.333-19.333v-115.999h-115.999c-10.672 0-19.333-8.661-19.333-19.333s8.661-19.333 19.333-19.333h115.999v-115.999c0-10.672 8.661-19.333 19.333-19.333s19.333 8.661 19.333 19.333v115.999h115.999c10.672 0 19.333 8.661 19.333 19.333s-8.661 19.333-19.333 19.333zM999.602-31.269l-287.271 298.755c73.273 73.485 118.667 174.791 118.667 286.517 0 223.878-182.118 405.996-405.996 405.996s-405.996-182.118-405.996-405.996 182.118-405.996 405.996-405.996c98.27 0 188.46 35.128 258.755 93.418l287.967-299.49c3.789-3.963 8.855-5.935 13.939-5.935 4.833 0 9.647 1.798 13.398 5.394 7.695 7.405 7.927 19.642 0.541 27.337zM57.671 554.004c0 202.553 164.776 367.33 367.33 367.33s367.33-164.776 367.33-367.33-164.776-367.33-367.33-367.33-367.33 164.776-367.33 367.33z" />
<glyph unicode="&#xe920;" glyph-name="arrowRight" horiz-adv-x="683" d="M39.431 931.235c-31.242-31.242-31.242-81.896 0-113.137l370.098-370.098-370.098-370.099c-31.242-31.241-31.242-81.894 0-113.135s81.896-31.241 113.137 0l426.667 426.666c31.242 31.241 31.242 81.895 0 113.137l-426.667 426.667c-31.241 31.242-81.895 31.242-113.137 0z" />
<glyph unicode="&#xe921;" glyph-name="arrowLeft" horiz-adv-x="683" d="M643.235 931.235c31.242-31.242 31.242-81.896 0-113.137l-370.097-370.098 370.097-370.099c31.242-31.241 31.242-81.894 0-113.135s-81.895-31.241-113.137 0l-426.667 426.666c-31.242 31.241-31.242 81.895 0 113.137l426.667 426.667c31.241 31.242 81.895 31.242 113.137 0z" />
<glyph unicode="&#xe922;" glyph-name="add" d="M1007.484 464.516h-478.968v478.968c0 9.121-7.395 16.516-16.516 16.516s-16.516-7.395-16.516-16.516v-478.968h-478.968c-9.121 0-16.516-7.395-16.516-16.516s7.395-16.516 16.516-16.516h478.968v-478.968c0-9.121 7.395-16.516 16.516-16.516s16.516 7.395 16.516 16.516v478.968h478.968c9.121 0 16.516 7.395 16.516 16.516s-7.395 16.516-16.516 16.516z" />
</font>
</defs>
</svg>
