<?xml version="1.0" standalone="no"?>
<!DOCTYPE svg PUBLIC "-//W3C//DTD SVG 1.1//EN" "http://www.w3.org/Graphics/SVG/1.1/DTD/svg11.dtd" >
<svg xmlns="http://www.w3.org/2000/svg">
<metadata>Generated by IcoMoon</metadata>
<defs>
<font id="MaterialDesignIcons" horiz-adv-x="512">
<font-face units-per-em="512" ascent="506.88" descent="-5.12" />
<missing-glyph horiz-adv-x="512" />
<glyph unicode="&#x20;" horiz-adv-x="5.12" d="" />
<glyph unicode="&#xf101;" glyph-name="account" horiz-adv-x="683" d="M341.334 398.222c62.862 0 113.778-50.915 113.778-113.778s-50.916-113.778-113.778-113.778-113.778 50.916-113.778 113.778 50.916 113.778 113.778 113.778zM341.334 113.778c125.724 0 227.555-50.916 227.555-113.778v-56.889h-455.111v56.889c0 62.862 101.831 113.778 227.555 113.778z" />
<glyph unicode="&#xf102;" glyph-name="account-alert" horiz-adv-x="683" d="M284.445 398.222c62.862 0 113.778-50.915 113.778-113.778s-50.916-113.778-113.778-113.778-113.778 50.916-113.778 113.778 50.916 113.778 113.778 113.778zM284.445 113.778c125.724 0 227.555-50.916 227.555-113.778v-56.889h-455.111v56.889c0 62.862 101.831 113.778 227.555 113.778zM568.889 170.666v142.222h56.889v-142.222h-56.889zM568.889 56.889v56.889h56.889v-56.889h-56.889z" />
<glyph unicode="&#xf103;" glyph-name="account-box" horiz-adv-x="683" d="M170.667 28.445c0 56.889 113.778 88.178 170.667 88.178s170.666-31.289 170.666-88.178v-28.445h-341.334zM426.666 256c0-47.218-38.115-85.334-85.334-85.334s-85.334 38.115-85.334 85.334 38.115 85.334 85.334 85.334 85.334-38.115 85.334-85.334zM85.334 369.778v-398.222c0-31.289 25.6-56.889 56.889-56.889h398.222c31.289 0 56.889 25.6 56.889 56.889v398.222c0 31.289-25.6 56.889-56.889 56.889h-398.222c-31.573 0-56.889-25.6-56.889-56.889z" />
<glyph unicode="&#xf104;" glyph-name="account-box-outline" horiz-adv-x="683" d="M540.444-28.444h-398.222v398.222h398.222zM540.444 426.666h-398.222c-31.289 0-56.889-25.6-56.889-56.889v-398.222c0-31.289 25.6-56.889 56.889-56.889h398.222c31.289 0 56.889 25.6 56.889 56.889v398.222c0 31.573-25.6 56.889-56.889 56.889zM469.334 49.778c0 42.666-85.334 64-128 64s-128-21.334-128-64v-21.334h256zM341.334 163.555c35.271 0 64 28.729 64 64s-28.729 64-64 64-64-28.729-64-64 28.729-64 64-64z" />
<glyph unicode="&#xf105;" glyph-name="account-check" horiz-adv-x="683" d="M256 369.778c54.898 0 99.555-44.658 99.555-99.556s-44.658-99.555-99.555-99.555-99.555 44.658-99.555 99.555 44.658 99.555 99.555 99.555zM256 120.889c110.080 0 199.111-44.658 199.111-99.555v-49.778h-398.222v49.778c0 54.898 89.031 99.555 199.111 99.555zM483.555 151.894l-78.222 85.334 32.995 32.995 45.226-45.226 102.116 102.115 32.995-40.106-135.111-135.111z" />
<glyph unicode="&#xf106;" glyph-name="account-circle" horiz-adv-x="683" d="M341.334-34.134c-71.111 0-133.974 36.409-170.667 91.022 0.853 56.889 113.778 88.178 170.667 88.178s169.814-31.289 170.666-88.178c-36.693-54.613-99.555-91.022-170.667-91.022zM341.334 369.778c47.218 0 85.334-38.115 85.334-85.334s-38.115-85.334-85.334-85.334-85.334 38.115-85.334 85.334 38.115 85.334 85.334 85.334zM341.334 455.111c-157.013 0-284.445-127.431-284.445-284.445s127.431-284.445 284.445-284.445 284.445 127.431 284.445 284.445c0 157.298-128 284.445-284.445 284.445z" />
<glyph unicode="&#xf107;" glyph-name="account-key" horiz-adv-x="683" d="M312.889 227.555v-56.889h-28.445v-56.889h-56.889v56.889h-61.725c-11.662-33.28-43.236-56.889-80.498-56.889-47.218 0-85.334 38.115-85.334 85.334s38.115 85.334 85.334 85.334c37.262 0 68.836-23.609 80.498-56.889h147.058zM85.334 227.555c-15.645 0-28.445-12.8-28.445-28.445s12.8-28.445 28.445-28.445 28.445 12.8 28.445 28.445-12.8 28.445-28.445 28.445zM455.111 113.778c75.947 0 227.556-38.115 227.556-113.778v-56.889h-455.111v56.889c0 75.662 151.609 113.778 227.555 113.778zM455.111 170.666c-62.862 0-113.778 50.916-113.778 113.778s50.916 113.778 113.778 113.778 113.778-50.916 113.778-113.778-50.915-113.778-113.778-113.778z" />
<glyph unicode="&#xf108;" glyph-name="account-location" horiz-adv-x="683" d="M512 56.889h-341.334v25.6c0 56.889 113.778 88.178 170.666 88.178s170.667-31.289 170.667-88.178zM341.334 361.245c42.666 0 76.8-34.134 76.8-76.8s-34.134-76.8-76.8-76.8c-42.666 0-76.8 34.134-76.8 76.8s34.134 76.8 76.8 76.8zM540.444 455.111h-398.222c-31.573 0-56.889-25.315-56.889-56.889v-398.222c0-31.289 25.6-56.889 56.889-56.889h113.778l85.334-85.333 85.334 85.333h113.778c31.289 0 56.889 25.6 56.889 56.889v398.222c0 31.573-25.6 56.889-56.889 56.889z" />
<glyph unicode="&#xf109;" glyph-name="account-minus" horiz-adv-x="683" d="M426.666 113.778c-75.947 0-227.555-37.831-227.555-113.778v-56.889h455.111v56.889c0 75.947-151.609 113.778-227.555 113.778zM28.445 227.555v-56.889h227.555v56.889zM426.666 170.666c62.862 0 113.778 50.916 113.778 113.778s-50.916 113.778-113.778 113.778-113.778-50.916-113.778-113.778 50.916-113.778 113.778-113.778z" />
<glyph unicode="&#xf10a;" glyph-name="account-multiple" horiz-adv-x="683" d="M455.111 142.222c-8.249 0-17.635 0-27.591-1.422 32.995-23.894 56.036-55.466 56.036-98.134v-71.111h170.666v71.111c0 66.275-132.836 99.555-199.111 99.555zM227.555 142.222c-66.275 0-199.111-33.28-199.111-99.555v-71.111h398.222v71.111c0 66.275-132.835 99.555-199.111 99.555zM227.555 199.111c47.218 0 85.334 38.115 85.334 85.334s-38.115 85.334-85.334 85.334-85.334-38.115-85.334-85.334 38.115-85.334 85.334-85.334zM455.111 199.111c47.218 0 85.333 38.115 85.333 85.334s-38.115 85.334-85.334 85.334-85.334-38.115-85.334-85.334 38.115-85.334 85.334-85.334z" />
<glyph unicode="&#xf10b;" glyph-name="account-multiple-outline" horiz-adv-x="683" d="M469.334 327.111c31.289 0 56.889-25.6 56.889-56.889s-25.6-56.889-56.889-56.889-56.889 25.6-56.889 56.889 25.6 56.889 56.889 56.889zM469.334 170.666c54.898 0 99.555 44.658 99.555 99.555s-44.658 99.555-99.555 99.555-99.555-44.658-99.555-99.555 44.658-99.555 99.555-99.555zM213.333 327.111c31.289 0 56.889-25.6 56.889-56.889s-25.6-56.889-56.889-56.889-56.889 25.6-56.889 56.889 25.6 56.889 56.889 56.889zM213.333 170.666c54.898 0 99.556 44.658 99.556 99.555s-44.658 99.555-99.555 99.555-99.555-44.658-99.555-99.555 44.658-99.555 99.555-99.555zM611.556 14.222h-213.333v35.555c0 13.084-5.689 24.462-14.222 34.702 24.462 8.534 55.182 15.075 85.334 15.075 69.405 0 142.222-34.418 142.222-49.778zM355.555 14.222h-284.445v35.555c0 15.36 72.818 49.778 142.222 49.778s142.222-34.418 142.222-49.778zM469.334 142.222c-34.133 0-87.325-9.671-128-28.445-40.675 19.058-93.867 28.445-128 28.445-61.725 0-184.889-30.72-184.889-92.445v-78.222h625.778v78.222c0 61.724-123.164 92.445-184.889 92.445z" />
<glyph unicode="&#xf10c;" glyph-name="account-multiple-plus" horiz-adv-x="683" d="M369.778 142.222c-56.889 0-170.667-28.445-170.667-85.334v-56.889h341.334v56.889c0 56.889-113.778 85.334-170.667 85.334zM558.080 137.671c23.609-20.48 39.254-47.218 39.254-80.782v-56.889h85.333v56.889c0 43.805-67.413 71.111-124.587 80.782zM369.778 199.111c47.218 0 85.334 38.115 85.334 85.334s-38.115 85.334-85.334 85.334-85.334-38.115-85.334-85.334 38.115-85.334 85.334-85.334zM512 199.111c47.218 0 85.333 38.115 85.333 85.334s-38.115 85.334-85.334 85.334c-9.102 0-17.92-1.422-26.169-3.982 16.214-23.040 26.169-51.2 26.169-81.351s-9.955-58.027-26.169-81.067c8.249-2.844 17.067-4.267 26.169-4.267zM227.555 227.555h-85.334v85.334h-56.889v-85.334h-85.334v-56.889h85.334v-85.334h56.889v85.334h85.334v56.889z" />
<glyph unicode="&#xf10d;" glyph-name="account-network" horiz-adv-x="683" d="M369.778 56.889v-56.889h28.445c15.644 0 28.445-12.8 28.445-28.444h199.111v-56.889h-199.111c0-15.644-12.8-28.444-28.445-28.444h-113.778c-15.644 0-28.445 12.8-28.445 28.444h-199.111v56.889h199.111c0 15.644 12.8 28.445 28.445 28.445h28.445v56.889h-170.667v42.666c0 54.898 89.031 99.555 199.111 99.555s199.111-44.658 199.111-99.555v-42.666h-170.667zM341.334 455.111c54.898 0 99.555-44.658 99.555-99.555s-44.658-99.555-99.555-99.555-99.555 44.658-99.555 99.555 44.658 99.555 99.555 99.555z" />
<glyph unicode="&#xf10e;" glyph-name="account-outline" horiz-adv-x="683" d="M341.334 142.222c-75.947 0-227.555-37.831-227.555-113.778v-85.333h455.111v85.334c0 75.947-151.609 113.778-227.555 113.778zM341.334 398.222c-62.862 0-113.778-50.915-113.778-113.778s50.916-113.778 113.778-113.778 113.778 50.916 113.778 113.778-50.916 113.778-113.778 113.778zM341.334 88.178c84.48 0 173.511-41.529 173.511-59.733v-31.289h-347.022v31.289c0 18.204 88.178 59.733 173.511 59.733zM341.334 344.178c32.995 0 59.733-26.738 59.733-59.733s-26.738-59.733-59.733-59.733c-32.995 0-59.733 26.738-59.733 59.733s26.738 59.733 59.733 59.733z" />
<glyph unicode="&#xf10f;" glyph-name="account-plus" horiz-adv-x="683" d="M426.666 113.778c-75.947 0-227.555-37.831-227.555-113.778v-56.889h455.111v56.889c0 75.947-151.609 113.778-227.555 113.778zM170.667 227.555v85.334h-56.889v-85.334h-85.334v-56.889h85.334v-85.334h56.889v85.334h85.333v56.889zM426.666 170.666c62.862 0 113.778 50.916 113.778 113.778s-50.916 113.778-113.778 113.778-113.778-50.916-113.778-113.778 50.916-113.778 113.778-113.778z" />
<glyph unicode="&#xf110;" glyph-name="account-remove" horiz-adv-x="683" d="M426.666 113.778c75.947 0 227.555-37.831 227.555-113.778v-56.889h-455.111v56.889c0 75.947 151.609 113.778 227.555 113.778zM426.666 170.666c-62.862 0-113.778 50.916-113.778 113.778s50.916 113.778 113.778 113.778 113.778-50.916 113.778-113.778-50.916-113.778-113.778-113.778zM142.222 239.218l60.302 60.587 40.391-40.391-60.587-60.302 60.587-60.302-40.391-40.391-60.302 60.587-60.302-60.587-40.391 40.391 60.587 60.302-60.587 60.302 40.391 40.391 60.302-60.587z" />
<glyph unicode="&#xf111;" glyph-name="account-search" horiz-adv-x="683" d="M426.666 113.778c75.947 0 227.555-38.115 227.555-113.778v-56.889h-455.111v56.889c0 75.662 151.609 113.778 227.555 113.778zM426.666 170.666c-62.862 0-113.778 50.916-113.778 113.778s50.916 113.778 113.778 113.778 113.778-50.916 113.778-113.778-50.916-113.778-113.778-113.778zM78.507 95.005c-11.094-11.094-29.298-11.094-40.391 0s-11.093 29.298 0 40.391l55.467 55.466c-5.404 11.094-8.249 23.609-8.249 36.694 0 47.218 38.115 85.334 85.334 85.334s85.333-38.115 85.333-85.334-38.115-85.334-85.334-85.334c-13.084 0-25.6 2.844-36.694 8.249l-55.466-55.466zM170.667 256c-15.644 0-28.445-12.8-28.445-28.445s12.8-28.445 28.445-28.445 28.445 12.8 28.445 28.445-12.8 28.445-28.445 28.445z" />
<glyph unicode="&#xf112;" glyph-name="account-star" horiz-adv-x="683" d="M426.666 113.778c-75.947 0-227.555-37.831-227.555-113.778v-56.889h455.111v56.889c0 75.947-151.609 113.778-227.555 113.778zM426.666 170.666c62.862 0 113.778 50.916 113.778 113.778s-50.916 113.778-113.778 113.778-113.778-50.916-113.778-113.778 50.916-113.778 113.778-113.778zM142.222 134.258l69.689-42.382-18.489 79.929 62.578 53.476-82.204 7.111-31.573 75.094-32.142-75.094-81.635-7.111 62.009-53.476-19.342-79.929 71.111 42.382z" />
<glyph unicode="&#xf113;" glyph-name="account-star-variant" horiz-adv-x="683" d="M256 113.778c75.947 0 227.555-37.831 227.555-113.778v-56.889h-455.111v56.889c0 75.947 151.609 113.778 227.555 113.778zM256 170.666c-62.862 0-113.778 50.916-113.778 113.778s50.916 113.778 113.778 113.778 113.778-50.916 113.778-113.778-50.916-113.778-113.778-113.778zM540.444 134.258l-69.974-42.382 18.774 79.929-62.578 53.476 82.204 7.111 31.574 75.094 32.142-75.094 81.635-7.111-62.009-53.476 19.342-79.929-71.111 42.382z" />
<glyph unicode="&#xf114;" glyph-name="account-switch" horiz-adv-x="683" d="M455.111 256c66.275 0 199.111-33.28 199.111-99.555v-71.111h-170.667v71.111c0 42.666-23.040 74.24-55.751 98.133l27.307 1.422zM227.555 256c66.276 0 199.111-33.28 199.111-99.555v-71.111h-398.222v71.111c0 66.276 132.835 99.555 199.111 99.555zM227.555 312.889c-47.218 0-85.334 38.115-85.334 85.334s38.115 85.333 85.334 85.333 85.334-38.115 85.334-85.333-38.115-85.334-85.334-85.334zM455.111 312.889c-47.218 0-85.334 38.115-85.334 85.334s38.115 85.333 85.334 85.333 85.333-38.115 85.333-85.333-38.115-85.334-85.334-85.334zM256 35.555v-64h170.667v64l92.445-92.445-92.445-92.445v64h-170.666v-64l-92.445 92.445 92.445 92.445z" />
<glyph unicode="&#xf115;" glyph-name="airballoon" horiz-adv-x="683" d="M312.889-142.222c-31.289 0-56.889 25.6-56.889 56.889v56.889h170.667v-56.889c0-31.289-25.6-56.889-56.889-56.889h-56.889zM341.334 483.555c20.195 0 39.538-2.56 58.311-7.396 33.28-44.658 55.466-126.578 55.466-220.16 0-64.853-10.809-124.302-28.445-199.111 0-31.289-25.6-56.889-56.889-56.889h-56.889c-31.289 0-56.889 25.6-56.889 56.889-17.636 74.809-28.445 134.258-28.445 199.111 0 93.582 22.186 175.502 55.466 220.16 18.774 4.836 38.115 7.396 58.311 7.396zM568.889 284.445c0-90.454-52.622-225.28-129.138-261.974 27.022 51.769 43.805 153.031 43.805 233.529s-16.782 153.315-43.805 205.084c76.515-36.694 129.138-86.186 129.138-176.64zM113.778 284.445c0 90.454 52.622 139.946 129.138 176.64-27.022-51.769-43.804-124.587-43.804-205.084s16.782-181.76 43.804-233.529c-76.516 36.693-129.138 171.52-129.138 261.974z" />
<glyph unicode="&#xf116;" glyph-name="airplane" horiz-adv-x="683" d="M597.333 56.889v56.889l-227.555 142.222v156.445c0 23.609-19.058 42.666-42.666 42.666s-42.666-19.058-42.666-42.666v-156.445l-227.555-142.222v-56.889l227.555 71.111v-156.445l-56.889-42.667v-42.667l99.555 28.444 99.555-28.444v42.667l-56.889 42.667v156.445l227.555-71.111z" />
<glyph unicode="&#xf117;" glyph-name="airplane-off" horiz-adv-x="683" d="M89.6 362.098l141.654-141.938-170.098-106.382v-56.889l227.556 71.111v-156.445l-56.889-42.667v-42.667l99.555 28.444 99.555-28.444v42.667l-56.889 42.667v106.098l162.702-162.987 36.409 36.125-447.431 447.431zM374.045 256v156.445c0 23.609-19.058 42.666-42.666 42.666s-42.666-19.058-42.666-42.666v-104.675l222.435-222.435 90.453-28.445v56.889l-227.555 142.222z" />
<glyph unicode="&#xf118;" glyph-name="alarm" horiz-adv-x="683" d="M341.334-56.889c-110.080 0-199.111 89.031-199.111 199.111s89.031 199.111 199.111 199.111 199.111-89.031 199.111-199.111-89.031-199.111-199.111-199.111zM341.334 398.222c-141.369 0-256-114.631-256-256s114.631-256 256-256 256 114.631 256 256-114.631 256-256 256zM355.555 284.445h-42.666v-170.666l135.111-81.067 21.334 34.986-113.778 67.413v149.333zM224.142 415.573l-36.409 43.52-130.845-109.511 36.694-43.52 130.56 109.511zM625.778 349.298l-130.845 109.796-36.693-43.52 130.845-109.795 36.693 43.52z" />
<glyph unicode="&#xf119;" glyph-name="alarm-check" horiz-adv-x="683" d="M299.805 98.702l-60.587 60.587-30.151-30.151 90.454-90.454 170.666 170.667-30.151 30.151-140.231-140.8zM341.334-56.889c-110.080 0-199.111 89.031-199.111 199.111s89.031 199.111 199.111 199.111 199.111-89.031 199.111-199.111-89.031-199.111-199.111-199.111zM341.334 398.222c-141.369 0-256-114.631-256-256s114.631-256 256-256 256 114.631 256 256-114.631 256-256 256zM224.142 415.573l-36.409 43.52-130.845-109.511 36.694-43.52 130.56 109.511zM625.778 349.298l-130.845 109.796-36.693-43.52 130.845-109.795 36.693 43.52z" />
<glyph unicode="&#xf11a;" glyph-name="alarm-multiple" horiz-adv-x="683" d="M264.249 419.555l-117.476-98.702-32.995 39.253 117.76 98.702 32.711-39.253zM625.778 359.822l-32.995-39.254-117.76 98.987 32.995 39.253 117.76-98.986zM369.778 398.222c125.725 0 227.555-101.831 227.555-227.555s-101.831-227.555-227.555-227.555-227.555 101.831-227.555 227.555 101.831 227.555 227.555 227.555zM369.778 341.333c-94.151 0-170.667-76.515-170.667-170.666s76.516-170.666 170.667-170.666 170.667 76.515 170.667 170.667-76.515 170.667-170.667 170.667zM341.334 298.667h42.666v-128.854l91.591-41.813-17.635-38.685-116.622 52.906v156.445zM28.445 113.778c0 71.111 32.142 133.689 82.773 175.502-16.498-36.125-25.885-75.947-25.885-118.613l1.707-32.142-1.707-24.747c0-64.853 36.124-121.173 89.316-150.187 36.978-34.702 83.342-60.018 135.111-71.111-17.351-3.982-35.271-6.258-53.76-6.258-125.725 0-227.555 101.831-227.555 227.555z" />
<glyph unicode="&#xf11b;" glyph-name="alarm-off" horiz-adv-x="683" d="M227.555 418.702l-39.822 40.391-24.462-20.195 40.391-40.675zM468.48-11.093c-34.418-28.444-78.791-45.795-127.147-45.795-110.080 0-199.111 89.031-199.111 199.111 0 48.356 17.351 92.729 45.796 127.147zM83.058 446.862l-36.124-36.409 38.4-37.831-32.142-26.454 40.391-40.391 31.573 26.738 22.756-22.756c-38.969-44.942-62.578-103.538-62.578-167.538 0-141.369 114.631-256 256-256 64 0 122.596 23.609 167.538 62.578l62.578-62.578 36.125 36.125-524.515 524.515zM625.778 349.298l-130.845 109.796-36.693-43.52 130.845-109.795 36.693 43.52zM341.334 341.333c110.080 0 199.111-89.031 199.111-199.111 0-23.894-4.551-46.933-12.231-68.267l43.236-43.236c16.498 33.849 25.885 71.396 25.885 111.502 0 141.369-114.631 256-256 256-40.106 0-77.654-9.387-111.502-25.885l43.236-43.236c21.334 7.68 44.373 12.231 68.267 12.231z" />
<glyph unicode="&#xf11c;" glyph-name="alarm-plus" horiz-adv-x="683" d="M369.778 256h-56.889v-85.334h-85.334v-56.889h85.334v-85.334h56.889v85.334h85.334v56.889h-85.334zM341.334-56.889c-110.080 0-199.111 89.031-199.111 199.111s89.031 199.111 199.111 199.111 199.111-89.031 199.111-199.111-89.031-199.111-199.111-199.111zM341.334 398.222c-141.369 0-256-114.631-256-256s114.631-256 256-256 256 114.631 256 256-114.631 256-256 256zM625.778 349.298l-130.845 109.796-36.693-43.52 130.845-109.795zM224.142 415.573l-36.409 43.52-130.845-109.511 36.694-43.52 130.56 109.511z" />
<glyph unicode="&#xf11d;" glyph-name="album" horiz-adv-x="683" d="M341.334 199.111c-15.644 0-28.445-12.8-28.445-28.445s12.8-28.445 28.445-28.445 28.445 12.8 28.445 28.445-12.8 28.445-28.445 28.445zM341.334 42.666c-71.111 0-128 56.889-128 128s56.889 128 128 128 128-56.889 128-128-56.889-128-128-128zM341.334 455.111c-157.013 0-284.445-127.431-284.445-284.445s127.431-284.445 284.445-284.445 284.445 127.431 284.445 284.445-127.431 284.445-284.445 284.445z" />
<glyph unicode="&#xf11e;" glyph-name="alert" horiz-adv-x="683" d="M369.778 113.778h-56.889v113.778h56.889zM369.778 0h-56.889v56.889h56.889zM28.445-85.333h625.778l-312.889 540.444-312.889-540.444z" />
<glyph unicode="&#xf11f;" glyph-name="alert-box" horiz-adv-x="683" d="M142.222 426.666h398.222c31.289 0 56.889-25.6 56.889-56.889v-398.222c0-31.289-25.6-56.889-56.889-56.889h-398.222c-31.289 0-56.889 25.6-56.889 56.889v398.222c0 31.289 25.6 56.889 56.889 56.889zM369.778 142.222v170.667h-56.889v-170.667h56.889zM369.778 28.445v56.889h-56.889v-56.889h56.889z" />
<glyph unicode="&#xf120;" glyph-name="alert-circle" horiz-adv-x="683" d="M369.778 142.222h-56.889v170.667h56.889zM369.778 28.445h-56.889v56.889h56.889zM341.334 455.111c-157.013 0-284.445-127.431-284.445-284.445s127.431-284.445 284.445-284.445 284.445 127.431 284.445 284.445-127.431 284.445-284.445 284.445z" />
<glyph unicode="&#xf121;" glyph-name="alert-octagon" horiz-adv-x="683" d="M369.778 142.222h-56.889v170.667h56.889zM341.334 19.911c-20.48 0-36.978 16.498-36.978 36.978s16.498 36.978 36.978 36.978c20.48 0 36.978-16.498 36.978-36.978s-16.498-36.978-36.978-36.978zM447.431 426.666h-212.196l-149.902-149.902v-212.196l149.902-149.902h212.196l149.902 149.902v212.195l-149.902 149.902z" />
<glyph unicode="&#xf122;" glyph-name="alpha" horiz-adv-x="683" d="M514.275 5.689c-13.084-3.698-24.747-5.689-34.986-5.689-34.134 0-57.173 25.031-68.836 75.378h-1.422c-28.16-54.329-67.698-81.351-117.476-81.351-37.262 0-67.129 13.938-89.6 42.098s-33.565 63.431-33.565 106.098c0 49.778 12.8 89.6 38.115 120.605s59.734 46.649 103.254 46.649c23.325 0 44.373-6.542 62.578-19.342 18.204-13.084 32.142-31.289 41.813-54.898h1.138l20.195 68.267h72.818l-60.871-151.325c6.827-35.271 13.938-59.449 21.902-72.249 6.827-12.8 16.498-19.342 28.445-19.342 6.827 0 12.231 1.138 17.067 3.129l-0.569-58.026zM393.102 154.738c-5.974 32.142-15.644 57.173-28.729 74.24-12.8 17.351-28.445 25.885-46.365 25.885-23.325 0-42.098-10.524-56.036-31.289-13.938-21.049-20.196-46.933-20.196-77.369 0-27.875 5.405-50.916 17.636-69.689 11.947-18.774 28.16-27.875 48.356-27.875 17.067 0 32.711 8.249 46.649 23.894 14.222 16.214 25.885 39.822 35.271 70.827l3.413 11.378z" />
<glyph unicode="&#xf123;" glyph-name="alphabetical" horiz-adv-x="683" d="M170.667 199.111c31.289 0 56.889-25.6 56.889-56.889v-113.778h-113.778c-31.289 0-56.889 25.6-56.889 56.889v56.889c0 31.289 25.6 56.889 56.889 56.889h56.889zM113.778 142.222v-56.889h56.889v56.889h-56.889zM568.889 142.222v-56.889h56.889v-56.889h-56.889c-31.289 0-56.889 25.6-56.889 56.889v56.889c0 31.289 25.6 56.889 56.889 56.889h56.889v-56.889h-56.889zM341.334 312.889v-113.778h56.889c31.289 0 56.889-25.6 56.889-56.889v-56.889c0-31.289-25.6-56.889-56.889-56.889h-56.889c-31.289 0-56.889 25.6-56.889 56.889v227.555h56.889zM341.334 85.334h56.889v56.889h-56.889v-56.889z" />
<glyph unicode="&#xf124;" glyph-name="amazon" horiz-adv-x="683" d="M453.12 25.885c-5.12-4.551-12.231-4.836-17.92-1.707-25.315 21.049-29.866 30.72-43.805 50.916-41.813-42.666-71.395-55.466-125.725-55.466-64 0-114.062 39.538-114.062 118.613 0 62.009 33.28 103.538 81.351 124.587 41.529 18.204 99.271 21.618 143.36 26.453v9.387c0 18.773 1.422 40.106-9.387 55.751-9.102 13.938-27.022 19.911-42.666 19.911-29.014 0-54.898-15.075-61.156-45.796-1.422-6.827-7.111-13.654-13.369-13.938l-73.956 7.964c-6.258 1.422-13.084 6.258-11.378 15.929 17.066 89.6 98.133 116.622 170.666 116.622 36.978 0 85.334-9.955 114.631-37.831 36.978-34.702 33.849-81.066 33.849-131.413v-118.613c0-35.555 14.222-51.484 28.445-70.542 4.836-7.111 5.973-15.36 0-20.195l-58.596-50.631h-0.284zM376.32 211.627v15.929c-55.182 0-113.493-11.094-113.493-75.947 0-32.995 17.351-55.466 46.365-55.466 21.618 0 40.675 13.369 52.906 34.702 14.791 26.454 14.222 51.2 14.222 80.782zM573.44-43.804c-61.44-45.511-151.894-69.974-229.262-69.974-108.374 0-206.222 40.106-280.178 106.951-5.689 5.12-0.569 12.231 7.111 8.249 79.076-46.365 177.778-74.24 279.609-74.24 68.551 0 144.214 14.222 213.618 43.52 10.524 4.551 18.774-6.827 9.102-14.506zM599.324-14.222c-7.965 10.24-52.622 4.836-73.102 2.275-5.404-0.569-6.258 4.551-0.854 8.534 35.271 25.031 93.582 17.635 100.409 9.387 6.827-8.533-1.991-66.844-35.271-94.435-5.12-4.551-9.956-1.991-7.395 3.129 7.395 19.058 24.178 60.871 16.213 71.111z" />
<glyph unicode="&#xf125;" glyph-name="amazon-clouddrive" horiz-adv-x="683" d="M140.516 195.698c8.249 0 15.929-1.138 23.325-3.129 0.285 60.871 49.494 110.365 110.649 110.365 46.080 0 85.902-28.445 102.115-68.836 16.782 21.902 42.666 35.271 71.68 35.271 49.493 0 90.454-40.391 90.454-90.454 0-6.827-0.854-13.938-2.275-20.48 6.827 2.56 14.506 3.982 22.471 3.982 36.978 0 66.845-30.151 66.845-67.129s-29.866-66.844-66.845-66.844h-418.418c-46.080 0-83.626 37.546-83.626 83.626 0 46.365 37.547 83.626 83.626 83.626z" />
<glyph unicode="&#xf126;" glyph-name="ambulance" horiz-adv-x="683" d="M512-14.222c23.609 0 42.667 19.058 42.667 42.666s-19.058 42.666-42.667 42.666-42.666-19.058-42.666-42.666 19.058-42.666 42.666-42.666zM554.667 241.778h-71.111v-71.111h126.862l-55.751 71.111zM170.667-14.222c23.609 0 42.667 19.058 42.667 42.666s-19.058 42.666-42.666 42.666-42.666-19.058-42.666-42.666 19.058-42.666 42.666-42.666zM568.889 284.445l85.333-113.778v-142.222h-56.889c0-47.218-38.115-85.333-85.334-85.333s-85.334 38.115-85.334 85.334h-170.667c0-47.218-38.115-85.334-85.333-85.334s-85.334 38.115-85.334 85.334h-56.889v312.889c0 31.574 25.316 56.889 56.889 56.889h398.222v-113.778h85.334zM227.555 341.333v-85.333h-85.334v-56.889h85.334v-85.334h56.889v85.334h85.334v56.889h-85.334v85.334h-56.889z" />
<glyph unicode="&#xf127;" glyph-name="android" horiz-adv-x="683" d="M426.666 369.778h-28.445v28.444h28.445zM284.445 369.778h-28.445v28.444h28.445zM441.742 450.56l37.262 37.262c5.404 5.404 5.404 14.507 0 20.195-5.689 5.405-14.791 5.405-20.195 0l-42.098-42.098c-22.755 11.094-48.356 17.636-75.378 17.636-27.306 0-52.906-6.542-75.662-17.92l-42.382 42.382c-5.405 5.405-14.506 5.405-19.911 0-5.689-5.689-5.689-14.791 0-20.195l37.262-37.262c-42.382-31.289-69.974-80.782-69.974-137.671h341.334c0 56.889-28.445 106.666-70.258 137.671zM583.111 284.445c-23.609 0-42.667-19.058-42.667-42.666v-199.111c0-23.609 19.058-42.666 42.667-42.666s42.667 19.058 42.667 42.666v199.111c0 23.609-19.058 42.666-42.667 42.666zM99.555 284.445c-23.609 0-42.666-19.058-42.666-42.666v-199.111c0-23.609 19.058-42.666 42.666-42.666s42.666 19.058 42.666 42.666v199.111c0 23.609-19.058 42.666-42.666 42.666zM170.667 0c0-15.644 12.8-28.444 28.445-28.444h28.445v-99.556c0-23.609 19.058-42.667 42.667-42.667s42.666 19.058 42.666 42.667v99.555h56.889v-99.555c0-23.609 19.058-42.667 42.666-42.667s42.666 19.058 42.666 42.667v99.555h28.445c15.644 0 28.445 12.8 28.445 28.444v284.445h-341.334v-284.445z" />
<glyph unicode="&#xf128;" glyph-name="android-debug-bridge" horiz-adv-x="683" d="M426.666 256c-15.644 0-28.445 12.8-28.445 28.445s12.8 28.445 28.445 28.445 28.445-12.8 28.445-28.445-12.8-28.445-28.445-28.445zM256 256c-15.644 0-28.445 12.8-28.445 28.445s12.8 28.445 28.445 28.445 28.445-12.8 28.445-28.445-12.8-28.445-28.445-28.445zM458.524 387.698l59.734 59.733-23.325 23.609-65.707-65.707c-26.454 13.369-56.32 21.334-87.894 21.334-31.858 0-61.44-7.965-87.894-21.334l-65.707 65.707-23.325-23.609 59.733-59.733c-49.493-36.124-81.92-94.151-81.92-160.142v-28.445h398.222v28.445c0 65.991-32.426 124.018-81.92 160.142zM142.222 56.889c0-109.796 89.031-199.111 199.111-199.111s199.111 89.031 199.111 199.111v113.778h-398.222v-113.778z" />
<glyph unicode="&#xf129;" glyph-name="android-studio" horiz-adv-x="683" d="M312.889 455.111h56.889v-56.889h14.222c23.609 0 42.666-19.058 42.666-42.666v-99.555l-12.515-12.515 46.649-80.782c31.574 31.005 51.2 73.955 51.2 121.742h56.889c0-68.836-30.436-130.56-78.791-172.374l89.315-154.738 3.698-63.147-53.191 34.702-87.325 151.609c-30.151-15.075-64.853-23.609-101.262-23.609s-71.111 8.534-101.262 23.609l-87.325-151.609-53.191-34.702 3.698 63.147 165.262 286.151-12.515 12.515v99.555c0 23.609 19.058 42.666 42.666 42.666h14.222v56.889zM268.515 129.991c22.187-10.524 46.933-16.214 72.818-16.214s50.631 5.689 72.818 16.214l-41.529 71.964h-0.284c-17.635-17.067-44.373-17.067-62.009 0h-0.284l-41.529-71.964zM341.334 341.333c-15.644 0-28.445-12.8-28.445-28.444s12.8-28.445 28.445-28.445 28.445 12.8 28.445 28.445-12.8 28.444-28.445 28.444z" />
<glyph unicode="&#xf12a;" glyph-name="apple" horiz-adv-x="683" d="M532.196-42.667c-23.609-35.271-48.64-69.689-86.755-70.258-38.115-0.854-50.346 22.471-93.582 22.471-43.52 0-56.889-21.902-93.014-23.324-37.262-1.422-65.422 37.547-89.315 71.965-48.64 70.258-85.902 199.68-35.84 286.72 24.746 43.236 69.12 70.542 117.191 71.395 36.409 0.569 71.111-24.746 93.582-24.746 22.187 0 64.284 30.435 108.373 25.885 18.489-0.853 70.258-7.395 103.538-56.32-2.56-1.707-61.724-36.409-61.156-108.373 0.853-85.902 75.378-114.631 76.231-114.916-0.854-1.991-11.947-40.96-39.254-80.498zM369.778 412.445c20.764 23.609 55.182 41.529 83.626 42.666 3.698-33.28-9.671-66.844-29.582-90.738-19.627-24.178-52.053-42.951-83.911-40.391-4.267 32.711 11.662 66.845 29.866 88.462z" />
<glyph unicode="&#xf12b;" glyph-name="apple-finder" horiz-adv-x="683" d="M113.778 398.222h224.426c16.214 31.005 35.271 60.302 58.026 85.334l31.574-31.574c-12.231-16.782-23.040-34.986-32.711-53.76h173.796c31.289 0 56.889-25.6 56.889-56.889v-369.778c0-31.289-25.6-56.889-56.889-56.889h-144.214l9.387-34.986-52.053-20.48-14.222 55.466h-254.009c-31.289 0-56.889 25.6-56.889 56.889v369.778c0 31.289 25.6 56.889 56.889 56.889zM113.778 341.333v-369.778h242.916c-1.138 9.386-2.844 18.774-3.982 28.444h-11.378c-78.222 0-148.48 14.222-195.413 35.271l25.885 46.649c27.306-14.791 89.031-25.031 169.529-25.031h6.827c-0.853 19.058-0.569 38.115 0.853 56.889h-93.014s11.378 114.631 56.889 227.555h-199.111zM568.889-28.444v369.778h-199.111c-25.6-63.147-40.391-126.862-48.356-170.667h81.635c-4.836-36.409-5.689-74.524-3.129-111.786 51.485 3.698 90.738 12.231 110.933 23.040l25.885-46.649c-33.565-15.36-78.791-26.738-130.275-32.142 1.707-10.809 3.413-21.334 5.974-31.574h156.445zM170.667 284.445h56.889v-85.334h-56.889v85.334zM455.111 284.445h56.889v-85.334h-56.889v85.334z" />
<glyph unicode="&#xf12c;" glyph-name="apple-mobileme" horiz-adv-x="683" d="M625.778 84.195c0-62.293-50.062-112.64-111.787-112.64h-345.315c-61.725 0-111.787 50.346-111.787 112.64 0 56.036 40.675 102.4 94.151 110.933-0.853 3.982-1.138 7.964-1.138 12.231 0 39.254 31.573 71.395 70.827 71.395 17.351 0 33.565-6.542 45.796-17.066 21.902 49.778 50.062 95.574 129.138 95.574 95.858 0 141.085-74.525 141.085-153.316 0-3.129 0-6.542-0.284-9.671 50.915-10.524 89.316-55.751 89.316-110.080z" />
<glyph unicode="&#xf12d;" glyph-name="apple-safari" horiz-adv-x="683" d="M341.334 455.111c157.013 0 284.445-127.431 284.445-284.445s-127.431-284.445-284.445-284.445-284.445 127.431-284.445 284.445 127.431 284.445 284.445 284.445zM341.334 398.222c-125.725 0-227.555-101.831-227.555-227.555 0-59.449 22.756-113.778 60.018-153.885l107.236 214.186 214.187 107.236c-40.106 37.262-94.435 60.018-153.885 60.018zM341.334-56.889c125.724 0 227.555 101.831 227.555 227.555 0 59.449-22.755 113.778-60.018 153.885l-107.236-214.186-214.186-107.236c40.107-37.262 94.436-60.018 153.884-60.018zM341.334 170.666l-21.902 21.902-43.52-87.325 87.325 43.52-21.902 21.902zM341.334 14.222h28.445v-42.667h-28.445v42.666zM451.698 60.018l20.195 20.195 30.151-30.151-20.195-20.195-30.151 30.151zM497.778 170.666v28.445h42.667v-28.445h-42.666zM341.334 327.111h-28.445v42.666h28.445v-42.666zM230.969 281.315l-20.196-20.195-30.151 30.151 20.196 20.196 30.151-30.151zM184.889 170.666v-28.445h-42.666v28.445h42.666z" />
<glyph unicode="&#xf12e;" glyph-name="appnet" horiz-adv-x="683" d="M411.591 252.018c17.067 41.245 48.64 138.24 53.476 155.306 4.267 16.782 17.067 19.342 24.178 19.342h58.311c9.671 0 15.076-7.396 12.8-19.342-61.156-215.893-102.685-279.324-102.685-293.546 0-36.409 38.969-104.391 75.378-104.391 21.618 0 17.067 31.574 41.245 31.574h46.080c7.395 0 14.506-7.396 14.506-19.627 0-11.947-13.369-106.666-105.529-106.666-92.445 0-126.862 111.502-126.862 111.502-11.947-24.178-83.058-111.502-170.382-111.502-155.306 0-184.32 164.978-184.32 261.974 0 97.28 46.080 250.026 177.209 250.026 130.56 0 186.595-174.649 186.595-174.649zM128 184.036c0-56.036-2.56-172.373 99.555-174.649 58.026-2.56 111.218 70.258 136.818 128.569-35.271 121.173-59.449 193.991-136.818 193.991-104.675-2.275-99.555-147.911-99.555-147.911z" />
<glyph unicode="&#xf12f;" glyph-name="apps" horiz-adv-x="683" d="M455.111-56.889h113.778v113.778h-113.778zM455.111 113.778h113.778v113.778h-113.778zM284.445 284.445h113.778v113.778h-113.778zM455.111 284.445h113.778v113.778h-113.778zM284.445 113.778h113.778v113.778h-113.778zM113.778 113.778h113.778v113.778h-113.778zM113.778-56.889h113.778v113.778h-113.778zM284.445-56.889h113.778v113.778h-113.778zM113.778 284.445h113.778v113.778h-113.778v-113.778z" />
<glyph unicode="&#xf130;" glyph-name="archive" horiz-adv-x="683" d="M85.334 426.666h512v-113.778h-512v113.778zM113.778 284.445h455.111v-369.778h-455.111v369.778zM270.222 199.111c-7.964 0-14.222-6.258-14.222-14.222v-42.666h170.667v42.666c0 7.964-6.258 14.222-14.222 14.222h-142.222z" />
<glyph unicode="&#xf131;" glyph-name="arrange-bring-forward" horiz-adv-x="683" d="M56.889 455.111h398.222v-398.222h-398.222v398.222zM625.778 284.445v-398.222h-398.222v113.778h56.889v-56.889h284.444v284.445h-56.889v56.889h113.778z" />
<glyph unicode="&#xf132;" glyph-name="arrange-bring-to-front" horiz-adv-x="683" d="M56.889 455.111h256v-113.778h-56.889v56.889h-142.222v-142.222h56.889v-56.889h-113.778v256zM625.778 142.222v-256h-256v113.778h56.889v-56.889h142.222v142.222h-56.889v56.889h113.778zM227.555 284.445h227.555v-227.555h-227.555v227.555z" />
<glyph unicode="&#xf133;" glyph-name="arrange-send-backward" horiz-adv-x="683" d="M56.889 455.111h398.222v-398.222h-398.222v398.222zM625.778 284.445v-398.222h-398.222v113.778h284.445v284.445h113.778zM113.778 398.222v-284.445h284.445v284.445h-284.445z" />
<glyph unicode="&#xf134;" glyph-name="arrange-send-to-back" horiz-adv-x="683" d="M56.889 455.111h256v-256h-256v256zM256 398.222h-142.222v-142.222h142.222v142.222zM625.778 142.222v-256h-256v256h256zM426.666-56.889h142.222v142.222h-142.222v-142.222zM455.111 284.445v-85.334h-85.334v85.334h85.334zM312.889 56.889h-85.334v85.334h85.334v-85.334z" />
<glyph unicode="&#xf135;" glyph-name="arrow-all" horiz-adv-x="683" d="M369.778 199.111h142.222l-42.666 42.666 40.391 40.391 111.502-111.502-111.502-111.502-40.391 40.391 42.666 42.666h-142.222v-142.222l42.666 42.666 40.391-40.391-111.502-111.502-111.502 111.502 40.391 40.391 42.666-42.666v142.222h-142.222l42.667-42.666-40.391-40.391-111.502 111.502 111.502 111.502 40.391-40.391-42.666-42.666h142.222v142.222l-42.666-42.666-40.391 40.391 111.502 111.502 111.502-111.502-40.391-40.391-42.666 42.666v-142.222z" />
<glyph unicode="&#xf136;" glyph-name="arrow-bottom-left" horiz-adv-x="683" d="M540.444 329.671l-40.106 40.106-301.226-301.226v187.449h-56.889v-284.445h284.445v56.889h-187.449l301.226 301.226z" />
<glyph unicode="&#xf137;" glyph-name="arrow-bottom-right" horiz-adv-x="683" d="M142.222 329.671l40.107 40.106 301.226-301.226v187.449h56.889v-284.445h-284.445v56.889h187.449l-301.226 301.226z" />
<glyph unicode="&#xf138;" glyph-name="arrow-collapse" horiz-adv-x="683" d="M554.667 424.106l40.106-40.106-128-128h102.115v-56.889h-199.111v199.111h56.889v-102.115l128 128zM594.774-42.667l-40.106-40.106-128 128v-102.115h-56.889v199.111h199.111v-56.889h-102.115l128-128zM128 424.106l128-128v102.115h56.889v-199.111h-199.111v56.889h102.115l-128 128 40.106 40.106zM87.894-42.667l128 128h-102.115v56.889h199.111v-199.111h-56.889v102.115l-128-128-40.106 40.106z" />
<glyph unicode="&#xf139;" glyph-name="arrow-down" horiz-adv-x="683" d="M312.889 398.222h56.889v-341.334l156.445 156.445 40.391-40.391-225.28-225.28-225.28 225.28 40.391 40.391 156.445-156.445v341.334z" />
<glyph unicode="&#xf13a;" glyph-name="arrow-down-bold" horiz-adv-x="683" d="M284.445 398.222h113.778v-256l99.555 99.555 68.836-68.835-225.28-225.28-225.28 225.28 68.835 68.836 99.555-99.555v256z" />
<glyph unicode="&#xf13b;" glyph-name="arrow-down-bold-circle" horiz-adv-x="683" d="M341.334 455.111c157.013 0 284.445-127.431 284.445-284.445s-127.431-284.445-284.445-284.445-284.445 127.431-284.445 284.445 127.431 284.445 284.445 284.445zM341.334 28.445l142.222 142.222h-85.334v113.778h-113.778v-113.778h-85.334l142.222-142.222z" />
<glyph unicode="&#xf13c;" glyph-name="arrow-down-bold-circle-outline" horiz-adv-x="683" d="M341.334 28.445l-142.222 142.222h85.333v113.778h113.778v-113.778h85.334l-142.222-142.222zM341.334 455.111c157.013 0 284.445-127.431 284.445-284.445s-127.431-284.445-284.445-284.445-284.445 127.431-284.445 284.445 127.431 284.445 284.445 284.445zM341.334 398.222c-125.725 0-227.555-101.831-227.555-227.555s101.831-227.555 227.555-227.555 227.555 101.831 227.555 227.555-101.831 227.555-227.555 227.555z" />
<glyph unicode="&#xf13d;" glyph-name="arrow-down-bold-hexagon-outline" horiz-adv-x="683" d="M341.334 28.445l-142.222 142.222h85.333v113.778h113.778v-113.778h85.334l-142.222-142.222zM597.333 42.666c0-10.809-5.973-20.195-15.076-25.031l-224.711-126.293c-4.551-3.413-10.24-5.12-16.214-5.12s-11.662 1.707-16.214 5.12l-224.711 126.293c-9.102 4.836-15.076 14.222-15.076 25.031v256c0 10.809 5.974 20.195 15.076 25.031l224.711 126.293c4.551 3.413 10.24 5.12 16.214 5.12s11.662-1.707 16.214-5.12l224.711-126.293c9.102-4.836 15.076-14.222 15.076-25.031v-256zM341.334 393.956l-199.111-112.071v-222.435l199.111-112.071 199.111 112.071v222.435l-199.111 112.071z" />
<glyph unicode="&#xf13e;" glyph-name="arrow-expand" horiz-adv-x="683" d="M270.222 139.662l40.106-40.106-128-128h102.115v-56.889h-199.111v199.111h56.889v-102.115l128 128zM310.329 241.778l-40.106-40.106-128 128v-102.115h-56.889v199.111h199.111v-56.889h-102.115l128-128zM412.445 139.662l128-128v102.115h56.889v-199.111h-199.111v56.889h102.115l-128 128 40.106 40.106zM372.338 241.778l128 128h-102.115v56.889h199.111v-199.111h-56.889v102.115l-128-128-40.106 40.106z" />
<glyph unicode="&#xf13f;" glyph-name="arrow-left" horiz-adv-x="683" d="M568.889 199.111v-56.889h-341.334l156.445-156.445-40.391-40.391-225.28 225.28 225.28 225.28 40.391-40.391-156.445-156.445h341.334z" />
<glyph unicode="&#xf140;" glyph-name="arrow-left-bold" horiz-adv-x="683" d="M568.889 227.555v-113.778h-256l99.555-99.555-68.835-68.836-225.28 225.28 225.28 225.28 68.836-68.835-99.555-99.555h256z" />
<glyph unicode="&#xf141;" glyph-name="arrow-left-bold-circle" horiz-adv-x="683" d="M625.778 170.666c0-157.013-127.431-284.445-284.445-284.445s-284.445 127.431-284.445 284.445 127.431 284.445 284.445 284.445 284.445-127.431 284.445-284.445zM199.111 170.666l142.222-142.222v85.334h113.778v113.778h-113.778v85.334l-142.222-142.222z" />
<glyph unicode="&#xf142;" glyph-name="arrow-left-bold-circle-outline" horiz-adv-x="683" d="M199.111 170.666l142.222 142.222v-85.334h113.778v-113.778h-113.778v-85.334l-142.222 142.222zM625.778 170.666c0-157.013-127.431-284.445-284.445-284.445s-284.445 127.431-284.445 284.445 127.431 284.445 284.445 284.445 284.445-127.431 284.445-284.445zM568.889 170.666c0 125.724-101.831 227.555-227.555 227.555s-227.555-101.831-227.555-227.555 101.831-227.555 227.555-227.555 227.555 101.831 227.555 227.555z" />
<glyph unicode="&#xf143;" glyph-name="arrow-left-bold-hexagon-outline" horiz-adv-x="683" d="M199.111 170.666l142.222 142.222v-85.334h113.778v-113.778h-113.778v-85.334l-142.222 142.222zM597.333 42.666c0-10.809-5.973-20.195-15.076-25.031l-224.711-126.293c-4.551-3.413-10.24-5.12-16.214-5.12s-11.662 1.707-16.214 5.12l-224.711 126.293c-9.102 4.836-15.076 14.222-15.076 25.031v256c0 10.809 5.974 20.195 15.076 25.031l224.711 126.293c4.551 3.413 10.24 5.12 16.214 5.12s11.662-1.707 16.214-5.12l224.711-126.293c9.102-4.836 15.076-14.222 15.076-25.031v-256zM341.334 393.956l-199.111-112.071v-222.435l199.111-112.071 199.111 112.071v222.435l-199.111 112.071z" />
<glyph unicode="&#xf144;" glyph-name="arrow-right" horiz-adv-x="683" d="M113.778 199.111v-56.889h341.334l-156.445-156.445 40.391-40.391 225.28 225.28-225.28 225.28-40.391-40.391 156.445-156.445h-341.334z" />
<glyph unicode="&#xf145;" glyph-name="arrow-right-bold" horiz-adv-x="683" d="M113.778 227.555v-113.778h256l-99.555-99.555 68.835-68.836 225.28 225.28-225.28 225.28-68.836-68.835 99.555-99.555h-256z" />
<glyph unicode="&#xf146;" glyph-name="arrow-right-bold-circle" horiz-adv-x="683" d="M56.889 170.666c0 157.013 127.431 284.445 284.445 284.445s284.445-127.431 284.445-284.445-127.431-284.445-284.445-284.445-284.445 127.431-284.445 284.445zM483.555 170.666l-142.222 142.222v-85.334h-113.778v-113.778h113.778v-85.334l142.222 142.222z" />
<glyph unicode="&#xf147;" glyph-name="arrow-right-bold-circle-outline" horiz-adv-x="683" d="M483.555 170.666l-142.222-142.222v85.334h-113.778v113.778h113.778v85.334l142.222-142.222zM56.889 170.666c0 157.013 127.431 284.445 284.445 284.445s284.445-127.431 284.445-284.445-127.431-284.445-284.445-284.445-284.445 127.431-284.445 284.445zM113.778 170.666c0-125.724 101.831-227.555 227.555-227.555s227.555 101.831 227.555 227.555-101.831 227.555-227.555 227.555-227.555-101.831-227.555-227.555z" />
<glyph unicode="&#xf148;" glyph-name="arrow-right-bold-hexagon-outline" horiz-adv-x="683" d="M483.555 170.666l-142.222-142.222v85.334h-113.778v113.778h113.778v85.334l142.222-142.222zM597.333 42.666c0-10.809-5.973-20.195-15.076-25.031l-224.711-126.293c-4.551-3.413-10.24-5.12-16.214-5.12s-11.662 1.707-16.214 5.12l-224.711 126.293c-9.102 4.836-15.076 14.222-15.076 25.031v256c0 10.809 5.974 20.195 15.076 25.031l224.711 126.293c4.551 3.413 10.24 5.12 16.214 5.12s11.662-1.707 16.214-5.12l224.711-126.293c9.102-4.836 15.076-14.222 15.076-25.031v-256zM341.334 393.956l-199.111-112.071v-222.435l199.111-112.071 199.111 112.071v222.435l-199.111 112.071z" />
<glyph unicode="&#xf149;" glyph-name="arrow-top-left" horiz-adv-x="683" d="M540.444 11.662l-40.106-40.107-301.226 301.226v-187.449h-56.889v284.445h284.445v-56.889h-187.449l301.226-301.226z" />
<glyph unicode="&#xf14a;" glyph-name="arrow-top-right" horiz-adv-x="683" d="M142.222 11.662l301.226 301.226h-187.449v56.889h284.445v-284.445h-56.889v187.449l-301.226-301.227-40.106 40.106z" />
<glyph unicode="&#xf14b;" glyph-name="arrow-up" horiz-adv-x="683" d="M369.778-56.889h-56.889v341.334l-156.445-156.445-40.391 40.391 225.28 225.28 225.28-225.28-40.391-40.391-156.445 156.445v-341.334z" />
<glyph unicode="&#xf14c;" glyph-name="arrow-up-bold" horiz-adv-x="683" d="M398.222-56.889h-113.778v256l-99.555-99.555-68.835 68.835 225.28 225.28 225.28-225.28-68.836-68.836-99.555 99.555v-256z" />
<glyph unicode="&#xf14d;" glyph-name="arrow-up-bold-circle" horiz-adv-x="683" d="M341.334-113.778c-157.013 0-284.445 127.431-284.445 284.445s127.431 284.445 284.445 284.445 284.445-127.431 284.445-284.445-127.431-284.445-284.445-284.445zM341.334 312.889l-142.222-142.222h85.333v-113.778h113.778v113.778h85.334l-142.222 142.222z" />
<glyph unicode="&#xf14e;" glyph-name="arrow-up-bold-circle-outline" horiz-adv-x="683" d="M341.334 312.889l142.222-142.222h-85.334v-113.778h-113.778v113.778h-85.334l142.222 142.222zM341.334-113.778c-157.013 0-284.445 127.431-284.445 284.445s127.431 284.445 284.445 284.445 284.445-127.431 284.445-284.445-127.431-284.445-284.445-284.445zM341.334-56.889c125.724 0 227.555 101.831 227.555 227.555s-101.831 227.555-227.555 227.555-227.555-101.831-227.555-227.555 101.831-227.555 227.555-227.555z" />
<glyph unicode="&#xf14f;" glyph-name="arrow-up-bold-hexagon-outline" horiz-adv-x="683" d="M341.334 312.889l142.222-142.222h-85.334v-113.778h-113.778v113.778h-85.334l142.222 142.222zM597.333 42.666c0-10.809-5.973-20.195-15.076-25.031l-224.711-126.293c-4.551-3.413-10.24-5.12-16.214-5.12s-11.662 1.707-16.214 5.12l-224.711 126.293c-9.102 4.836-15.076 14.222-15.076 25.031v256c0 10.809 5.974 20.195 15.076 25.031l224.711 126.293c4.551 3.413 10.24 5.12 16.214 5.12s11.662-1.707 16.214-5.12l224.711-126.293c9.102-4.836 15.076-14.222 15.076-25.031v-256zM341.334 393.956l-199.111-112.071v-222.435l199.111-112.071 199.111 112.071v222.435l-199.111 112.071z" />
<glyph unicode="&#xf150;" glyph-name="at" horiz-adv-x="683" d="M495.502 85.334c10.524 25.885 16.498 54.898 16.498 85.334 0 110.080-76.515 199.111-170.667 199.111s-170.667-89.031-170.667-199.111 76.516-199.111 170.667-199.111c43.805 0 85.334 0 113.778 22.187v-66.275c-28.445-12.8-72.249-12.8-113.778-12.8-125.725 0-227.555 114.631-227.555 256s101.831 256 227.555 256 227.555-114.631 227.555-256c0-52.622-14.222-101.546-38.4-142.222h-132.267v42.666c-18.204-26.454-42.666-42.666-71.111-42.666-54.898 0-99.555 63.716-99.555 142.222s44.658 142.222 99.555 142.222c28.445 0 52.906-16.213 71.111-42.666v14.222h56.889v-199.111h40.391zM341.334 256c-31.289 0-56.889-38.115-56.889-85.334s25.6-85.334 56.889-85.334 56.889 38.115 56.889 85.334-25.6 85.334-56.889 85.334z" />
<glyph unicode="&#xf151;" glyph-name="attachment" horiz-adv-x="683" d="M213.333 0c-86.471 0-156.445 69.974-156.445 156.445s69.974 156.445 156.445 156.445h298.667c62.862 0 113.778-50.916 113.778-113.778s-50.915-113.778-113.778-113.778h-241.778c-39.254 0-71.111 31.858-71.111 71.111s31.858 71.111 71.111 71.111h213.333v-42.666h-213.333c-15.644 0-28.445-12.8-28.445-28.445s12.8-28.445 28.445-28.445h241.778c39.254 0 71.111 31.858 71.111 71.111s-31.858 71.111-71.111 71.111h-298.666c-62.862 0-113.778-50.916-113.778-113.778s50.915-113.778 113.778-113.778h270.222v-42.666h-270.222z" />
<glyph unicode="&#xf152;" glyph-name="audiobook" horiz-adv-x="683" d="M512-113.778h-341.334c-31.289 0-56.889 25.6-56.889 56.889v455.111c0 31.573 25.6 56.889 56.889 56.889h28.445v-199.111l71.111 42.666 71.111-42.666v199.111h170.667c31.289 0 56.889-25.6 56.889-56.889v-455.111c0-31.289-25.6-56.889-56.889-56.889zM369.778 85.334c-31.289 0-56.889-25.6-56.889-56.889s25.6-56.889 56.889-56.889 56.889 25.6 56.889 56.889v142.222h85.333v56.889h-113.778v-149.902c-8.249 4.836-18.204 7.68-28.445 7.68z" />
<glyph unicode="&#xf153;" glyph-name="auto-fix" horiz-adv-x="683" d="M213.333 352.711l-71.111-39.822 39.822 71.111-39.822 71.111 71.111-39.822 71.111 39.822-39.822-71.111 39.822-71.111-71.111 39.822zM554.667 73.955l71.111 39.822-39.822-71.111 39.822-71.111-71.111 39.822-71.111-39.822 39.822 71.111-39.822 71.111 71.111-39.822zM625.778 455.111l-39.822-71.111 39.822-71.111-71.111 39.822-71.111-39.822 39.822 71.111-39.822 71.111 71.111-39.822 71.111 39.822zM379.449 148.48l69.404 69.404-60.302 60.302-69.404-69.405 60.302-60.302zM408.747 304.64l66.56-66.56c11.094-10.524 11.094-29.014 0-40.106l-331.947-331.946c-11.094-11.093-29.582-11.093-40.106 0l-66.56 66.56c-11.093 10.524-11.093 29.014 0 40.106l331.947 331.947c11.094 11.094 29.582 11.094 40.106 0z" />
<glyph unicode="&#xf154;" glyph-name="auto-upload" horiz-adv-x="683" d="M152.178 152.178l32.711 103.822 32.711-103.822zM156.445 312.889l-91.022-256h54.044l19.911 56.889h91.022l19.911-56.889h54.045l-91.022 256zM312.889-56.889h312.889v56.889h-312.889zM398.222 56.889h142.222v142.222h85.333l-156.445 156.445-156.445-156.445h85.334v-142.222z" />
<glyph unicode="&#xf155;" glyph-name="backburger" horiz-adv-x="683" d="M142.222 142.222l113.778-113.778-39.822-40.391-182.613 182.613 182.613 182.613 39.822-40.391-113.778-113.778h455.111v-56.889h-455.111zM597.333 341.333v-56.889h-284.445v56.889h284.445zM597.333 56.889v-56.889h-284.445v56.889h284.445z" />
<glyph unicode="&#xf156;" glyph-name="backup-restore" horiz-adv-x="683" d="M341.334 426.666c-141.369 0-256-114.631-256-256h-85.334l113.778-113.778 113.778 113.778h-85.334c0 110.080 89.031 199.111 199.111 199.111s199.111-89.031 199.111-199.111-89.031-199.111-199.111-199.111c-42.666 0-82.774 14.222-115.484 36.978l-40.96-40.96c43.804-32.995 97.849-52.907 156.445-52.907 141.369 0 256 114.631 256 256s-114.631 256-256 256zM398.222 170.666c0 31.289-25.6 56.889-56.889 56.889s-56.889-25.6-56.889-56.889 25.6-56.889 56.889-56.889 56.889 25.6 56.889 56.889z" />
<glyph unicode="&#xf157;" glyph-name="bank" horiz-adv-x="683" d="M327.111 483.555l-270.222-142.222v-56.889h540.444v56.889zM455.111 227.555v-199.111h85.333v199.111zM56.889-113.778h540.444v85.333h-540.444zM284.445 227.555v-199.111h85.334v199.111zM113.778 227.555v-199.111h85.334v199.111h-85.334z" />
<glyph unicode="&#xf158;" glyph-name="barcode" horiz-adv-x="683" d="M56.889 341.333h56.889v-341.333h-56.889v341.334zM142.222 341.333h28.445v-341.333h-28.445v341.334zM199.111 341.333h85.334v-341.333h-85.334v341.334zM312.889 341.333h28.445v-341.333h-28.445v341.334zM398.222 341.333h56.889v-341.333h-56.889v341.334zM483.555 341.333h85.334v-341.333h-85.334v341.334zM597.333 341.333h28.444v-341.333h-28.444v341.334z" />
<glyph unicode="&#xf159;" glyph-name="barley" horiz-adv-x="683" d="M208.498-9.386c-23.609 32.995-23.609 71.111-23.609 108.942 47.502-28.445 94.72-56.889 118.614-90.169l9.387-15.929v64.853c-42.666 25.6-83.058 51.769-104.391 81.635-23.609 32.995-23.609 71.111-23.609 108.942 47.502-28.445 94.72-56.889 118.614-90.169l9.387-16.498v65.422c-42.666 25.6-83.058 51.769-104.391 81.635-23.609 32.995-23.609 71.111-23.609 108.942 47.502-28.445 94.72-56.889 118.614-90.169 2.844-3.982 5.404-8.249 7.68-12.8-4.836 17.636-7.964 34.134-8.249 51.2-0.284 42.951 18.489 87.040 37.262 131.129 19.627-42.098 39.253-84.48 39.538-127.431 0.284-17.92-2.844-36.125-7.964-54.044 2.276 3.982 4.551 7.964 7.396 11.946 23.894 33.28 71.111 61.724 118.613 90.169 0-37.831 0-75.946-23.609-108.942-21.334-29.867-61.724-56.036-104.391-81.636v-65.422l9.387 16.498c23.894 33.28 71.111 61.724 118.613 90.169 0-37.831 0-75.947-23.609-108.942-21.334-29.866-61.724-56.036-104.391-81.635v-64.853l9.387 15.929c23.894 33.28 71.111 61.724 118.613 90.169 0-37.831 0-75.947-23.609-108.942-21.334-29.866-61.724-56.035-104.391-81.635v-51.2h-56.889v51.2c-42.666 25.6-83.058 51.769-104.391 81.635z" />
<glyph unicode="&#xf15a;" glyph-name="barrel" horiz-adv-x="683" d="M512-28.444h28.444v-56.889h-398.222v56.889h28.445v170.667h-28.445v56.889h28.445v170.667h-28.445v56.889h398.222v-56.889h-28.445v-170.667h28.445v-56.889h-28.445v-170.667zM256 142.222c0-47.218 38.115-85.334 85.334-85.334s85.334 38.115 85.334 85.334c0 56.889-85.334 152.746-85.334 152.746s-85.334-95.858-85.334-152.746z" />
<glyph unicode="&#xf15b;" glyph-name="basecamp" horiz-adv-x="683" d="M96.427 67.129c0.284 2.56 0.853 5.404 1.707 7.964 1.422 5.12 2.56 10.24 4.266 14.791 6.258 18.489 15.929 35.84 25.6 52.338 5.689 8.534 11.094 16.782 16.214 25.031 5.405 8.249 10.809 16.498 17.066 24.462 9.387 12.8 22.186 26.454 37.831 31.574 22.471 7.111 38.969-15.929 51.769-30.435 7.396-7.964 15.36-16.498 25.315-21.334 4.836-1.991 9.955-3.129 15.075-2.844 7.396 0.569 13.938 5.689 19.627 10.24 15.075 12.515 27.591 28.729 39.253 44.373 13.084 17.067 25.6 34.702 40.391 50.346 6.258 6.542 12.8 15.075 21.902 17.92 3.413 1.138 7.68 0.853 11.662-0.853 2.56-1.138 3.982-2.56 5.404-3.982 1.991-2.275 4.267-3.413 6.258-4.835 15.929-11.662 30.72-25.885 44.658-40.106 11.947-12.231 23.609-25.315 34.418-38.685 11.378-13.084 21.049-26.454 29.866-40.96 10.809-17.92 19.911-36.409 30.151-54.329 9.102-16.498 18.489-35.555 9.102-54.329-0.854-0.853-0.854-1.991-0.854-2.844-16.782-27.591-46.080-44.658-75.094-55.751-34.986-13.369-72.249-19.911-109.796-22.471-38.115-2.845-76.8-2.56-115.2 0.854-34.702 3.413-69.689 9.671-102.115 22.187-27.306 10.524-52.906 25.885-71.68 49.209-4.266 5.689-7.965 11.378-11.094 17.635-0.569 0.569-0.853 1.422-1.138 1.991-0.569 1.138-0.853 1.707-0.569 2.844zM59.164 42.666c3.982-6.542 8.533-12.231 13.084-17.635 9.102-10.809 19.626-20.764 30.72-29.582 23.894-18.489 51.484-31.858 80.214-41.245 32.995-11.093 67.698-16.498 102.4-19.342 40.106-3.413 81.067-3.413 121.173 0.854 36.978 3.982 74.24 11.662 108.942 25.316 30.72 12.231 59.164 29.866 83.911 52.053 6.542 5.689 12.8 11.662 17.635 18.774 4.551 5.974 8.534 12.515 8.534 19.911 0 8.534 0 17.351-2.275 25.885-1.991 9.387-4.551 18.489-6.827 27.591l-2.56 10.24c-9.102 40.106-23.040 79.075-41.813 115.769-15.929 30.72-35.556 60.018-58.596 86.186-21.334 23.894-46.365 46.080-74.809 61.44-15.075 8.534-31.289 15.075-47.786 19.342-8.818 3.413-17.92 5.404-27.022 7.395-2.56 0.284-4.836 0.853-7.111 0.853h-26.738c-3.129 0-5.12 0.285-7.964 0-2.276-0.284-4.836-0.853-7.111-1.138-4.836-0.853-9.387-1.707-13.938-2.845-9.102-1.991-17.92-4.266-26.738-8.249-17.351-6.827-33.565-15.929-48.924-26.738-30.151-20.48-56.32-46.933-78.222-75.947-23.040-30.72-41.814-65.138-56.035-100.978-15.36-38.115-25.885-77.938-32.426-118.613-0.853-5.12-1.991-10.524-1.991-15.075v-9.102c0-1.422 0-2.276 0.853-3.413 0.285-0.569 0.853-1.707 1.422-1.707z" />
<glyph unicode="&#xf15c;" glyph-name="basket" horiz-adv-x="683" d="M156.445-85.333c-22.186 0-41.529 12.8-50.916 31.289l-74.24 269.084-2.845 12.515c0 15.644 12.8 28.445 28.445 28.445h130.275l130.845 186.88c5.12 7.395 13.654 12.231 23.325 12.231s18.489-4.836 23.609-12.515l130.56-186.596h130.276c15.644 0 28.444-12.8 28.444-28.445l-1.138-8.249-75.947-273.351c-9.386-18.489-28.729-31.289-50.915-31.289h-369.778zM341.334 377.173l-85.334-121.173h170.667l-85.334 121.173zM341.334 142.222c-31.289 0-56.889-25.6-56.889-56.889s25.6-56.889 56.889-56.889 56.889 25.6 56.889 56.889-25.6 56.889-56.889 56.889z" />
<glyph unicode="&#xf15d;" glyph-name="basket-fill" horiz-adv-x="683" d="M85.334 455.111h85.334v-85.333h-85.334v85.333zM170.667 312.889h85.333v-85.334h-85.334v85.334zM227.555 455.111h85.334v-85.333h-85.334v85.333zM483.555 199.111l-142.222 142.222h85.334v113.778h113.778v-113.778h85.333l-142.222-142.222zM213.333-113.778c-22.186 0-41.529 12.8-50.916 31.289l-74.24 212.196-2.844 12.515c0 15.644 12.8 28.445 28.445 28.445h455.111c15.644 0 28.444-12.8 28.444-28.445l-1.138-8.249-75.947-216.462c-9.387-18.489-28.729-31.289-50.916-31.289h-256zM216.462-56.889h249.742l62.009 170.667h-374.045l62.293-170.667z" />
<glyph unicode="&#xf15e;" glyph-name="basket-unfill" horiz-adv-x="683" d="M85.334 227.555h85.334v85.334h-85.334v-85.334zM142.222 369.778h85.333v85.333h-85.334v-85.333zM227.555 227.555h85.334v85.334h-85.334v-85.334zM483.555 483.555l-142.222-142.222h85.334v-113.778h113.778v113.778h85.333l-142.222 142.222zM213.333-113.778c-22.186 0-41.529 12.8-50.916 31.289l-74.24 212.196-2.844 12.515c0 15.644 12.8 28.445 28.445 28.445h455.111c15.644 0 28.444-12.8 28.444-28.445l-1.138-8.249-75.947-216.462c-9.387-18.489-28.729-31.289-50.916-31.289h-256zM216.462-56.889h249.742l62.009 170.667h-374.045l62.293-170.667z" />
<glyph unicode="&#xf15f;" glyph-name="battery" horiz-adv-x="683" d="M474.169 398.222h-47.502v56.889h-170.666v-56.889h-47.502c-20.764 0-37.831-17.067-37.831-37.831v-436.338c0-20.764 17.066-37.831 37.831-37.831h265.671c20.764 0 37.831 17.067 37.831 37.831v436.338c0 20.764-17.067 37.831-37.831 37.831z" />
<glyph unicode="&#xf160;" glyph-name="battery-20" horiz-adv-x="683" d="M455.111 28.445h-227.555v312.889h227.555zM474.169 398.222h-47.502v56.889h-170.666v-56.889h-47.502c-20.764 0-37.831-17.067-37.831-37.831v-436.338c0-20.764 17.066-37.831 37.831-37.831h265.671c20.764 0 37.831 17.067 37.831 37.831v436.338c0 20.764-17.067 37.831-37.831 37.831z" />
<glyph unicode="&#xf161;" glyph-name="battery-30" horiz-adv-x="683" d="M455.111 85.334h-227.555v256h227.555zM474.169 398.222h-47.502v56.889h-170.666v-56.889h-47.502c-20.764 0-37.831-17.067-37.831-37.831v-436.338c0-20.764 17.066-37.831 37.831-37.831h265.671c20.764 0 37.831 17.067 37.831 37.831v436.338c0 20.764-17.067 37.831-37.831 37.831z" />
<glyph unicode="&#xf162;" glyph-name="battery-40" horiz-adv-x="683" d="M455.111 142.222h-227.555v199.111h227.555zM474.169 398.222h-47.502v56.889h-170.666v-56.889h-47.502c-20.764 0-37.831-17.067-37.831-37.831v-436.338c0-20.764 17.066-37.831 37.831-37.831h265.671c20.764 0 37.831 17.067 37.831 37.831v436.338c0 20.764-17.067 37.831-37.831 37.831z" />
<glyph unicode="&#xf163;" glyph-name="battery-60" horiz-adv-x="683" d="M455.111 199.111h-227.555v142.222h227.555zM474.169 398.222h-47.502v56.889h-170.666v-56.889h-47.502c-20.764 0-37.831-17.067-37.831-37.831v-436.338c0-20.764 17.066-37.831 37.831-37.831h265.671c20.764 0 37.831 17.067 37.831 37.831v436.338c0 20.764-17.067 37.831-37.831 37.831z" />
<glyph unicode="&#xf164;" glyph-name="battery-80" horiz-adv-x="683" d="M455.111 256h-227.555v85.334h227.555zM474.169 398.222h-47.502v56.889h-170.666v-56.889h-47.502c-20.764 0-37.831-17.067-37.831-37.831v-436.338c0-20.764 17.066-37.831 37.831-37.831h265.671c20.764 0 37.831 17.067 37.831 37.831v436.338c0 20.764-17.067 37.831-37.831 37.831z" />
<glyph unicode="&#xf165;" glyph-name="battery-90" horiz-adv-x="683" d="M455.111 284.445h-227.555v56.889h227.555zM474.169 398.222h-47.502v56.889h-170.666v-56.889h-47.502c-20.764 0-37.831-17.067-37.831-37.831v-436.338c0-20.764 17.066-37.831 37.831-37.831h265.671c20.764 0 37.831 17.067 37.831 37.831v436.338c0 20.764-17.067 37.831-37.831 37.831z" />
<glyph unicode="&#xf166;" glyph-name="battery-alert" horiz-adv-x="683" d="M369.778 113.778h-56.889v142.222h56.889zM369.778 0h-56.889v56.889h56.889zM474.169 398.222h-47.502v56.889h-170.666v-56.889h-47.502c-20.764 0-37.831-17.067-37.831-37.831v-436.338c0-20.764 17.066-37.831 37.831-37.831h265.671c20.764 0 37.831 17.067 37.831 37.831v436.338c0 20.764-17.067 37.831-37.831 37.831z" />
<glyph unicode="&#xf167;" glyph-name="battery-charging-100" horiz-adv-x="683" d="M654.222 199.111h-85.333v199.111l-142.222-284.445h85.333v-227.555zM360.391 398.222h-47.502v56.889h-170.667v-56.889h-47.502c-20.764 0-37.831-17.067-37.831-37.831v-436.338c0-20.764 17.067-37.831 37.831-37.831h265.671c20.764 0 37.831 17.067 37.831 37.831v436.338c0 20.764-17.067 37.831-37.831 37.831z" />
<glyph unicode="&#xf168;" glyph-name="battery-charging-20" horiz-adv-x="683" d="M655.644 199.111h-85.333v199.111l-142.222-284.445h85.333v-227.555zM342.755 28.445h-227.555v312.889h227.555zM361.813 398.222h-47.502v56.889h-170.667v-56.889h-47.502c-20.764 0-37.831-17.067-37.831-37.831v-436.338c0-20.764 17.067-37.831 37.831-37.831h265.671c20.764 0 37.831 17.067 37.831 37.831v436.338c0 20.764-17.067 37.831-37.831 37.831z" />
<glyph unicode="&#xf169;" glyph-name="battery-charging-30" horiz-adv-x="683" d="M341.334 85.334h-227.555v256h227.555zM360.391 398.222h-47.502v56.889h-170.667v-56.889h-47.502c-20.764 0-37.831-17.067-37.831-37.831v-436.338c0-20.764 17.067-37.831 37.831-37.831h265.671c20.764 0 37.831 17.067 37.831 37.831v436.338c0 20.764-17.067 37.831-37.831 37.831zM654.222 199.111h-85.333v199.111l-142.222-284.445h85.333v-227.555l142.222 312.889z" />
<glyph unicode="&#xf16a;" glyph-name="battery-charging-40" horiz-adv-x="683" d="M654.222 199.111h-85.333v199.111l-142.222-284.445h85.333v-227.555zM341.334 142.222h-227.555v199.111h227.555zM360.391 398.222h-47.502v56.889h-170.667v-56.889h-47.502c-20.764 0-37.831-17.067-37.831-37.831v-436.338c0-20.764 17.067-37.831 37.831-37.831h265.671c20.764 0 37.831 17.067 37.831 37.831v436.338c0 20.764-17.067 37.831-37.831 37.831z" />
<glyph unicode="&#xf16b;" glyph-name="battery-charging-60" horiz-adv-x="683" d="M341.334 199.111h-227.555v142.222h227.555zM360.391 398.222h-47.502v56.889h-170.667v-56.889h-47.502c-20.764 0-37.831-17.067-37.831-37.831v-436.338c0-20.764 17.067-37.831 37.831-37.831h265.671c20.764 0 37.831 17.067 37.831 37.831v436.338c0 20.764-17.067 37.831-37.831 37.831zM654.222 199.111h-85.333v199.111l-142.222-284.445h85.333v-227.555l142.222 312.889z" />
<glyph unicode="&#xf16c;" glyph-name="battery-charging-80" horiz-adv-x="683" d="M654.222 199.111h-85.333v199.111l-142.222-284.445h85.333v-227.555zM341.334 256h-227.555v85.334h227.555zM360.391 398.222h-47.502v56.889h-170.667v-56.889h-47.502c-20.764 0-37.831-17.067-37.831-37.831v-436.338c0-20.764 17.067-37.831 37.831-37.831h265.671c20.764 0 37.831 17.067 37.831 37.831v436.338c0 20.764-17.067 37.831-37.831 37.831z" />
<glyph unicode="&#xf16d;" glyph-name="battery-charging-90" horiz-adv-x="683" d="M654.222 199.111h-85.333v199.111l-142.222-284.445h85.333v-227.555zM341.334 284.445h-227.555v56.889h227.555zM360.391 398.222h-47.502v56.889h-170.667v-56.889h-47.502c-20.764 0-37.831-17.067-37.831-37.831v-436.338c0-20.764 17.067-37.831 37.831-37.831h265.671c20.764 0 37.831 17.067 37.831 37.831v436.338c0 20.764-17.067 37.831-37.831 37.831z" />
<glyph unicode="&#xf16e;" glyph-name="battery-minus" horiz-adv-x="683" d="M474.169 398.222c20.764 0 37.831-17.067 37.831-37.831v-436.338c0-20.764-17.067-37.831-37.831-37.831h-265.671c-20.764 0-37.831 17.067-37.831 37.831v436.338c0 20.764 17.066 37.831 37.831 37.831h47.502v56.889h170.667v-56.889h47.502zM227.555 170.666v-56.889h227.555v56.889z" />
<glyph unicode="&#xf16f;" glyph-name="battery-negative" horiz-adv-x="683" d="M331.947 398.222c20.764 0 37.831-17.067 37.831-37.831v-436.338c0-20.764-17.067-37.831-37.831-37.831h-265.671c-20.764 0-37.831 17.067-37.831 37.831v436.338c0 20.764 17.067 37.831 37.831 37.831h47.502v56.889h170.667v-56.889h47.502zM426.666 170.666h227.555v-56.889h-227.555v56.889zM85.334 142.222h227.555v199.111h-227.555v-199.111z" />
<glyph unicode="&#xf170;" glyph-name="battery-outline" horiz-adv-x="683" d="M455.111-56.889h-227.555v398.222h227.555zM474.169 398.222h-47.502v56.889h-170.666v-56.889h-47.502c-20.764 0-37.831-17.067-37.831-37.831v-436.338c0-20.764 17.066-37.831 37.831-37.831h265.671c20.764 0 37.831 17.067 37.831 37.831v436.338c0 20.764-17.067 37.831-37.831 37.831z" />
<glyph unicode="&#xf171;" glyph-name="battery-plus" horiz-adv-x="683" d="M474.169 398.222c20.764 0 37.831-17.067 37.831-37.831v-436.338c0-20.764-17.067-37.831-37.831-37.831h-265.671c-20.764 0-37.831 17.067-37.831 37.831v436.338c0 20.764 17.066 37.831 37.831 37.831h47.502v56.889h170.667v-56.889h47.502zM455.111 113.778v56.889h-85.334v85.334h-56.889v-85.334h-85.334v-56.889h85.334v-85.334h56.889v85.334h85.334z" />
<glyph unicode="&#xf172;" glyph-name="battery-positive" horiz-adv-x="683" d="M331.947 398.222c20.764 0 37.831-17.067 37.831-37.831v-436.338c0-20.764-17.067-37.831-37.831-37.831h-265.671c-20.764 0-37.831 17.067-37.831 37.831v436.338c0 20.764 17.067 37.831 37.831 37.831h47.502v56.889h170.667v-56.889h47.502zM654.222 113.778h-85.333v-85.334h-56.889v85.334h-85.334v56.889h85.334v85.334h56.889v-85.334h85.333v-56.889zM85.334 142.222h227.555v199.111h-227.555v-199.111z" />
<glyph unicode="&#xf173;" glyph-name="battery-unknown" horiz-adv-x="683" d="M428.658 163.555l-25.6-26.169c-15.36-15.36-26.169-28.729-30.72-52.053h-58.026c3.129 25.6 14.507 48.925 31.858 66.276l35.271 35.84c10.524 10.24 16.782 24.462 16.782 40.106 0 31.573-25.6 56.889-56.889 56.889s-56.889-25.6-56.889-56.889h-56.889c0 62.862 50.916 113.778 113.778 113.778s113.778-50.916 113.778-113.778c0-25.031-10.24-47.786-26.454-64zM369.778-28.444h-56.889v56.889h56.889zM474.169 398.222h-47.502v56.889h-170.666v-56.889h-47.502c-20.764 0-37.831-17.067-37.831-37.831v-436.053c0-21.049 17.066-38.115 37.831-38.115h265.671c20.764 0 37.831 17.067 37.831 38.115v436.053c0 21.049-17.067 37.831-37.831 37.831z" />
<glyph unicode="&#xf174;" glyph-name="beach" horiz-adv-x="683" d="M426.666-15.36c60.587 9.386 128 15.36 199.111 15.36v-113.778h-483.555c0 18.489 91.022 60.871 227.555 88.178v184.889c-23.894-7.111-44.089-23.040-56.889-44.089-17.351 29.014-49.209 48.356-85.334 48.356s-67.982-19.342-85.334-48.356c0.853 101.831 99.555 185.458 227.555 196.551v1.138c0 15.644 12.8 28.444 28.445 28.444s28.445-12.8 28.445-28.444v-1.138c128-11.094 226.418-94.72 227.555-196.551-17.351 29.014-49.209 48.356-85.333 48.356s-67.982-19.342-85.334-48.356c-12.8 21.049-32.995 36.978-56.889 44.373v-174.933zM199.111 455.111c0-78.506-63.715-142.222-142.222-142.222v142.222h142.222z" />
<glyph unicode="&#xf175;" glyph-name="beaker" horiz-adv-x="683" d="M170.667-113.778c-47.218 0-85.334 38.115-85.334 85.333 0 17.067 5.12 32.995 14.222 46.365l156.445 271.929v51.485c-15.644 0-28.445 12.8-28.445 28.444v28.445c0 31.289 25.6 56.889 56.889 56.889h113.778c31.289 0 56.889-25.6 56.889-56.889v-28.445c0-15.644-12.8-28.444-28.445-28.444v-51.485l156.445-271.929c9.102-13.369 14.222-29.298 14.222-46.365 0-47.218-38.115-85.333-85.334-85.333h-341.334zM142.222-28.444c0-15.644 12.8-28.444 28.445-28.444h341.333c15.644 0 28.444 12.8 28.444 28.444 0 5.973-1.991 11.662-5.12 16.213l-65.138 112.64-71.964-71.964-144.214 144.214-106.666-184.889c-3.129-4.551-5.12-10.24-5.12-16.213zM369.778 227.555c-15.644 0-28.445-12.8-28.445-28.445s12.8-28.445 28.445-28.445 28.445 12.8 28.445 28.445-12.8 28.445-28.445 28.445z" />
<glyph unicode="&#xf176;" glyph-name="beaker-empty" horiz-adv-x="683" d="M170.667-113.778c-47.218 0-85.334 38.115-85.334 85.333 0 17.067 5.12 32.995 14.222 46.365l156.445 271.929v51.485c-15.644 0-28.445 12.8-28.445 28.444v28.445c0 31.289 25.6 56.889 56.889 56.889h113.778c31.289 0 56.889-25.6 56.889-56.889v-28.445c0-15.644-12.8-28.444-28.445-28.444v-51.485l156.445-271.929c9.102-13.369 14.222-29.298 14.222-46.365 0-47.218-38.115-85.333-85.334-85.333h-341.334z" />
<glyph unicode="&#xf177;" glyph-name="beaker-empty-outline" horiz-adv-x="683" d="M142.222-28.444c0-15.644 12.8-28.444 28.445-28.444h341.333c15.644 0 28.444 12.8 28.444 28.444 0 5.973-1.991 11.662-5.12 16.213l-165.547 286.72v123.733h-56.889v-123.733l-165.547-286.72c-3.129-4.551-5.12-10.24-5.12-16.213zM170.667-113.778c-47.218 0-85.334 38.115-85.334 85.333 0 17.067 5.12 32.995 14.222 46.365l156.445 271.929v51.485c-15.644 0-28.445 12.8-28.445 28.444v28.445c0 31.289 25.6 56.889 56.889 56.889h113.778c31.289 0 56.889-25.6 56.889-56.889v-28.445c0-15.644-12.8-28.444-28.445-28.444v-51.485l156.445-271.929c9.102-13.369 14.222-29.298 14.222-46.365 0-47.218-38.115-85.333-85.334-85.333h-341.334z" />
<glyph unicode="&#xf178;" glyph-name="beaker-outline" horiz-adv-x="683" d="M142.222-28.444c0-15.644 12.8-28.444 28.445-28.444h341.333c15.644 0 28.444 12.8 28.444 28.444 0 5.973-1.991 11.662-5.12 16.213l-165.547 286.72v123.733h-56.889v-123.733l-165.547-286.72c-3.129-4.551-5.12-10.24-5.12-16.213zM170.667-113.778c-47.218 0-85.334 38.115-85.334 85.333 0 17.067 5.12 32.995 14.222 46.365l156.445 271.929v51.485c-15.644 0-28.445 12.8-28.445 28.444v28.445c0 31.289 25.6 56.889 56.889 56.889h113.778c31.289 0 56.889-25.6 56.889-56.889v-28.445c0-15.644-12.8-28.444-28.445-28.444v-51.485l156.445-271.929c9.102-13.369 14.222-29.298 14.222-46.365 0-47.218-38.115-85.333-85.334-85.333h-341.334zM369.778 56.889l38.115 38.115 54.898-95.005h-242.916l75.662 131.129 74.24-74.24zM355.555 170.666c7.964 0 14.222-6.258 14.222-14.222s-6.258-14.222-14.222-14.222-14.222 6.258-14.222 14.222 6.258 14.222 14.222 14.222z" />
<glyph unicode="&#xf179;" glyph-name="beats" horiz-adv-x="683" d="M199.111 170.666c0-78.507 63.716-142.222 142.222-142.222s142.222 63.716 142.222 142.222-63.716 142.222-142.222 142.222c-32.142 0-61.44-10.524-85.334-28.444v157.582c27.022 8.533 55.466 13.084 85.334 13.084 157.014 0 284.444-127.431 284.444-284.444s-127.431-284.445-284.445-284.445-284.445 127.431-284.445 284.445c0 105.245 56.889 197.12 142.222 246.329v-246.329zM412.445 170.666c0-10.524-5.689-19.342-14.222-24.462l-53.76-40.675c-4.836-3.698-10.809-5.974-17.351-5.974-15.644 0-28.445 12.8-28.445 28.445v85.334c0 15.644 12.8 28.445 28.445 28.445 6.542 0 12.515-2.276 17.351-5.974l53.76-40.675c8.534-5.12 14.222-13.938 14.222-24.462z" />
<glyph unicode="&#xf17a;" glyph-name="beer" horiz-adv-x="683" d="M113.778 455.111h426.666l-56.889-568.889h-312.889l-56.889 568.889zM176.356 398.222l45.511-455.111h28.445l-38.969 388.551c30.435 9.671 69.974 12.8 101.547-18.774 44.373-44.373 123.164-19.627 156.445-6.542l8.534 91.875h-301.511z" />
<glyph unicode="&#xf17b;" glyph-name="behance" horiz-adv-x="683" d="M556.942 162.986c-1.138 17.635-7.111 31.005-17.635 40.106s-23.609 13.654-39.254 13.654c-16.498 0-30.72-4.836-39.538-14.507-9.387-9.671-15.36-22.755-17.635-39.253zM623.502 169.529c2.275-11.662 2.275-28.445 2.275-50.346h-184.889c1.422-25.6 9.956-43.236 26.738-53.476 9.955-6.542 22.187-9.671 36.694-9.671 15.076 0 27.307 3.982 36.125 11.662 5.689 4.267 10.24 9.956 14.222 17.635h67.698c-1.707-15.36-9.956-30.435-25.031-46.080-22.187-25.031-54.044-36.978-95.005-36.978-33.849 0-63.431 10.524-89.885 31.289-25.031 20.764-38.115 54.613-38.115 101.546 0 44.089 11.662 78.222 34.986 100.978 23.325 23.609 53.476 35.271 90.738 35.271 21.902 0 41.814-3.982 59.449-11.947s32.427-20.195 43.804-37.546c10.524-15.075 17.067-32.426 20.196-52.338zM272.498 111.786c0 18.489-7.68 31.289-22.471 38.115-8.249 3.698-20.196 5.689-35.555 6.542h-75.947v-95.005h74.809c15.36 0 27.306 1.991 35.84 6.258 15.644 7.68 23.325 22.471 23.325 44.089zM138.524 214.471h74.809c15.36 0 28.445 2.844 37.547 8.818 9.671 5.689 14.222 16.214 14.222 31.005 0 15.929-6.258 27.307-18.774 32.711-11.094 3.698-25.031 5.404-41.814 5.404h-65.991zM333.369 158.72c9.102-14.222 13.654-31.574 13.654-51.769 0-21.618-5.689-39.822-15.644-56.605-6.827-11.094-15.075-20.195-25.031-27.875-11.378-8.249-24.747-14.507-40.106-17.635s-31.858-4.836-49.778-4.836h-159.573v354.134h170.667c43.52-0.853 73.956-12.8 91.876-37.831 10.809-15.076 16.214-32.995 16.214-54.044 0-21.618-5.404-38.969-16.214-52.054-6.542-7.396-15.075-14.222-27.022-20.195 17.92-6.542 31.574-17.067 40.96-31.289zM570.596 303.786h-142.506v35.555h142.506v-35.555z" />
<glyph unicode="&#xf17c;" glyph-name="bell" horiz-adv-x="683" d="M398.222-56.889c0-31.289-25.6-56.889-56.889-56.889s-56.889 25.6-56.889 56.889h113.778zM341.334 455.111c15.644 0 28.445-12.8 28.445-28.445v-30.72c80.782-13.654 142.222-83.911 142.222-168.391v-170.666l85.333-85.333h-512l85.334 85.334v170.666c0 84.48 61.44 154.738 142.222 168.391v30.72c0 15.644 12.8 28.445 28.445 28.445z" />
<glyph unicode="&#xf17d;" glyph-name="bell-off" horiz-adv-x="683" d="M398.222-56.889c0-31.289-25.6-56.889-56.889-56.889s-56.889 25.6-56.889 56.889h113.778zM561.494-101.547l-73.102 73.102h-403.058l85.334 85.334v170.666c0 18.489 2.845 36.409 8.534 53.191l-80.498 80.498 40.391 40.106 462.507-462.507-40.106-40.391zM312.889 395.947v30.72c0 15.645 12.8 28.445 28.445 28.445s28.445-12.8 28.445-28.445v-30.72c80.782-13.654 142.222-83.911 142.222-168.391v-118.613l-262.542 262.542c19.058 12.516 40.391 20.48 63.431 24.462z" />
<glyph unicode="&#xf17e;" glyph-name="bell-outline" horiz-adv-x="683" d="M455.111 28.445h-256v184.889c0 71.111 56.889 128 128 128s128-56.889 128-128zM512 56.889v156.445c0 87.325-60.871 160.426-142.222 179.769v19.342c0 23.609-19.058 42.666-42.666 42.666s-42.666-19.058-42.666-42.666v-19.342c-81.635-19.342-142.222-92.445-142.222-179.769v-156.445l-56.889-56.889v-28.444h483.555v28.445zM327.111-113.778c31.289 0 56.889 25.6 56.889 56.889h-113.778c0-31.289 25.6-56.889 56.889-56.889z" />
<glyph unicode="&#xf17f;" glyph-name="bell-ring" horiz-adv-x="683" d="M327.111-113.778c3.982 0 7.68 0 11.378 1.138 18.489 3.982 33.849 16.498 40.96 33.564 2.844 6.827 4.551 14.506 4.551 22.187h-113.778c0-31.289 25.6-56.889 56.889-56.889zM512 213.334c0 87.325-60.871 160.426-142.222 179.769v19.342c0 23.609-19.058 42.666-42.666 42.666s-42.666-19.058-42.666-42.666v-19.342c-81.635-19.342-142.222-92.445-142.222-179.769v-156.445l-56.889-56.889v-28.444h483.555v28.445l-56.889 56.889zM568.035 227.555h56.889c-4.266 91.306-49.209 171.52-117.191 223.289l-40.675-40.675c58.026-40.391 96.711-107.236 100.978-182.613zM187.165 410.169l-40.675 40.675c-67.982-51.769-112.924-131.982-118.044-223.289h56.889c5.12 75.378 43.804 142.222 101.831 182.613z" />
<glyph unicode="&#xf180;" glyph-name="bell-ring-outline" horiz-adv-x="683" d="M455.111 28.445v184.889c0 71.111-56.889 128-128 128s-128-56.889-128-128v-184.889h256zM512 56.889l56.889-56.889v-28.444h-483.555v28.445l56.889 56.889v156.445c0 87.325 60.587 160.427 142.222 179.769v19.342c0 23.609 19.058 42.666 42.666 42.666s42.666-19.058 42.666-42.666v-19.342c81.351-19.342 142.222-92.445 142.222-179.769v-156.445zM327.111-113.778c-31.289 0-56.889 25.6-56.889 56.889h113.778c0-31.289-25.6-56.889-56.889-56.889zM568.035 227.555c-4.266 75.378-42.951 142.222-100.978 182.613l40.675 40.675c67.982-51.769 112.924-131.982 117.191-223.289h-56.889zM187.165 410.169c-58.026-40.391-96.711-107.236-101.831-182.613h-56.889c5.12 91.306 50.062 171.52 118.044 223.289l40.675-40.675z" />
<glyph unicode="&#xf181;" glyph-name="bell-sleep" horiz-adv-x="683" d="M398.222 233.245l-79.644-96.711h79.644v-51.2h-142.222v51.2l79.645 96.711h-79.644v51.2h142.222zM512 56.889v156.445c0 87.325-60.871 160.426-142.222 179.769v19.342c0 23.609-19.058 42.666-42.666 42.666s-42.666-19.058-42.666-42.666v-19.342c-81.635-19.342-142.222-92.445-142.222-179.769v-156.445l-56.889-56.889v-28.444h483.555v28.445zM327.111-113.778c31.289 0 56.889 25.6 56.889 56.889h-113.778c0-31.289 25.6-56.889 56.889-56.889z" />
<glyph unicode="&#xf182;" glyph-name="beta" horiz-adv-x="683" d="M262.542 11.662v-157.298h-66.844v466.489c0 41.245 12.231 73.671 36.409 97.849 23.893 24.178 57.173 36.409 98.134 36.409 39.538 0 69.974-9.671 92.729-28.444 22.471-19.342 33.565-46.080 33.565-79.929 0-23.325-7.396-45.226-22.187-65.422s-33.849-34.134-57.458-41.814v-1.138c35.555-5.689 63.147-18.489 81.92-39.254 18.774-20.195 28.16-46.080 28.16-77.938 0-37.546-13.084-68.267-38.969-91.875-26.169-23.609-60.302-35.271-102.969-35.271-30.151 0-57.742 5.973-82.489 17.635zM304.925 206.222v54.613c24.747 3.129 44.942 12.231 61.156 27.591 15.929 15.644 23.894 32.995 23.894 52.906 0 39.254-20.195 59.164-60.018 59.164-21.618 0-38.4-6.826-50.062-20.764s-17.351-33.28-17.351-58.595v-250.026c25.885-15.075 51.2-22.471 75.662-22.471 23.894 0 42.666 6.258 56.036 18.489 13.369 12.515 19.911 30.151 19.911 52.622 0 50.916-36.409 79.36-109.226 86.471z" />
<glyph unicode="&#xf183;" glyph-name="bike" horiz-adv-x="683" d="M142.222-71.111c-54.898 0-99.555 44.658-99.555 99.555s44.658 99.555 99.555 99.555 99.555-44.658 99.555-99.555-44.658-99.555-99.555-99.555zM142.222 170.666c-78.507 0-142.222-63.716-142.222-142.222s63.715-142.222 142.222-142.222 142.222 63.716 142.222 142.222-63.715 142.222-142.222 142.222zM420.978 227.555h119.467v51.2h-91.022l-55.182 93.014c-8.249 14.222-24.462 23.609-41.529 23.609-13.369 0-25.6-5.404-34.133-14.222l-105.245-104.96c-8.818-8.818-14.222-20.195-14.222-34.418 0-17.92 9.387-32.995 24.178-41.813l95.289-57.742v-142.222h51.2v184.889l-64 46.933 65.991 66.844zM540.444-71.111c-54.898 0-99.555 44.658-99.555 99.555s44.658 99.555 99.555 99.555 99.556-44.658 99.556-99.555-44.658-99.555-99.555-99.555zM540.444 170.666c-78.507 0-142.222-63.716-142.222-142.222s63.716-142.222 142.222-142.222 142.222 63.716 142.222 142.222-63.716 142.222-142.222 142.222zM455.111 375.466c28.445 0 51.2 22.755 51.2 51.2s-22.755 51.2-51.2 51.2-51.2-22.755-51.2-51.2 22.755-51.2 51.2-51.2z" />
<glyph unicode="&#xf184;" glyph-name="bing" horiz-adv-x="683" d="M142.222-1.991l275.342 149.333-76.231 36.693-46.365 106.098 245.476-79.644v-119.466l-285.298-172.658-112.924 79.644v424.96l113.778-38.969v-284.445l-113.778-101.546z" />
<glyph unicode="&#xf185;" glyph-name="binoculars" horiz-adv-x="683" d="M312.889 341.333h56.889v-199.111h-56.889v199.111zM256-56.889c0-15.644-12.8-28.444-28.445-28.444h-85.334c-15.644 0-28.445 12.8-28.445 28.444v142.222l56.889 256h113.778v-199.111c0-15.644-12.8-28.445-28.445-28.445v-170.666zM284.445 369.778h-85.334v56.889h85.334v-56.889zM426.666-56.889v170.667c-15.644 0-28.445 12.8-28.445 28.445v199.111h113.778l56.889-256v-142.222c0-15.644-12.8-28.444-28.444-28.444h-85.334c-15.644 0-28.445 12.8-28.445 28.444zM398.222 369.778v56.889h85.334v-56.889h-85.334z" />
<glyph unicode="&#xf186;" glyph-name="bio" horiz-adv-x="683" d="M483.555 170.666h85.334c31.289 0 56.889-25.6 56.889-56.889v-85.334c0-31.289-25.6-56.889-56.889-56.889h-85.334c-31.289 0-56.889 25.6-56.889 56.889v85.334c0 31.289 25.6 56.889 56.889 56.889zM483.555 113.778v-85.334h85.334v85.334h-85.334zM56.889 312.889h142.222c31.289 0 56.889-25.6 56.889-56.889v-56.889c0-31.289-25.6-56.889-56.889-56.889 31.289 0 56.889-25.6 56.889-56.889v-56.889c0-31.289-25.6-56.889-56.889-56.889h-142.222v341.334zM113.778 256v-85.334h85.334v85.334h-85.334zM113.778 28.445h85.334v85.334h-85.334v-85.334zM312.889 142.222h56.889v-170.667h-56.889v170.667zM312.889 256h56.889v-56.889h-56.889v56.889z" />
<glyph unicode="&#xf187;" glyph-name="biohazard" horiz-adv-x="683" d="M654.222 55.182c0-6.542 0-12.515-1.138-18.204-5.12 72.818-65.991 130.56-141.084 130.56-10.524 0-20.764-1.422-30.72-3.413 1.138-7.68 2.276-14.222 2.276-21.902 0-66.844-48.071-122.88-111.786-136.818 9.956-63.716 63.716-113.209 130.275-118.044-6.258-1.138-12.231-1.138-18.489-1.138-59.164 0-111.786 30.151-142.222 75.662-30.435-45.511-82.774-75.662-142.222-75.662-6.258 0-12.231 0-18.489 1.138 66.56 4.836 120.036 54.044 130.275 118.044-64 13.938-111.786 69.974-111.786 136.818 0 7.68 1.138 14.222 1.991 21.902-9.671 1.991-19.911 3.413-30.435 3.413-75.094 0-135.964-57.742-141.369-130.56-0.854 5.689-0.854 11.662-0.854 18.204 0 91.306 73.671 165.546 165.262 168.391-14.506 24.747-23.040 53.76-23.040 84.48 0 63.431 34.987 118.613 87.040 147.058-35.555-25.6-58.596-66.56-58.596-113.778 0-38.4 15.929-73.671 41.814-99.555 25.884 25.885 61.155 41.529 100.409 41.529 38.969 0 74.524-15.644 99.555-41.529 26.454 25.885 42.666 61.156 42.666 99.555 0 47.218-23.325 88.178-58.596 113.778 52.053-28.445 87.040-83.627 87.040-147.058 0-30.72-8.534-59.733-23.040-84.48 91.875-2.844 165.262-77.084 165.262-168.391zM263.68 224.426c22.187-14.507 49.209-23.040 77.654-23.040s55.466 8.534 77.654 23.040c-20.764 18.774-47.502 30.72-77.654 30.72s-56.889-11.947-77.654-30.72zM341.334 100.409c23.325 0 42.666 19.058 42.666 41.813 0 23.609-19.058 42.666-42.666 42.666s-42.666-19.058-42.666-42.666c0-22.755 19.058-41.813 42.666-41.813zM312.036 34.418c-2.844 53.76-35.84 99.555-83.058 120.605-0.569-4.267-1.422-8.249-1.422-12.8 0-51.769 36.124-95.005 84.48-107.805zM453.974 155.022c-47.502-21.049-80.782-66.844-84.195-120.604 49.209 12.8 85.334 56.036 85.334 107.805 0 4.551-0.853 8.534-1.138 12.8z" />
<glyph unicode="&#xf188;" glyph-name="black-mesa" horiz-adv-x="683" d="M341.334 455.111c157.013 0 284.445-127.431 284.445-284.445s-127.431-284.445-284.445-284.445-284.445 127.431-284.445 284.445 127.431 284.445 284.445 284.445zM341.334 398.222c-125.725 0-227.555-101.831-227.555-227.555 0-67.982 29.867-128.853 77.084-170.666h65.138v170.667h227.555l61.156-102.115c15.36 31.005 24.178 65.422 24.178 102.115 0 125.725-101.831 227.555-227.555 227.555z" />
<glyph unicode="&#xf189;" glyph-name="blackberry" horiz-adv-x="683" d="M155.022 219.591c27.022 0 58.311-21.902 58.311-48.925s-31.289-48.925-58.311-48.925h-98.133l19.626 97.849h78.507zM174.649 376.605c27.022 0 58.88-21.902 58.88-49.494 0-26.453-31.858-48.64-58.88-48.64h-98.133l19.626 98.134h78.507zM370.631 376.605c27.591 0 58.88-21.902 58.88-49.494 0-26.453-31.289-48.64-58.88-48.64h-102.969l19.627 98.134h83.342zM351.005 219.591c27.307 0 58.88-21.902 58.88-48.925s-31.574-48.925-58.88-48.925h-102.969l19.627 97.849h83.342zM312.036 62.862c27.022 0 58.596-22.187 58.596-48.64 0-27.591-31.574-49.493-58.596-49.493h-98.702l20.196 98.134h78.506zM527.644 121.742c27.022 0 58.88-22.187 58.88-49.209s-31.858-48.925-58.88-48.925h-98.134l19.627 98.133h78.507zM566.898 278.471c27.022 0 58.88-22.471 58.88-48.925 0-27.022-31.858-49.209-58.88-49.209h-97.565l19.058 98.134h78.507z" />
<glyph unicode="&#xf18a;" glyph-name="blinds" horiz-adv-x="683" d="M85.334 455.111h512c15.644 0 28.444-12.8 28.444-28.445v-56.889c0-15.644-12.8-28.445-28.444-28.445h-28.444v-199.111c0-15.644-12.8-28.445-28.444-28.445h-170.667v-61.724c33.28-11.662 56.889-43.236 56.889-80.498 0-47.218-38.115-85.333-85.334-85.333s-85.334 38.115-85.334 85.333c0 37.262 23.609 68.836 56.889 80.498v61.724h-170.667c-15.644 0-28.445 12.8-28.445 28.445v199.111h-28.445c-15.644 0-28.445 12.8-28.445 28.445v56.889c0 15.644 12.8 28.445 28.445 28.445zM341.334 0c-15.644 0-28.445-12.8-28.445-28.444s12.8-28.444 28.445-28.444 28.445 12.8 28.445 28.444-12.8 28.445-28.445 28.445z" />
<glyph unicode="&#xf18b;" glyph-name="block-helper" horiz-adv-x="683" d="M341.334 512c188.587 0 341.334-152.746 341.334-341.334s-152.746-341.334-341.334-341.334-341.334 152.746-341.334 341.334 152.746 341.334 341.334 341.334zM341.334 455.111c-157.013 0-284.445-127.431-284.445-284.445 0-68.267 24.178-130.844 64.284-180.054l400.214 400.214c-49.209 40.106-111.786 64.284-180.053 64.284zM341.334-113.778c157.013 0 284.445 127.431 284.445 284.445 0 68.267-24.178 130.844-64.284 180.054l-400.214-400.214c49.209-40.106 111.786-64.284 180.054-64.284z" />
<glyph unicode="&#xf18c;" glyph-name="blogger" horiz-adv-x="683" d="M398.222 142.222h-115.2c-15.644 0-28.445-12.8-28.445-28.445s12.8-28.445 28.445-28.445h115.2c15.644 0 28.445 12.8 28.445 28.445s-12.8 28.445-28.445 28.445zM283.022 227.555h73.955c15.644 0 28.445 12.8 28.445 28.445s-12.8 28.445-28.445 28.445h-73.956c-15.644 0-28.445-12.8-28.445-28.445s12.8-28.445 28.445-28.445zM455.111 256v-28.445c0-15.644 12.8-28.445 28.445-28.445s28.445-12.8 28.445-28.445v-85.334c0-47.218-38.115-85.333-85.334-85.333h-170.667c-47.218 0-85.333 38.115-85.333 85.334v199.111c0 47.218 38.115 85.334 85.334 85.334h113.778c47.218 0 85.334-38.115 85.334-85.334zM568.889 455.111h-455.111c-31.573 0-56.889-25.315-56.889-56.889v-455.111c0-31.289 25.6-56.889 56.889-56.889h455.111c31.289 0 56.889 25.6 56.889 56.889v455.111c0 31.573-25.6 56.889-56.889 56.889z" />
<glyph unicode="&#xf18d;" glyph-name="bluetooth" horiz-adv-x="683" d="M423.253 48.64l-53.476-53.476v106.951zM369.778 346.169l53.476-53.475-53.476-53.191zM503.751 292.693l-162.418 162.418h-28.445v-215.609l-130.56 130.276-40.106-40.107 159.005-159.005-159.005-158.72 40.106-40.391 130.56 130.56v-215.893h28.445l162.418 162.418-122.311 122.026 122.311 122.026z" />
<glyph unicode="&#xf18e;" glyph-name="bluetooth-audio" horiz-adv-x="683" d="M366.365 48.64l-53.476-53.476v106.951zM312.889 346.169l53.476-53.475-53.476-53.191zM446.862 292.693l-162.418 162.418h-28.445v-215.609l-130.56 130.276-40.106-40.107 159.005-159.005-159.005-158.72 40.106-40.391 130.56 130.56v-215.893h28.445l162.418 162.418-122.311 122.026zM555.52 321.138l-36.125-36.694c17.92-33.565 28.16-72.534 28.16-113.778s-10.24-80.214-28.16-113.778l34.134-34.702c27.591 43.805 43.804 95.289 43.804 151.040 0 54.329-15.36 104.675-41.813 147.911zM405.049 170.666l65.991-66.276c7.964 20.764 12.515 42.951 12.515 66.275s-4.551 45.511-12.231 65.991l-66.275-65.991z" />
<glyph unicode="&#xf18f;" glyph-name="bluetooth-connect" horiz-adv-x="683" d="M540.444 227.555l-56.889-56.889 56.889-56.889 56.889 56.889zM423.253 48.64l-53.476-53.476v106.951zM369.778 346.169l53.476-53.475-53.476-53.191zM503.751 292.693l-162.418 162.418h-28.445v-215.609l-130.56 130.276-40.106-40.107 159.005-159.005-159.005-158.72 40.106-40.391 130.56 130.56v-215.893h28.445l162.418 162.418-122.311 122.026zM199.111 170.666l-56.889 56.889-56.889-56.889 56.889-56.889 56.889 56.889z" />
<glyph unicode="&#xf190;" glyph-name="bluetooth-settings" horiz-adv-x="683" d="M423.253 105.529l-53.476-53.476v106.951l53.476-53.476zM369.778 403.058l53.476-53.476-53.476-53.475zM503.751 349.582l-162.418 162.418h-28.445v-215.894l-130.56 130.56-40.106-40.107 159.005-159.005-159.005-159.005 40.106-40.106 130.56 130.56v-215.894h28.445l162.418 162.418-122.311 122.026 122.311 122.026zM426.666-170.667h56.889v56.889h-56.889zM199.111-170.667h56.889v56.889h-56.889zM312.889-170.667h56.889v56.889h-56.889v-56.889z" />
<glyph unicode="&#xf191;" glyph-name="blur" horiz-adv-x="683" d="M398.222 270.222c-23.609 0-42.666-19.058-42.666-42.666s19.058-42.666 42.666-42.666 42.666 19.058 42.666 42.666-19.058 42.666-42.666 42.666zM398.222 156.445c-23.609 0-42.666-19.058-42.666-42.666s19.058-42.666 42.666-42.666 42.666 19.058 42.666 42.666-19.058 42.666-42.666 42.666zM284.445 28.445c-15.644 0-28.445-12.8-28.445-28.445s12.8-28.444 28.445-28.444 28.445 12.8 28.445 28.445-12.8 28.445-28.445 28.445zM284.445 270.222c-23.609 0-42.666-19.058-42.666-42.666s19.058-42.666 42.666-42.666 42.666 19.058 42.666 42.666-19.058 42.666-42.666 42.666zM398.222-71.111c-7.964 0-14.222-6.258-14.222-14.222s6.258-14.222 14.222-14.222 14.222 6.258 14.222 14.222-6.258 14.222-14.222 14.222zM398.222 28.445c-15.644 0-28.445-12.8-28.445-28.445s12.8-28.444 28.445-28.444 28.445 12.8 28.445 28.445-12.8 28.445-28.445 28.445zM597.333 128c-7.965 0-14.222-6.258-14.222-14.222s6.258-14.222 14.222-14.222 14.222 6.258 14.222 14.222-6.258 14.222-14.222 14.222zM512 369.778c-15.644 0-28.445-12.8-28.445-28.445s12.8-28.444 28.445-28.444 28.444 12.8 28.444 28.444-12.8 28.445-28.445 28.445zM512 256c-15.644 0-28.445-12.8-28.445-28.445s12.8-28.445 28.445-28.445 28.444 12.8 28.444 28.445-12.8 28.445-28.445 28.445zM512 28.445c-15.644 0-28.445-12.8-28.445-28.445s12.8-28.444 28.445-28.444 28.444 12.8 28.444 28.445-12.8 28.445-28.445 28.445zM512 142.222c-15.644 0-28.445-12.8-28.445-28.445s12.8-28.445 28.445-28.445 28.444 12.8 28.444 28.445-12.8 28.445-28.445 28.445zM284.445 156.445c-23.609 0-42.666-19.058-42.666-42.666s19.058-42.666 42.666-42.666 42.666 19.058 42.666 42.666-19.058 42.666-42.666 42.666zM284.445 312.889c15.644 0 28.445 12.8 28.445 28.445s-12.8 28.445-28.445 28.445-28.445-12.8-28.445-28.445 12.8-28.445 28.445-28.445zM284.445 412.445c7.964 0 14.222 6.258 14.222 14.222s-6.258 14.222-14.222 14.222-14.222-6.258-14.222-14.222 6.258-14.222 14.222-14.222zM284.445-71.111c-7.964 0-14.222-6.258-14.222-14.222s6.258-14.222 14.222-14.222 14.222 6.258 14.222 14.222-6.258 14.222-14.222 14.222zM85.334 128c-7.965 0-14.222-6.258-14.222-14.222s6.258-14.222 14.222-14.222 14.222 6.258 14.222 14.222-6.258 14.222-14.222 14.222zM398.222 412.445c7.964 0 14.222 6.258 14.222 14.222s-6.258 14.222-14.222 14.222-14.222-6.258-14.222-14.222 6.258-14.222 14.222-14.222zM398.222 312.889c15.644 0 28.445 12.8 28.445 28.445s-12.8 28.445-28.445 28.445-28.445-12.8-28.445-28.445 12.8-28.445 28.445-28.445zM597.333 213.334c7.965 0 14.222 6.258 14.222 14.222s-6.258 14.222-14.222 14.222-14.222-6.258-14.222-14.222 6.258-14.222 14.222-14.222zM170.667 369.778c-15.644 0-28.445-12.8-28.445-28.445s12.8-28.444 28.445-28.444 28.445 12.8 28.445 28.444-12.8 28.445-28.445 28.445zM85.334 241.778c-7.965 0-14.222-6.258-14.222-14.222s6.258-14.222 14.222-14.222 14.222 6.258 14.222 14.222-6.258 14.222-14.222 14.222zM170.667 256c-15.644 0-28.445-12.8-28.445-28.445s12.8-28.445 28.445-28.445 28.445 12.8 28.445 28.445-12.8 28.445-28.445 28.445zM170.667 28.445c-15.644 0-28.445-12.8-28.445-28.445s12.8-28.444 28.445-28.444 28.445 12.8 28.445 28.445-12.8 28.445-28.445 28.445zM170.667 142.222c-15.644 0-28.445-12.8-28.445-28.445s12.8-28.445 28.445-28.445 28.445 12.8 28.445 28.445-12.8 28.445-28.445 28.445z" />
<glyph unicode="&#xf192;" glyph-name="blur-linear" horiz-adv-x="683" d="M369.778 28.445c15.644 0 28.445 12.8 28.445 28.445s-12.8 28.445-28.445 28.445-28.445-12.8-28.445-28.445 12.8-28.445 28.445-28.445zM369.778 142.222c15.644 0 28.445 12.8 28.445 28.445s-12.8 28.445-28.445 28.445-28.445-12.8-28.445-28.445 12.8-28.445 28.445-28.445zM369.778 256c15.644 0 28.445 12.8 28.445 28.445s-12.8 28.445-28.445 28.445-28.445-12.8-28.445-28.445 12.8-28.445 28.445-28.445zM483.555 156.445c7.964 0 14.222 6.258 14.222 14.222s-6.258 14.222-14.222 14.222-14.222-6.258-14.222-14.222 6.258-14.222 14.222-14.222zM483.555 270.222c7.964 0 14.222 6.258 14.222 14.222s-6.258 14.222-14.222 14.222-14.222-6.258-14.222-14.222 6.258-14.222 14.222-14.222zM85.334 426.666v-56.889h512v56.889zM483.555 42.666c7.964 0 14.222 6.258 14.222 14.222s-6.258 14.222-14.222 14.222-14.222-6.258-14.222-14.222 6.258-14.222 14.222-14.222zM256 28.445c15.644 0 28.445 12.8 28.445 28.445s-12.8 28.445-28.445 28.445-28.445-12.8-28.445-28.445 12.8-28.445 28.445-28.445zM142.222 128c23.609 0 42.667 19.058 42.667 42.666s-19.058 42.666-42.666 42.666-42.666-19.058-42.666-42.666 19.058-42.666 42.666-42.666zM142.222 241.778c23.609 0 42.667 19.058 42.667 42.666s-19.058 42.666-42.666 42.666-42.666-19.058-42.666-42.666 19.058-42.666 42.666-42.666zM85.334-85.333h512v56.889h-512zM256 256c15.644 0 28.445 12.8 28.445 28.445s-12.8 28.445-28.445 28.445-28.445-12.8-28.445-28.445 12.8-28.445 28.445-28.445zM256 142.222c15.644 0 28.445 12.8 28.445 28.445s-12.8 28.445-28.445 28.445-28.445-12.8-28.445-28.445 12.8-28.445 28.445-28.445zM142.222 14.222c23.609 0 42.667 19.058 42.667 42.666s-19.058 42.666-42.666 42.666-42.666-19.058-42.666-42.666 19.058-42.666 42.666-42.666z" />
<glyph unicode="&#xf193;" glyph-name="blur-off" horiz-adv-x="683" d="M85.334 128c-7.965 0-14.222-6.258-14.222-14.222s6.258-14.222 14.222-14.222 14.222 6.258 14.222 14.222-6.258 14.222-14.222 14.222zM170.667 28.445c-15.644 0-28.445-12.8-28.445-28.445s12.8-28.444 28.445-28.444 28.445 12.8 28.445 28.445-12.8 28.445-28.445 28.445zM284.445-71.111c-7.964 0-14.222-6.258-14.222-14.222s6.258-14.222 14.222-14.222 14.222 6.258 14.222 14.222-6.258 14.222-14.222 14.222zM85.334 241.778c-7.965 0-14.222-6.258-14.222-14.222s6.258-14.222 14.222-14.222 14.222 6.258 14.222 14.222-6.258 14.222-14.222 14.222zM170.667 142.222c-15.644 0-28.445-12.8-28.445-28.445s12.8-28.445 28.445-28.445 28.445 12.8 28.445 28.445-12.8 28.445-28.445 28.445zM597.333 128c-7.965 0-14.222-6.258-14.222-14.222s6.258-14.222 14.222-14.222 14.222 6.258 14.222 14.222-6.258 14.222-14.222 14.222zM284.445 28.445c-15.644 0-28.445-12.8-28.445-28.445s12.8-28.444 28.445-28.444 28.445 12.8 28.445 28.445-12.8 28.445-28.445 28.445zM71.111 362.098l107.52-107.52-7.964 1.422c-15.644 0-28.445-12.8-28.445-28.444s12.8-28.445 28.445-28.445 28.445 12.8 28.445 28.445c0 2.844-0.853 5.404-1.707 7.964l79.929-79.929c-20.195-3.129-35.555-20.764-35.555-41.813 0-23.609 19.058-42.666 42.666-42.666 21.049 0 38.685 15.36 41.813 35.555l79.929-79.929c-2.56 0.853-5.12 1.707-7.964 1.707-15.644 0-28.445-12.8-28.445-28.444s12.8-28.444 28.445-28.444 28.445 12.8 28.445 28.444c0 2.844-0.853 5.404-1.707 7.964l107.52-107.52 36.409 36.125-461.654 461.654-36.124-36.125zM398.222-71.111c-7.964 0-14.222-6.258-14.222-14.222s6.258-14.222 14.222-14.222 14.222 6.258 14.222 14.222-6.258 14.222-14.222 14.222zM512 312.889c15.644 0 28.444 12.8 28.444 28.445s-12.8 28.445-28.445 28.445-28.445-12.8-28.445-28.445 12.8-28.445 28.445-28.445zM512 199.111c15.644 0 28.444 12.8 28.444 28.445s-12.8 28.445-28.445 28.445-28.445-12.8-28.445-28.445 12.8-28.445 28.445-28.445zM512 85.334c15.644 0 28.444 12.8 28.444 28.445s-12.8 28.445-28.445 28.445-28.445-12.8-28.445-28.445 12.8-28.445 28.445-28.445zM284.445 312.889c15.644 0 28.445 12.8 28.445 28.445s-12.8 28.445-28.445 28.445-28.445-12.8-28.445-28.445 12.8-28.445 28.445-28.445zM597.333 213.334c7.965 0 14.222 6.258 14.222 14.222s-6.258 14.222-14.222 14.222-14.222-6.258-14.222-14.222 6.258-14.222 14.222-14.222zM284.445 412.445c7.964 0 14.222 6.258 14.222 14.222s-6.258 14.222-14.222 14.222-14.222-6.258-14.222-14.222 6.258-14.222 14.222-14.222zM398.222 412.445c7.964 0 14.222 6.258 14.222 14.222s-6.258 14.222-14.222 14.222-14.222-6.258-14.222-14.222 6.258-14.222 14.222-14.222zM392.534 184.889h5.689c23.609 0 42.666 19.058 42.666 42.666s-19.058 42.666-42.666 42.666-42.666-19.058-42.666-42.666v-5.689c3.129-19.058 17.92-33.849 36.978-36.978zM398.222 312.889c15.644 0 28.445 12.8 28.445 28.445s-12.8 28.445-28.445 28.445-28.445-12.8-28.445-28.445 12.8-28.445 28.445-28.445z" />
<glyph unicode="&#xf194;" glyph-name="blur-radial" horiz-adv-x="683" d="M398.222 142.222c-15.644 0-28.445-12.8-28.445-28.445s12.8-28.445 28.445-28.445 28.445 12.8 28.445 28.445-12.8 28.445-28.445 28.445zM398.222 42.666c-7.964 0-14.222-6.258-14.222-14.222s6.258-14.222 14.222-14.222 14.222 6.258 14.222 14.222-6.258 14.222-14.222 14.222zM341.334-56.889c-125.725 0-227.555 101.831-227.555 227.555s101.831 227.555 227.555 227.555 227.555-101.831 227.555-227.555-101.831-227.555-227.555-227.555zM341.334 455.111c-157.013 0-284.445-127.431-284.445-284.445s127.431-284.445 284.445-284.445 284.445 127.431 284.445 284.445-127.431 284.445-284.445 284.445zM483.555 241.778c-7.964 0-14.222-6.258-14.222-14.222s6.258-14.222 14.222-14.222 14.222 6.258 14.222 14.222-6.258 14.222-14.222 14.222zM483.555 128c-7.964 0-14.222-6.258-14.222-14.222s6.258-14.222 14.222-14.222 14.222 6.258 14.222 14.222-6.258 14.222-14.222 14.222zM398.222 298.667c7.964 0 14.222 6.258 14.222 14.222s-6.258 14.222-14.222 14.222-14.222-6.258-14.222-14.222 6.258-14.222 14.222-14.222zM398.222 256c-15.644 0-28.445-12.8-28.445-28.445s12.8-28.445 28.445-28.445 28.445 12.8 28.445 28.445-12.8 28.445-28.445 28.445zM284.445 298.667c7.964 0 14.222 6.258 14.222 14.222s-6.258 14.222-14.222 14.222-14.222-6.258-14.222-14.222 6.258-14.222 14.222-14.222zM199.111 128c-7.964 0-14.222-6.258-14.222-14.222s6.258-14.222 14.222-14.222 14.222 6.258 14.222 14.222-6.258 14.222-14.222 14.222zM284.445 42.666c-7.964 0-14.222-6.258-14.222-14.222s6.258-14.222 14.222-14.222 14.222 6.258 14.222 14.222-6.258 14.222-14.222 14.222zM199.111 241.778c-7.964 0-14.222-6.258-14.222-14.222s6.258-14.222 14.222-14.222 14.222 6.258 14.222 14.222-6.258 14.222-14.222 14.222zM284.445 142.222c-15.644 0-28.445-12.8-28.445-28.445s12.8-28.445 28.445-28.445 28.445 12.8 28.445 28.445-12.8 28.445-28.445 28.445zM284.445 256c-15.644 0-28.445-12.8-28.445-28.445s12.8-28.445 28.445-28.445 28.445 12.8 28.445 28.445-12.8 28.445-28.445 28.445z" />
<glyph unicode="&#xf195;" glyph-name="bone" horiz-adv-x="683" d="M227.555 113.778c0-47.218-38.115-85.334-85.334-85.334s-85.334 38.115-85.334 85.334c0 21.902 8.249 41.813 21.618 56.889-13.369 15.075-21.618 34.986-21.618 56.889 0 47.218 38.115 85.334 85.334 85.334s85.334-38.115 85.334-85.334c37.831-2.276 75.947-4.836 113.778-4.836s75.947 2.56 113.778 4.836c0 47.218 38.115 85.334 85.334 85.334s85.333-38.115 85.333-85.334c0-21.902-8.249-41.813-21.618-56.889 13.369-15.075 21.618-34.986 21.618-56.889 0-47.218-38.115-85.334-85.333-85.334s-85.334 38.115-85.334 85.334c-37.831 2.276-75.947 4.836-113.778 4.836s-75.947-2.56-113.778-4.836z" />
<glyph unicode="&#xf196;" glyph-name="book" horiz-adv-x="683" d="M512-113.778c31.289 0 56.889 25.6 56.889 56.889v455.111c0 31.573-25.6 56.889-56.889 56.889h-170.667v-199.111l-71.111 42.666-71.111-42.666v199.111h-28.445c-31.289 0-56.889-25.6-56.889-56.889v-455.111c0-31.289 25.6-56.889 56.889-56.889h341.334z" />
<glyph unicode="&#xf197;" glyph-name="book-multiple" horiz-adv-x="683" d="M540.444 0h-284.445c-31.289 0-56.889 25.6-56.889 56.889v341.334c0 31.289 25.6 56.889 56.889 56.889h28.445v-142.222l56.889 42.667 56.889-42.666v142.222h142.222c31.289 0 56.889-25.6 56.889-56.889v-341.334c0-31.289-25.6-56.889-56.889-56.889zM483.555-56.889v-56.889h-341.334c-31.289 0-56.889 25.6-56.889 56.889v398.222h56.889v-398.222h341.334z" />
<glyph unicode="&#xf198;" glyph-name="book-multiple-variant" horiz-adv-x="683" d="M540.444 0h-284.445c-31.289 0-56.889 25.6-56.889 56.889v341.334c0 31.289 25.6 56.889 56.889 56.889h284.445c31.289 0 56.889-25.6 56.889-56.889v-341.334c0-31.289-25.6-56.889-56.889-56.889zM284.445 256l56.889 42.666 56.889-42.666v142.222h-113.778v-142.222zM483.555-56.889v-56.889h-341.334c-31.289 0-56.889 25.6-56.889 56.889v398.222h56.889v-398.222h341.334z" />
<glyph unicode="&#xf199;" glyph-name="book-open" horiz-adv-x="683" d="M312.889-28.444v284.445c0 31.289-25.6 56.889-56.889 56.889h-113.778v-284.445h113.778c31.289 0 56.889-25.6 56.889-56.889zM369.778 256v-284.445c0 31.289 25.6 56.889 56.889 56.889h113.778v284.445h-113.778c-31.289 0-56.889-25.6-56.889-56.889zM597.333-28.444h-170.667c-31.289 0-56.889-25.6-56.889-56.889h-56.889c0 31.289-25.6 56.889-56.889 56.889h-170.667v398.222h170.667c31.289 0 56.889-25.6 56.889-56.889h56.889c0 31.289 25.6 56.889 56.889 56.889h170.667v-398.222z" />
<glyph unicode="&#xf19a;" glyph-name="book-variant" horiz-adv-x="683" d="M170.667 398.222h142.222v-227.555l-71.111 42.666-71.111-42.666zM512 455.111h-341.334c-31.289 0-56.889-25.6-56.889-56.889v-455.111c0-31.289 25.6-56.889 56.889-56.889h341.334c31.289 0 56.889 25.6 56.889 56.889v455.111c0 31.289-25.6 56.889-56.889 56.889z" />
<glyph unicode="&#xf19b;" glyph-name="bookmark" horiz-adv-x="683" d="M483.555 426.666h-284.445c-31.289 0-56.889-25.6-56.889-56.889v-455.111l199.111 85.334 199.111-85.334v455.111c0 31.573-25.6 56.889-56.889 56.889z" />
<glyph unicode="&#xf19c;" glyph-name="bookmark-check" horiz-adv-x="683" d="M483.555 426.666c31.289 0 56.889-25.6 56.889-56.889v-455.111l-199.111 85.334-199.111-85.334v455.111c0 31.573 25.6 56.889 56.889 56.889h284.445zM312.889 113.778l177.778 177.494-40.106 40.391-137.671-137.671-73.671 73.671-40.106-40.106 113.778-113.778z" />
<glyph unicode="&#xf19d;" glyph-name="bookmark-music" horiz-adv-x="683" d="M483.555 426.666c31.289 0 56.889-25.6 56.889-56.889v-455.111l-199.111 85.334-199.111-85.334v455.111c0 31.573 25.6 56.889 56.889 56.889h284.445zM312.889 199.111c-31.289 0-56.889-25.6-56.889-56.889s25.6-56.889 56.889-56.889 56.889 25.6 56.889 56.889v142.222h85.334v56.889h-113.778v-149.902c-8.249 4.836-18.204 7.68-28.445 7.68z" />
<glyph unicode="&#xf19e;" glyph-name="bookmark-outline" horiz-adv-x="683" d="M483.555 0l-142.222 62.009-142.222-62.009v369.778h284.444zM483.555 426.666h-284.445c-31.289 0-56.889-25.6-56.889-56.889v-455.111l199.111 85.334 199.111-85.334v455.111c0 31.573-25.6 56.889-56.889 56.889z" />
<glyph unicode="&#xf19f;" glyph-name="bookmark-outline-plus" horiz-adv-x="683" d="M483.555 0v369.778h-284.445v-369.778l142.222 62.009 142.222-62.009zM483.555 426.666c31.289 0 56.889-25.6 56.889-56.889v-455.111l-199.111 85.334-199.111-85.334v455.111c0 31.573 25.6 56.889 56.889 56.889h284.445zM312.889 312.889h56.889v-56.889h56.889v-56.889h-56.889v-56.889h-56.889v56.889h-56.889v56.889h56.889v56.889z" />
<glyph unicode="&#xf1a0;" glyph-name="bookmark-plus" horiz-adv-x="683" d="M483.555 426.666c31.289 0 56.889-25.6 56.889-56.889v-455.111l-199.111 85.334-199.111-85.334v455.111c0 31.573 25.6 56.889 56.889 56.889h284.445zM312.889 312.889v-56.889h-56.889v-56.889h56.889v-56.889h56.889v56.889h56.889v56.889h-56.889v56.889h-56.889z" />
<glyph unicode="&#xf1a1;" glyph-name="bookmark-remove" horiz-adv-x="683" d="M483.555 426.666c31.289 0 56.889-25.6 56.889-56.889v-455.111l-199.111 85.334-199.111-85.334v455.111c0 31.573 25.6 56.889 56.889 56.889h284.445zM232.391 267.947l68.835-68.836-68.835-68.551 40.391-40.391 68.551 68.836 68.551-68.836 40.391 40.391-68.836 68.551 68.836 68.836-40.391 40.106-68.551-68.551-68.551 68.551-40.391-40.106z" />
<glyph unicode="&#xf1a2;" glyph-name="border-all" horiz-adv-x="683" d="M540.444 199.111h-170.667v170.667h170.667zM540.444-28.444h-170.667v170.667h170.667zM312.889 199.111h-170.667v170.667h170.667zM312.889-28.444h-170.667v170.667h170.667zM85.334-85.333h512v512h-512v-512z" />
<glyph unicode="&#xf1a3;" glyph-name="border-bottom" horiz-adv-x="683" d="M142.222 85.334h-56.889v-56.889h56.889zM85.334-85.333h512v56.889h-512zM142.222 199.111h-56.889v-56.889h56.889zM540.444 256h56.889v56.889h-56.889zM540.444 369.778h56.889v56.889h-56.889zM142.222 312.889h-56.889v-56.889h56.889zM540.444 28.445h56.889v56.889h-56.889zM540.444 142.222h56.889v56.889h-56.889zM483.555 426.666h-56.889v-56.889h56.889zM369.778 426.666h-56.889v-56.889h56.889zM483.555 199.111h-56.889v-56.889h56.889zM369.778 312.889h-56.889v-56.889h56.889zM142.222 426.666h-56.889v-56.889h56.889zM369.778 199.111h-56.889v-56.889h56.889zM256 426.666h-56.889v-56.889h56.889zM369.778 85.334h-56.889v-56.889h56.889zM256 199.111h-56.889v-56.889h56.889v56.889z" />
<glyph unicode="&#xf1a4;" glyph-name="border-color" horiz-adv-x="683" d="M589.085 397.084c11.093 11.094 11.093 29.582 0 40.107l-66.56 66.56c-10.524 11.094-29.014 11.094-40.106 0l-55.751-55.751 106.667-106.666zM504.889 312.889l-106.666 106.666-284.445-284.445v-106.666h106.666l284.445 284.445z" />
<glyph unicode="&#xf1a5;" glyph-name="border-horizontal" horiz-adv-x="683" d="M540.444-85.333h56.889v56.889h-56.889zM426.666-85.333h56.889v56.889h-56.889zM312.889 28.445h56.889v56.889h-56.889zM540.444 256h56.889v56.889h-56.889zM540.444 369.778h56.889v56.889h-56.889zM85.334 142.222h512v56.889h-512zM312.889-85.333h56.889v56.889h-56.889zM540.444 28.445h56.889v56.889h-56.889zM369.778 426.666h-56.889v-56.889h56.889zM369.778 312.889h-56.889v-56.889h56.889zM483.555 426.666h-56.889v-56.889h56.889zM256 426.666h-56.889v-56.889h56.889zM142.222 426.666h-56.889v-56.889h56.889zM199.111-85.333h56.889v56.889h-56.889zM85.334 28.445h56.889v56.889h-56.889zM142.222 312.889h-56.889v-56.889h56.889zM85.334-85.333h56.889v56.889h-56.889v-56.889z" />
<glyph unicode="&#xf1a6;" glyph-name="border-inside" horiz-adv-x="683" d="M540.444 28.445h56.889v56.889h-56.889zM540.444-85.333h56.889v56.889h-56.889zM369.778 426.666h-56.889v-227.555h-227.555v-56.889h227.555v-227.555h56.889v227.555h227.555v56.889h-227.555zM426.666-85.333h56.889v56.889h-56.889zM540.444 369.778h56.889v56.889h-56.889zM540.444 256h56.889v56.889h-56.889zM483.555 426.666h-56.889v-56.889h56.889zM142.222 426.666h-56.889v-56.889h56.889zM256 426.666h-56.889v-56.889h56.889zM85.334 28.445h56.889v56.889h-56.889zM142.222 312.889h-56.889v-56.889h56.889zM199.111-85.333h56.889v56.889h-56.889zM85.334-85.333h56.889v56.889h-56.889v-56.889z" />
<glyph unicode="&#xf1a7;" glyph-name="border-left" horiz-adv-x="683" d="M426.666 369.778h56.889v56.889h-56.889zM426.666 142.222h56.889v56.889h-56.889zM540.444-85.333h56.889v56.889h-56.889zM540.444 142.222h56.889v56.889h-56.889zM540.444 369.778h56.889v56.889h-56.889zM540.444 28.445h56.889v56.889h-56.889zM426.666-85.333h56.889v56.889h-56.889zM540.444 256h56.889v56.889h-56.889zM85.334-85.333h56.889v512h-56.889zM199.111 142.222h56.889v56.889h-56.889zM199.111 369.778h56.889v56.889h-56.889zM199.111-85.333h56.889v56.889h-56.889zM312.889 142.222h56.889v56.889h-56.889zM312.889 256h56.889v56.889h-56.889zM312.889 369.778h56.889v56.889h-56.889zM312.889 28.445h56.889v56.889h-56.889zM312.889-85.333h56.889v56.889h-56.889v-56.889z" />
<glyph unicode="&#xf1a8;" glyph-name="border-none" horiz-adv-x="683" d="M426.666 369.778h56.889v56.889h-56.889zM426.666 142.222h56.889v56.889h-56.889zM426.666-85.333h56.889v56.889h-56.889zM312.889 369.778h56.889v56.889h-56.889zM540.444 369.778h56.889v56.889h-56.889zM312.889 256h56.889v56.889h-56.889zM540.444 256h56.889v56.889h-56.889zM540.444-85.333h56.889v56.889h-56.889zM540.444 142.222h56.889v56.889h-56.889zM540.444 28.445h56.889v56.889h-56.889zM312.889 142.222h56.889v56.889h-56.889zM85.334 369.778h56.889v56.889h-56.889zM85.334 256h56.889v56.889h-56.889zM85.334 142.222h56.889v56.889h-56.889zM85.334 28.445h56.889v56.889h-56.889zM85.334-85.333h56.889v56.889h-56.889zM312.889-85.333h56.889v56.889h-56.889zM312.889 28.445h56.889v56.889h-56.889zM199.111-85.333h56.889v56.889h-56.889zM199.111 142.222h56.889v56.889h-56.889zM199.111 369.778h56.889v56.889h-56.889v-56.889z" />
<glyph unicode="&#xf1a9;" glyph-name="border-outside" horiz-adv-x="683" d="M256 199.111h-56.889v-56.889h56.889zM369.778 85.334h-56.889v-56.889h56.889zM540.444-28.444h-398.222v398.222h398.222zM85.334-85.333h512v512h-512zM483.555 199.111h-56.889v-56.889h56.889zM369.778 199.111h-56.889v-56.889h56.889zM369.778 312.889h-56.889v-56.889h56.889v56.889z" />
</font>
</defs>
</svg>
