<?xml version="1.0" standalone="no"?>
<!DOCTYPE svg PUBLIC "-//W3C//DTD SVG 1.1//EN" "http://www.w3.org/Graphics/SVG/1.1/DTD/svg11.dtd" >
<!--
2016-9-28: Created.
-->
<svg xmlns="http://www.w3.org/2000/svg">
<metadata>
Created by FontForge 20120731 at Wed Sep 28 10:53:59 2016
 By Apache
Created by Apache with FontForge 2.0 (http://fontforge.sf.net)
</metadata>
<defs>
<font id="Flaticon" horiz-adv-x="512" >
  <font-face 
    font-family="Flaticon"
    font-weight="500"
    font-stretch="normal"
    units-per-em="512"
    panose-1="2 0 6 3 0 0 0 0 0 0"
    ascent="448"
    descent="-64"
    bbox="-0.00458241 -64.0098 512.017 448.006"
    underline-thickness="25.6"
    underline-position="-51.2"
    unicode-range="U+0020-F1C2"
  />
    <missing-glyph />
    <glyph glyph-name="space" unicode=" " horiz-adv-x="200" 
 />
    <glyph glyph-name="uniF195" unicode="&#xf195;" 
d="M256.002 -64c-1.65723 0 -3.31641 0.255859 -4.91406 0.768555c-53.71 17.2051 -99.4375 50.2051 -135.914 98.083c-28.7178 37.6943 -51.7119 84.6084 -68.3398 139.44c-28.0508 92.4834 -28.373 174.873 -28.373 178.334c0 8.2959 6.30176 15.2373 14.5605 16.0342
c1.24316 0.121094 126.348 12.9639 213.516 76.2666c5.64453 4.10059 13.2881 4.0957 18.9316 -0.00195312c87.1445 -63.3008 212.265 -76.1436 213.518 -76.2666c8.25293 -0.804688 14.5527 -7.74316 14.5527 -16.0322c0 -3.46094 -0.322266 -85.8506 -28.3711 -178.336
c-16.6299 -54.8311 -39.623 -101.746 -68.3398 -139.44c-36.4746 -47.8779 -82.2021 -80.8779 -135.913 -98.083c-1.59766 -0.510742 -3.25488 -0.766602 -4.91309 -0.766602zM51.1396 338.495c1.33887 -27.0361 6.54297 -89.2998 26.7461 -155.589
c34.4785 -113.121 94.3936 -185.032 178.115 -213.827c83.916 28.8594 143.9 101.015 178.336 214.562c20.0654 66.1621 25.2139 127.952 26.5332 154.853c-36.0889 5.26562 -129.569 23.0859 -204.871 73.75c-75.3076 -50.6592 -168.77 -68.4824 -204.859 -73.748z
M247.39 113.559c-3.82129 0 -7.53906 1.35938 -10.4688 3.86523l-58.251 49.8154c-6.76074 5.78125 -7.55469 15.9492 -1.77344 22.7109c5.7793 6.76172 15.9482 7.55762 22.71 1.77344l45.3027 -38.7412l89.79 117.778c5.39355 7.07422 15.499 8.44043 22.5752 3.04395
c7.07715 -5.39258 8.4375 -15.5 3.04492 -22.5752l-100.119 -131.328c-2.68555 -3.52246 -6.70117 -5.78418 -11.1064 -6.25293c-0.568359 -0.0595703 -1.1377 -0.0898438 -1.7041 -0.0898438z" />
    <glyph glyph-name="uniF117" unicode="&#xf117;" 
d="M478.104 414.075c21.8242 -21.8232 33.8477 -50.9443 33.8477 -82.0088c0 -31.0635 -12.0234 -60.1846 -33.8477 -82.0078l-116.185 -116.194c-22.6064 -22.6064 -52.3076 -33.915 -82.0088 -33.915c-29.7002 0 -59.3916 11.3086 -82.0078 33.915
c-3.7793 3.7793 -3.7793 9.8877 0 13.667c3.77832 3.77832 9.88672 3.77832 13.666 0c37.6846 -37.6748 99.0195 -37.6748 136.694 0l116.165 116.193c18.1699 18.1709 28.1826 42.4297 28.1826 68.333c0 25.9023 -10.0127 50.1709 -28.1826 68.3418
c-18.1709 18.1699 -42.4307 28.1836 -68.3428 28.1836c-25.8926 0 -50.1621 -10.0039 -68.332 -28.1738l-88.8418 -88.8418c-3.7793 -3.7793 -9.8877 -3.7793 -13.667 0c-3.77832 3.7793 -3.77832 9.8877 0 13.666l88.8418 88.8418
c45.2236 45.2422 118.813 45.2236 164.018 0zM259.412 58.6982c3.77832 3.76953 9.87695 3.7793 13.6562 0c3.7793 -3.77832 3.7793 -9.88672 0 -13.666l-75.1748 -75.1758c-21.8145 -21.8232 -50.9355 -33.8467 -82.0088 -33.8467
c-31.0537 0 -60.1748 12.0332 -81.999 33.8467c-21.8232 21.8145 -33.8467 50.9355 -33.8467 81.999c0 31.0645 12.0137 60.1846 33.8369 82.0088l109.361 109.36c45.2227 45.2432 118.813 45.2236 164.017 0c3.7793 -3.77832 3.7793 -9.88672 0 -13.666
s-9.88672 -3.7793 -13.666 0c-37.6748 37.6553 -99 37.6748 -136.685 0l-109.351 -109.352c-37.6748 -37.6836 -37.6748 -99.0088 0 -136.684c18.1797 -18.1709 42.4395 -28.1836 68.3418 -28.1836s50.1719 10.0127 68.3418 28.1836zM328.314 22.6475
c5.34473 0 9.66504 -4.32031 9.66504 -9.66504v-57.9902c0 -5.34473 -4.32031 -9.66504 -9.66504 -9.66504s-9.66504 4.32031 -9.66504 9.66504v57.9902c0 5.34473 4.32031 9.66504 9.66504 9.66504zM371.46 39.1465l41.0088 -41c3.7793 -3.7793 3.7793 -9.88672 0 -13.666
c-1.88477 -1.88477 -4.35938 -2.83203 -6.83301 -2.83203c-2.47461 0 -4.94922 0.947266 -6.83398 2.83203l-41.0088 40.999c-3.7793 3.7793 -3.7793 9.8877 0 13.667c3.7793 3.77832 9.8877 3.77832 13.667 0zM434.631 80.6387
c5.34473 0 9.66504 -4.32031 9.66504 -9.66504s-4.32031 -9.66504 -9.66504 -9.66504h-57.9912c-5.34473 0 -9.66504 4.32031 -9.66504 9.66504s4.32031 9.66504 9.66504 9.66504h57.9912zM154.342 341.597c-5.33496 0 -9.66504 4.32031 -9.66504 9.66504v57.9912
c0 5.34473 4.32031 9.66504 9.66504 9.66504c5.3457 0 9.66602 -4.32031 9.66602 -9.66504v-57.9912c0 -5.34473 -4.32031 -9.66504 -9.66602 -9.66504zM111.188 325.099l-40.999 40.999c-3.7793 3.7793 -3.7793 9.8877 0 13.667c3.77832 3.77832 9.88672 3.77832 13.666 0
l40.999 -41c3.7793 -3.7793 3.7793 -9.8877 0 -13.666c-1.88379 -1.88477 -4.3584 -2.83203 -6.83301 -2.83203c-2.47363 0 -4.94824 0.947266 -6.83301 2.83203zM48.0264 283.606c-5.33594 0 -9.66504 4.32031 -9.66504 9.66504s4.32031 9.66504 9.66504 9.66504h57.9902
c5.34473 0 9.66504 -4.32031 9.66504 -9.66504s-4.32031 -9.66504 -9.66504 -9.66504h-57.9902z" />
    <glyph glyph-name="uniF15F" unicode="&#xf15f;" 
d="M19.3203 317.585c-10.665 0 -19.3203 8.65527 -19.3203 19.3203s8.65527 19.3213 19.3203 19.3213h473.359c10.665 0 19.3203 -8.65625 19.3203 -19.3213s-8.65527 -19.3203 -19.3203 -19.3203h-473.359zM19.3203 172.68c-10.665 0 -19.3203 8.65527 -19.3203 19.3203
s8.65527 19.3203 19.3203 19.3203h473.359c10.665 0 19.3203 -8.65527 19.3203 -19.3203s-8.65527 -19.3203 -19.3203 -19.3203h-473.359zM19.3203 27.7734c-10.665 0 -19.3203 8.65625 -19.3203 19.3213s8.65527 19.3203 19.3203 19.3203h473.359
c10.665 0 19.3203 -8.65527 19.3203 -19.3203s-8.65527 -19.3213 -19.3203 -19.3213h-473.359z" />
    <glyph glyph-name="uniF1B3" unicode="&#xf1b3;" 
d="M494.398 164.798c3.20703 -9.38965 4.80273 -17.4941 4.77637 -24.3281c0.644531 -16.2139 -3.94336 -30.8271 -13.7549 -43.8408c3.62109 -11.9443 3.62109 -24.4248 0 -37.4307c-3.19531 -12.1631 -8.95996 -22.1855 -17.2783 -30.0781
c1.91309 -23.8936 -3.31055 -43.2002 -15.6797 -57.9229c-13.6582 -16.209 -34.6621 -24.5322 -63.042 -24.958h-11.5176h-24.3213h-5.44141c-14.0762 0 -29.4336 1.6582 -46.0771 4.96289c-16.627 3.31152 -29.5957 6.40723 -38.874 9.2832
c-9.28027 2.87598 -22.1309 7.0957 -38.5557 12.6338c-26.2412 9.18164 -43.0947 13.8691 -50.5605 14.084c-5.54688 0.213867 -10.3467 2.29297 -14.3984 6.24414c-4.05469 3.94629 -6.08008 8.69043 -6.08008 14.2373v205.119c0 5.33105 1.91992 9.97266 5.76172 13.9189
c3.84082 3.94824 8.42773 6.13477 13.7578 6.56152c5.11816 0.426758 13.2236 6.71875 24.3193 18.8818c11.0918 12.1611 21.8643 25.0664 32.3203 38.7178c14.5098 18.5586 25.2822 31.3594 32.3203 38.3984c3.8418 3.8418 7.14453 8.95801 9.9209 15.3613
c2.77051 6.39844 4.64258 11.5713 5.60059 15.5176c0.96582 3.94629 2.39941 10.3955 4.32617 19.3594c1.4873 8.31836 2.82227 14.8262 3.99609 19.5195c1.17383 4.69434 3.25586 10.2412 6.24316 16.6426c2.98438 6.39746 6.61621 11.7305 10.8828 15.9961
c4.05664 4.05371 8.85254 6.08203 14.3984 6.08203c9.81934 0 18.6143 -1.12012 26.4082 -3.36035c7.78613 -2.23828 14.1846 -5.01172 19.2012 -8.31738c5.01758 -3.30859 9.28223 -7.62305 12.8037 -12.9629c3.51367 -5.3291 6.07617 -10.1328 7.67871 -14.3984
c1.5957 -4.26465 2.87793 -9.59863 3.84473 -15.9961c0.951172 -6.40137 1.49512 -11.2031 1.59473 -14.4023c0.100586 -3.19824 0.162109 -7.36133 0.162109 -12.4795c0 -8.10645 -1.00879 -16.2168 -3.03809 -24.3193c-2.0332 -8.10645 -4.0498 -14.5039 -6.0752 -19.2021
c-2.02832 -4.68945 -4.9668 -10.667 -8.80566 -17.916c-0.637695 -1.27832 -1.70801 -3.19922 -3.19727 -5.75977c-1.4873 -2.56055 -2.67285 -4.90918 -3.5166 -7.04297c-0.851562 -2.13281 -1.70605 -4.69238 -2.55762 -7.67773h88.6357
c16.6396 0 31.0371 -6.08008 43.1963 -18.2451c12.1357 -12.166 18.2236 -26.5645 18.2236 -43.2031c0 -18.3496 -5.86816 -34.2412 -17.6016 -47.6797zM112.641 232.958c5.54688 0 10.3457 -2.02637 14.3994 -6.08203c4.05176 -4.05273 6.0791 -8.85156 6.0791 -14.3984
v-204.808c0 -5.54004 -2.02637 -10.3418 -6.0791 -14.3994c-4.05469 -4.04688 -8.85352 -6.0752 -14.3994 -6.0752h-92.1553c-5.54688 0 -10.3477 2.02832 -14.4043 6.0752c-4.05371 4.05762 -6.08105 8.86035 -6.08105 14.3994v204.808
c0 5.54688 2.02734 10.3467 6.08008 14.3984c4.05273 4.05371 8.85352 6.08203 14.4033 6.08203h92.1572zM75.8398 34.0771c4.05762 3.94727 6.08105 8.79883 6.08105 14.5596c0 5.54688 -2.02734 10.3477 -6.08105 14.3984
c-4.05371 4.05469 -8.85254 6.08398 -14.3994 6.08398c-5.76074 0 -10.6143 -2.0293 -14.5596 -6.08398c-3.94727 -4.05176 -5.91895 -8.85254 -5.91895 -14.3984c0 -5.76074 1.97266 -10.6133 5.91895 -14.5596c3.94434 -3.94629 8.79883 -5.91895 14.5596 -5.91895
c5.54688 0 10.3457 1.97266 14.3994 5.91895z" />
    <glyph glyph-name="uniF116" unicode="&#xf116;" 
d="M363.71 448c20.5791 0 37.2588 -16.7168 37.2588 -37.2969v-437.444c0 -20.5605 -16.6797 -37.2588 -37.2588 -37.2588h-215.42c-20.6162 0 -37.2588 16.6982 -37.2588 37.2588v437.444c0 20.5801 16.6426 37.2969 37.2588 37.2969h215.42zM202.845 425.35
c-2.70508 0 -4.85059 -4.01172 -4.85059 -8.97461s2.14551 -8.99219 4.85059 -8.99219h106.348c2.68652 0 4.87012 4.0293 4.87012 8.99219s-2.18359 8.97461 -4.87012 8.97461h-106.348zM256.019 -27.1885c13.0791 0 23.751 10.6719 23.751 23.8066
s-10.6719 23.7695 -23.751 23.7695c-13.1162 0 -23.7881 -10.6348 -23.7881 -23.7695s10.6719 -23.8066 23.7881 -23.8066zM373.058 54.3262v330.742h-234.097v-330.742h234.097z" />
    <glyph glyph-name="uniF19E" unicode="&#xf19e;" 
d="M221.697 60.1426c-44.4639 7.88086 -85.1104 31.2227 -114.561 65.8115c-30.0303 35.2725 -46.5703 80.2383 -46.5703 126.612c0 107.764 87.6719 195.434 195.434 195.434s195.434 -87.6699 195.434 -195.435c0 -93.8672 -66.6309 -174.421 -158.594 -191.951
c-4.69629 -3.78027 -15.3936 -23.1543 -23.3711 -42.4512c-1.57715 -3.8125 -5.21191 -6.37402 -9.33203 -6.57812c-0.177734 -0.00878906 -0.353516 -0.0126953 -0.52832 -0.0126953c-3.91992 0 -7.5459 2.15723 -9.40527 5.64062
c-10.5088 19.668 -23.5449 39.2529 -28.5059 42.9297zM256 426.667c-95.999 0 -174.101 -78.1016 -174.101 -174.101c0 -85.0781 60.7646 -157.24 144.485 -171.585c6.63867 -1.13672 14.0342 -6.60352 28.5566 -29.585c1.24316 -1.96777 2.44922 -3.9248 3.59863 -5.82227
c0.833008 1.68652 1.7041 3.41406 2.60645 5.15234c12.9854 24.999 20.5312 29.5137 26.7529 30.668c82.3994 15.2451 142.201 87.2334 142.201 171.172c0 95.999 -78.1016 174.101 -174.101 174.101zM343.366 52.0068c49.665 -11.1211 77.0166 -30.1543 77.0166 -53.5908
c0 -13.2715 -9.04199 -32.1475 -52.1201 -46.6992c-30.0049 -10.1348 -69.6865 -15.7168 -111.735 -15.7168c-42.0566 0 -81.7441 5.58203 -111.751 15.7197c-43.0791 14.5508 -52.1221 33.4268 -52.1221 46.6982c0 22.1807 24.8994 40.623 70.1162 51.9316
c5.70703 1.43066 11.5049 -2.04492 12.9355 -7.75977c1.42871 -5.71484 -2.04492 -11.5068 -7.76074 -12.9365c-37.0732 -9.27246 -53.958 -22.6914 -53.958 -31.2363c0 -6.35742 9.85254 -17.1084 37.6172 -26.4873c27.8643 -9.41309 65.126 -14.5967 104.923 -14.5967
c39.7881 0 77.0459 5.18359 104.906 14.5967c27.7656 9.37891 37.6162 20.1299 37.6162 26.4873c0 9.27539 -18.8848 23.4883 -60.3457 32.7725c-5.74707 1.28613 -9.36426 6.99121 -8.07812 12.7393c1.28906 5.74902 6.99707 9.36426 12.7402 8.07812zM151.431 134.877
c-15.4346 12.0312 -18.21 34.3896 -6.17969 49.8359l61.1494 78.3457c6.76465 8.68555 16.9746 13.6719 28.0068 13.6719c4.34473 0 8.56152 -0.776367 12.5205 -2.27148l34.2148 42.7822l-1.5791 1.23145c-2.4043 1.875 -3.89062 4.69043 -4.08496 7.7334
s0.923828 6.02441 3.07031 8.18945l35.2354 35.5312c3.80371 3.83398 9.87012 4.22168 14.1309 0.90332l11.0684 -8.625c4.26367 -3.32324 5.36719 -9.30859 2.57227 -13.9346l-25.8916 -42.8213c-1.57715 -2.6084 -4.19531 -4.41797 -7.19336 -4.9707
c-0.642578 -0.118164 -1.29102 -0.176758 -1.93457 -0.176758c-2.3584 0 -4.6709 0.783203 -6.55957 2.25488l-2.00977 1.56738l-34.2705 -42.8545c8.47266 -12.4229 8.40332 -29.4131 -1.3291 -41.8896l-61.1104 -78.3506
c-6.77051 -8.68652 -16.9766 -13.6699 -28.001 -13.6699c-7.97754 0 -15.5244 2.59863 -21.8252 7.51758zM307.675 333.47l-5.51562 -5.56348l1.46191 -1.14062zM223.224 249.942l-39.335 -50.3955l22.0156 -17.8701l39.6406 50.8242
c4.81348 6.17188 3.72168 15.1016 -2.43457 19.9072c-2.50977 1.95215 -5.52344 2.99023 -8.7041 2.99023c-4.40527 0 -8.48242 -1.98828 -11.1826 -5.45605zM162.074 171.597c-4.79785 -6.16113 -3.69043 -15.0918 2.47656 -19.8984
c2.52051 -1.96777 5.52832 -3.00586 8.7041 -3.00586c4.40137 0 8.47656 1.98828 11.1768 5.4541l8.34961 10.7051l-22.0195 17.875z" />
    <glyph glyph-name="uniF16C" unicode="&#xf16c;" 
d="M1.3877 42.4688l-0.549805 232.693c-0.0273438 11.4502 11.6699 19.1904 22.1982 14.6904l211.832 -90.5547c5.85352 -2.50293 9.65625 -8.24805 9.6709 -14.6143l0.550781 -232.693c0.0263672 -11.4512 -11.6709 -19.1914 -22.1982 -14.6914l-211.833 90.5547
c-5.85352 2.50293 -9.65625 8.24805 -9.6709 14.6152zM486.739 264.21l-195.483 -84.6611l0.508789 -215.346l195.483 84.6602zM494.648 292.282c8.40234 0.0214844 15.9424 -6.7373 15.9639 -15.9131l0.549805 -232.694
c0.015625 -6.36621 -3.75977 -12.1309 -9.60156 -14.6602l-211.401 -91.5557c-2.08594 -0.902344 -4.22266 -1.32422 -6.30273 -1.33008c-8.40332 -0.0195312 -15.9443 6.73828 -15.9648 15.9141l-0.550781 232.694c-0.015625 6.36621 3.76074 12.1309 9.60352 14.6602
l211.4 91.5547c2.08594 0.904297 4.22168 1.3252 6.30371 1.33008v0zM254.454 423.349l-202.779 -90.541l203.205 -89.5791l202.78 90.54zM254.396 448c2.20215 0.00488281 4.40527 -0.446289 6.46484 -1.35352l222.873 -98.25
c12.6426 -5.57422 12.6855 -23.498 0.0683594 -29.1309l-222.406 -99.3037c-2.05469 -0.917969 -4.25586 -1.37891 -6.45898 -1.38477c-2.20215 -0.00488281 -4.40527 0.446289 -6.46484 1.35352l-222.873 98.25c-12.6436 5.57324 -12.6846 23.498 -0.0693359 29.1309
l222.405 99.3037c2.05566 0.917969 4.25684 1.37988 6.46094 1.38477v0z" />
    <glyph glyph-name="uniF12C" unicode="&#xf12c;" 
d="M437.021 373.02c48.3516 -48.3525 74.9795 -112.641 74.9795 -181.021s-26.6299 -132.667 -74.9795 -181.02c-48.3535 -48.3506 -112.641 -74.9795 -181.021 -74.9795s-132.667 26.6289 -181.02 74.9795c-48.3516 48.3525 -74.9805 112.641 -74.9805 181.02
c0 68.3799 26.627 132.668 74.9795 181.021c48.3535 48.3516 112.641 74.9805 181.021 74.9805s132.667 -26.6289 181.021 -74.9805zM414.392 33.6074c31.5293 31.5293 52.4941 70.8037 61.1387 113.531c-6.73828 -9.91797 -13.1826 -13.5986 -17.1719 8.60254
c-4.11035 36.1953 -37.3545 13.0732 -58.2607 25.9307c-22.002 -14.8291 -71.4531 28.8311 -63.0488 -20.4121c12.9668 -22.2119 70.0039 29.7246 41.5742 -17.2705c-18.1367 -32.8096 -66.3213 -105.466 -60.0527 -143.13
c0.790039 -54.8711 -56.0674 -11.4424 -75.6572 6.75977c-13.1777 36.46 -4.49121 100.188 -38.9492 118.043c-37.4004 1.62402 -69.502 5.02344 -83.9971 46.835c-8.72266 29.915 9.28223 74.4473 41.3389 81.3213c46.9248 29.4834 63.6875 -34.5264 107.696 -35.7168
c13.6631 14.2979 50.9072 18.8438 53.9961 34.875c-28.875 5.0957 36.6338 24.2793 -2.76367 35.1914c-21.7363 -2.55664 -35.7402 -22.5371 -24.1855 -39.4795c-42.1191 -9.82031 -43.4678 60.9521 -83.9561 38.6289c-1.0293 -35.2949 -66.1104 -11.4424 -22.5176 -4.28613
c14.9775 6.54395 -24.4297 25.5078 -3.14062 22.0615c10.459 0.568359 45.667 12.9062 36.1387 21.2002c19.6045 12.1699 36.0801 -29.1445 55.2695 0.94043c13.8535 23.1338 -5.81055 27.4043 -23.1758 15.6787c-9.79004 10.9619 17.2861 34.6387 41.167 44.8691
c7.95801 3.41016 15.5596 5.26758 21.3721 4.74121c12.0303 -13.8955 34.2754 -16.3027 35.4395 1.67188c-29.79 14.2666 -62.6367 21.8027 -96.6455 21.8027c-48.8105 0 -95.2344 -15.5117 -133.653 -44.1943c10.3242 -4.72949 16.1855 -10.6191 6.23828 -18.1475
c-7.72754 -23.0273 -39.084 -53.9385 -66.6113 -49.5625c-14.293 -24.6465 -23.7061 -51.8027 -27.7295 -80.2637c23.0557 -7.62793 28.3721 -22.7246 23.418 -27.7744c-11.7471 -10.2441 -18.9688 -24.7656 -22.6875 -40.6611
c7.50488 -45.9189 29.0859 -88.2373 62.6357 -121.787c42.3057 -42.3066 98.5566 -65.6064 158.39 -65.6064c59.832 0 116.084 23.2998 158.392 65.6074z" />
    <glyph glyph-name="uniF142" unicode="&#xf142;" 
d="M256 313.477l182.609 -150.536c0.204102 -0.415039 0.320312 -1.05371 0.320312 -1.89844v-152.434c0 -5.50488 -2.01953 -10.2783 -6.04297 -14.29c-4.0166 -4.02832 -8.78613 -6.0459 -14.29 -6.0459h-121.942v121.955h-81.3076v-121.95h-121.943
c-5.50488 0 -10.2686 2.02148 -14.29 6.04102c-4.02344 4.0166 -6.03613 8.78613 -6.03613 14.29v152.434c0 0.217773 0.0556641 0.524414 0.160156 0.947266c0.107422 0.426758 0.160156 0.739258 0.160156 0.951172zM508.467 197.24
c2.11328 -1.69434 3.27734 -3.96973 3.49414 -6.82129c0.220703 -2.85938 -0.521484 -5.34961 -2.21484 -7.46973l-19.6914 -23.498c-1.70508 -1.89941 -3.9209 -3.07227 -6.66895 -3.49023h-0.955078c-2.75293 0 -4.97168 0.737305 -6.66895 2.21484l-219.762 183.245
l-219.76 -183.247c-2.54102 -1.69238 -5.08301 -2.43555 -7.625 -2.22168c-2.75293 0.425781 -4.97266 1.58984 -6.66895 3.49414l-19.6895 23.502c-1.69629 2.11523 -2.43555 4.61035 -2.22168 7.4668c0.21582 2.8584 1.37598 5.13477 3.49316 6.8252l228.343 190.23
c6.77441 5.50488 14.8203 8.25684 24.1357 8.25684c9.31641 0 17.3633 -2.75195 24.1309 -8.25684l77.4863 -64.7871v61.9258c0 2.96191 0.951172 5.39844 2.85449 7.30469c1.90723 1.9043 4.3418 2.85645 7.30762 2.85645h60.9736
c2.96875 0 5.4043 -0.952148 7.2998 -2.85645c1.91113 -1.90625 2.86328 -4.3418 2.86328 -7.30469v-129.57z" />
    <glyph glyph-name="uniF152" unicode="&#xf152;" 
d="M256 448c95.8125 0 173.764 -77.9492 173.764 -173.763c0 -38.5068 -22.668 -97.0615 -71.3379 -184.274c-33.4668 -59.9717 -66.2842 -109.804 -67.666 -111.897l-23.8926 -36.2148c-2.40918 -3.65332 -6.49023 -5.85059 -10.8672 -5.85059
s-8.45801 2.19727 -10.8672 5.85059l-23.8945 36.2168c-1.39453 2.11816 -34.4521 52.3838 -67.6641 111.896c-48.6699 87.2168 -71.3379 145.772 -71.3379 184.274c0 95.8135 77.9512 173.763 173.764 173.763zM335.688 102.652
c45.1455 80.8994 68.0361 138.628 68.0361 171.585c0 81.4561 -66.2686 147.725 -147.725 147.725s-147.726 -66.2686 -147.726 -147.725c0 -32.9531 22.8916 -90.6826 68.0371 -171.585c32.75 -58.6826 65.2969 -108.172 66.665 -110.25l13.0234 -19.7412l13.0273 19.7461
c1.36133 2.06152 33.6602 51.1113 66.6611 110.245zM256 371.665c53.123 0 96.3418 -43.2197 96.3418 -96.3418c0 -53.123 -43.2188 -96.3428 -96.3418 -96.3428s-96.3418 43.2197 -96.3418 96.3428c0 53.1221 43.2188 96.3418 96.3418 96.3418zM256 205.02
c38.7666 0 70.3037 31.5371 70.3037 70.3037c0 38.7656 -31.5371 70.3037 -70.3037 70.3037c-38.7656 0 -70.3037 -31.5381 -70.3037 -70.3037c0 -38.7666 31.5381 -70.3037 70.3037 -70.3037z" />
    <glyph glyph-name="uniF1B9" unicode="&#xf1b9;" 
d="M512 416.33l-224.331 -224.329l224.331 -224.331l-31.6699 -31.6699l-224.331 224.331l-224.329 -224.331l-31.6699 31.6699l224.329 224.331l-224.329 224.329l31.6699 31.6699l224.329 -224.329l224.331 224.329z" />
    <glyph glyph-name="uniF17F" unicode="&#xf17f;" 
d="M388.805 199.049c2.3291 -1.58789 3.72852 -4.22461 3.72852 -7.04883s-1.39941 -5.46094 -3.72852 -7.04883l-187.733 -128c-1.44238 -0.981445 -3.12402 -1.48438 -4.80469 -1.48438c-1.36523 0 -2.73926 0.324219 -3.98535 0.989258
c-2.79883 1.47656 -4.54785 4.37793 -4.54785 7.54395v256c0 3.16602 1.74902 6.06738 4.54004 7.54297c2.79883 1.47656 6.17773 1.28027 8.79785 -0.494141zM204.8 80.1533l164.054 111.847l-164.054 111.847v-223.693zM256 448c141.158 0 256 -114.842 256 -256
s-114.842 -256 -256 -256s-256 114.842 -256 256s114.842 256 256 256zM256 -46.9336c131.746 0 238.934 107.188 238.934 238.934s-107.188 238.934 -238.934 238.934s-238.934 -107.188 -238.934 -238.934s107.188 -238.934 238.934 -238.934z" />
    <glyph glyph-name="uniF181" unicode="&#xf181;" 
d="M483.667 309.172c18.5352 -35.9434 28.3311 -76.46 28.3311 -117.171c0 -141.158 -114.841 -255.999 -255.999 -255.999s-255.999 114.841 -255.999 255.999s114.841 255.999 255.999 255.999c5.75293 0 10.4189 -4.66602 10.4189 -10.4189
s-4.66602 -10.4189 -10.4189 -10.4189c-129.667 0 -235.161 -105.492 -235.161 -235.161s105.494 -235.163 235.161 -235.163c129.668 0 235.161 105.494 235.161 235.161c0 37.9395 -8.75195 74.1475 -26.0127 107.622c-16.4746 31.9473 -40.498 60.1582 -69.4746 81.5869
c-4.62598 3.42285 -5.60547 9.94727 -2.18359 14.5732c3.42285 4.62598 9.94531 5.60352 14.5732 2.18262c31.5312 -23.3174 57.6768 -54.0215 75.6045 -88.792zM190.494 310.869c3.25781 1.85254 7.25488 1.81055 10.4785 -0.104492l184.46 -109.809
c3.09961 -1.8457 5.02344 -5.16309 5.08789 -8.76953c0.0634766 -3.60645 -1.74219 -6.98926 -4.77441 -8.94336l-127.573 -82.1943c-4.83789 -3.11816 -11.2832 -1.72266 -14.4023 3.11523c-3.11719 4.83691 -1.7207 11.2842 3.11523 14.4014l113.437 73.085
l-154.26 91.832v-210.325c0 -5.75488 -4.66602 -10.4189 -10.4199 -10.4189c-5.75293 0 -10.4189 4.66406 -10.4189 10.4189v228.654c0 3.74512 2.0127 7.2041 5.27051 9.05762z" />
    <glyph glyph-name="uniF180" unicode="&#xf180;" 
d="M436.17 269.676c26.9902 -16.8301 43.1035 -45.8652 43.1035 -77.6748c0 -31.8086 -16.1133 -60.8438 -43.1035 -77.6748l-263.468 -164.277c-14.9941 -9.35059 -31.6611 -14.0459 -48.3691 -14.0459c-15.1973 0 -30.4277 3.88379 -44.4814 11.6826
c-29.5068 16.373 -47.1221 46.2939 -47.1221 80.0381v328.555c0 33.7451 17.6152 63.666 47.1191 80.0391c29.5117 16.376 64.2197 15.4893 92.8535 -2.36426l153.374 -95.6289c7.52734 -4.69336 9.82422 -14.6016 5.13184 -22.1289
c-4.69531 -7.52832 -14.6006 -9.82227 -22.1318 -5.13184l-153.373 95.6318c-18.5869 11.5898 -41.1172 12.1592 -60.2666 1.53418c-19.1514 -10.6279 -30.585 -30.0498 -30.585 -51.9512v-328.557c0 -21.9014 11.4336 -41.3232 30.585 -51.9512
c19.1494 -10.625 41.6797 -10.0557 60.2666 1.53418l263.468 164.277c17.5186 10.9248 27.9746 29.7715 27.9746 50.417s-10.4561 39.4912 -27.9746 50.417c-7.52832 4.69238 -9.8252 14.5977 -5.13281 22.1279c4.69336 7.53027 14.5986 9.82812 22.1318 5.13184z" />
    <glyph glyph-name="uniF1A4" unicode="&#xf1a4;" 
d="M112.981 -59.4385c-1.25684 0 -2.5293 0.310547 -3.67676 0.930664c-2.51367 1.34961 -4.08105 3.9873 -4.08105 6.82715v110.529c-67.9102 35.3125 -105.224 97.1406 -105.224 174.607c0 119.716 110.049 209.982 256 209.982s256 -90.2666 256 -209.982
c0 -119.699 -110.049 -209.966 -256 -209.966c-4.79395 0 -9.49512 0.263672 -14.2119 0.511719l-0.310547 0.015625l-124.229 -82.168c-1.28809 -0.853516 -2.77734 -1.28809 -4.2666 -1.28809zM256 427.924c-137.092 0 -240.484 -83.6113 -240.484 -194.468
c0 -51.5566 17.501 -121.669 100.895 -162.894c2.6377 -1.30273 4.31348 -4.00293 4.31348 -6.9502v-100.864l114.331 75.6211c1.39648 0.930664 3.08691 1.47363 4.68555 1.27246l2.88574 -0.155273c4.4375 -0.248047 8.85938 -0.481445 13.3584 -0.481445
c137.092 0 240.485 83.5957 240.485 194.451c0 110.856 -103.378 194.468 -240.47 194.468z" />
    <glyph glyph-name="uniF136" unicode="&#xf136;" 
d="M74.2197 -38.2012c-8.73145 0 -16.2725 7.14355 -16.2725 16.6689v321.092v0.793945c0.396484 1.19043 0.396484 2.38086 0.793945 3.57227c0 0.396484 0 1.19043 0.396484 1.58789c0.793945 1.58691 1.58789 3.1748 2.77832 4.36523l90.8906 107.163
c0.792969 1.19043 1.98438 1.98438 3.1748 2.77832c0.396484 0.396484 0.793945 0.396484 1.19043 0.793945c1.19141 0.396484 1.98438 0.793945 3.17578 1.19043c0 0 0.396484 0.396484 0.792969 0.396484c1.19141 0.397461 2.77832 0.397461 3.96973 0.397461h272.67
c9.12793 0 16.2725 -7.14453 16.2725 -16.2734v-428.254c0 -9.12891 -7.14453 -16.2725 -16.2725 -16.2725h-363.561zM148.837 361.873l-39.6895 -46.834h39.6895v46.834zM90.4932 282.89v-288.546h331.014v395.709h-240.124v-90.8896
c0 -9.12891 -7.14453 -16.2734 -16.2725 -16.2734h-74.6172zM373.085 247.565c9.12891 0 16.2734 -7.14355 16.2734 -16.2725s-7.14453 -16.2725 -16.2734 -16.2725h-234.17c-9.12891 0 -16.2734 7.14355 -16.2734 16.2725s7.14453 16.2725 16.2734 16.2725h234.17z
M373.085 168.979c9.12891 0 16.2734 -7.54102 16.2734 -16.2725c0 -9.12891 -7.14453 -16.2725 -16.2734 -16.2725h-234.17c-9.12891 0 -16.2734 7.14355 -16.2734 16.2725s7.14453 16.2725 16.2734 16.2725h234.17z" />
    <glyph glyph-name="uniF135" unicode="&#xf135;" 
d="M356.57 -64h-275.24c-20.4326 0 -37.042 16.625 -37.042 37.042v358.438c0 20.418 16.6094 37.042 37.042 37.042h35.0273c4.08984 0 7.4082 -3.31836 7.4082 -7.4082s-3.31836 -7.4082 -7.4082 -7.4082h-35.0273c-12.2539 0 -22.2256 -9.97168 -22.2256 -22.2256
v-358.422c0 -12.2539 9.97168 -22.2256 22.2256 -22.2256h275.24c12.2539 0 22.2256 9.97168 22.2256 22.2256v35.042c0 4.08887 3.31836 7.4082 7.4082 7.4082s7.4082 -3.31934 7.4082 -7.4082v-35.042c0 -20.4326 -16.6094 -37.0576 -37.042 -37.0576zM430.655 15.4932
h-275.24c-20.4326 0 -37.042 16.624 -37.042 37.042v358.423c0 20.417 16.6094 37.042 37.042 37.042h201.57c4.08887 0 7.4082 -3.31934 7.4082 -7.4082c0 -4.08984 -3.30469 -7.40918 -7.39355 -7.40918h-201.585c-12.2539 0 -22.2256 -9.97168 -22.2256 -22.2246
v-358.423c0 -12.2539 9.97168 -22.2256 22.2256 -22.2256h275.24c12.2529 0 22.2246 9.97168 22.2246 22.2256v281.952c0 4.08984 3.31934 7.4082 7.40918 7.4082c4.08887 0 7.4082 -3.31836 7.4082 -7.4082v-281.952c0 -20.4326 -16.6094 -37.042 -37.042 -37.042z
M460.289 327.079h-103.304c-4.08984 0 -7.40918 3.31836 -7.40918 7.4082v103.318c0 4.08984 3.31934 7.40918 7.40918 7.40918c4.08887 0 7.4082 -3.31934 7.4082 -7.40918v-95.9102h95.8955c4.08887 0 7.4082 -3.31836 7.4082 -7.4082s-3.30371 -7.4082 -7.4082 -7.4082z
M460.289 327.079c-1.92676 0 -3.85254 0.754883 -5.30469 2.2373l-103.304 106.104c-2.84473 2.93457 -2.78613 7.61621 0.148438 10.4766c2.91895 2.8291 7.64551 2.77051 10.4756 -0.148438l103.304 -106.104c2.84473 -2.93359 2.78516 -7.61621 -0.148438 -10.4756
c-1.4375 -1.39258 -3.30371 -2.08887 -5.1709 -2.08887z" />
    <glyph glyph-name="uniF186" unicode="&#xf186;" 
d="M457.728 446.023c2.21973 -1.84375 54.2725 -46.626 54.2734 -168.688c0 -106.53 -39.6367 -154.172 -51.2002 -165.811v-115.789c0 -4.70996 -3.82324 -8.5332 -8.5332 -8.5332s-8.53223 3.82324 -8.53223 8.5332v116.881l-32.7002 49.0498
c-0.931641 1.39941 -1.43457 3.05469 -1.43457 4.73633v51.1992c0 4.70996 3.82324 8.5332 8.5332 8.5332s8.5332 -3.82324 8.5332 -8.5332v-48.6133l26.7256 -40.0898c9.4043 11.5195 26.4883 37.7842 35.5332 83.5576l-72.5244 30.7461h-109.201v-41.4717l66.168 -231.596
h27.6992c4.70996 0 8.53223 -3.82227 8.53223 -8.53223v-17.0674c0 -4.70996 -3.82227 -8.5332 -8.53223 -8.5332s-8.5332 3.82324 -8.5332 8.5332v8.5332h-25.5742h-0.0263672h-0.0253906h-221.815h-0.0253906h-0.0263672h-25.5742v-8.5332
c0 -4.70996 -3.82324 -8.5332 -8.5332 -8.5332s-8.53223 3.82324 -8.53223 8.5332v17.0674c0 4.70996 3.82227 8.53223 8.53223 8.53223h27.6992l66.167 231.596v41.4717h-136.533v-76.7998c0 -4.70996 -3.82227 -8.5332 -8.53223 -8.5332h-42.667v-34.1328h85.333v34.1328
h-8.5332c-4.70996 0 -8.5332 3.82324 -8.5332 8.5332s3.82324 8.53223 8.5332 8.53223h17.0654c4.70996 0 8.5332 -3.82227 8.5332 -8.53223v-51.2002c0 -4.70996 -3.82324 -8.5332 -8.5332 -8.5332h-102.399c-4.70996 0 -8.5332 3.82324 -8.5332 8.5332v51.2002
c0 4.70996 3.82324 8.53223 8.5332 8.53223h42.667v68.2676h-17.0674c-18.8242 0 -34.1328 15.3076 -34.1328 34.1328c0 18.8242 15.3086 34.1328 34.1328 34.1328h375.467v76.7998c0 1.68164 0.503906 3.33789 1.43457 4.73633l34.1328 51.2002
c1.33984 2.01367 3.48242 3.3623 5.87109 3.71191c2.39746 0.325195 4.83008 -0.34082 6.68945 -1.89355zM426.667 385.684v-69.8623l62.2588 26.3936c-9.0459 45.7471 -26.1211 72.0127 -35.5332 83.5498zM156.382 -29.8643h181.239l-81.6211 51.9424l-66.2441 -42.1631
c-1.41699 -0.904297 -3.00391 -1.33105 -4.57422 -1.33105c-2.81543 0 -5.58105 1.40039 -7.21094 3.95117c-2.52539 3.97656 -1.35645 9.25879 2.62012 11.7852l59.5205 37.8711l-55.8516 35.541zM352.555 -19.1289l-24.8145 86.8613l-41.7285 -26.5566
c-1.4248 -0.904297 -3.01172 -1.33984 -4.58203 -1.33984c-2.81543 0 -5.57129 1.40039 -7.20215 3.95117c-2.53418 3.98633 -1.35645 9.25098 2.61133 11.7852l40.2773 25.6338l-61.1162 40.3535l-37.9668 -25.0703c-1.4502 -0.956055 -3.08008 -1.4082 -4.69336 -1.4082
c-2.77246 0 -5.4873 1.33984 -7.125 3.82324c-2.60254 3.93359 -1.51855 9.23242 2.41504 11.8271l31.8809 21.0518l-31.9229 21.0859l-19.4297 -68.0195zM318.259 100.901l-14.8467 51.9688l-16.8115 -11.1025c-1.44141 -0.956055 -3.0791 -1.40723 -4.69238 -1.40723
c-2.77344 0 -5.4873 1.33887 -7.125 3.83105c-2.59375 3.92578 -1.51953 9.22461 2.41504 11.8184l21.2988 14.0713l-8.03027 28.1094c-0.22168 0.767578 -0.333008 1.55273 -0.333008 2.34668v42.667h-68.2666v-42.667c0 -0.793945 -0.111328 -1.5791 -0.333008 -2.34668
l-8.03027 -28.1094zM426.667 257.394l65.1426 -27.6123c1.9375 14.2324 3.12305 29.9941 3.12305 47.5557s-1.18555 33.3223 -3.12305 47.5557l-70.3486 -29.8145c-1.02441 -0.435547 -2.15039 -0.673828 -3.32812 -0.673828h-384
c-9.41309 0 -17.0664 -7.65527 -17.0664 -17.0674c0 -9.41309 7.6543 -17.0674 17.0664 -17.0674h375.468v8.5332c0 4.70996 3.82324 8.5332 8.5332 8.5332s8.5332 -3.82324 8.5332 -8.5332v-11.4092zM59.9893 285.869c4.71875 0 8.53418 -3.82324 8.5332 -8.5332
c0 -4.70996 -3.81445 -8.5332 -8.5332 -8.5332c-4.70996 0 -8.57617 3.82324 -8.57617 8.5332s3.78125 8.5332 8.49121 8.5332h0.0849609zM256.256 285.869c4.71875 0 8.5332 -3.82324 8.5332 -8.5332s-3.81445 -8.5332 -8.5332 -8.5332
c-4.70996 0 -8.57617 3.82324 -8.57617 8.5332s3.78125 8.5332 8.49121 8.5332h0.0849609z" />
    <glyph glyph-name="uniF137" unicode="&#xf137;" 
d="M460.8 328.533c5.12012 0 8.5332 -3.41309 8.5332 -8.5332s-3.41309 -8.5332 -8.5332 -8.5332h-17.0654v-187.733v-119.467c0 -30.7197 0 -68.2666 -42.667 -68.2666h-264.533c-37.5469 0 -68.2676 30.7197 -68.2676 68.2666v108.373v198.828h-17.0664
c-5.12012 0 -8.5332 3.41309 -8.5332 8.5332s3.41309 8.5332 8.5332 8.5332h25.5996h313.564l9.57617 56.499c-9.55859 6.06543 -15.9404 16.7383 -15.9404 28.834c0 18.7725 15.3604 34.1328 34.1328 34.1328c18.7744 0 34.1338 -15.3604 34.1328 -34.1338
c0 -18.7734 -15.3594 -34.1328 -34.1328 -34.1328c-0.482422 0 -0.961914 0.0166016 -1.43945 0.0361328l-8.68457 -51.2363h27.1914h25.5996zM418.133 430.933c-9.38574 0 -17.0654 -7.67969 -17.0654 -17.0664c0 -6.67871 3.89648 -12.4775 9.52148 -15.2764
c0.238281 -0.0214844 0.476562 -0.0439453 0.717773 -0.0839844c0.964844 -0.193359 1.88086 -0.613281 2.71973 -1.18262c1.31836 -0.330078 2.68945 -0.524414 4.10645 -0.524414c9.38672 0 17.0674 7.67969 17.0674 17.0674c0 9.38672 -7.68066 17.0664 -17.0674 17.0664
zM387.471 311.467h-302.138v-183.126c38.8066 20.8711 91.3398 15.4531 126.293 -15.7012c32.4268 -32.4268 81.9199 -58.0264 116.907 -25.5996c7.04297 7.04395 15.1211 12.3652 23.791 17.0596zM426.667 4.2666v110.08
c-16.2129 -1.70703 -32.4258 -6.82715 -46.9326 -15.3594l-5.12012 -2.56055c-2.18262 -1.01758 -4.33789 -2.03809 -6.46582 -3.07812l-18.2812 -107.854c-0.853516 -4.26758 -4.2666 -6.82715 -8.5332 -6.82715h-1.70703
c-4.2666 0.852539 -7.67969 5.12012 -6.82715 10.2402l15.7588 92.9736c-3.0957 -2.28125 -6.08203 -4.79102 -8.93164 -7.64062c-44.374 -40.96 -103.254 -11.9473 -139.947 25.5996c-30.7197 28.1602 -81.9199 31.5732 -114.347 8.5332v-104.106
c0 -28.1592 23.04 -51.1992 51.2002 -51.1992h264.534c22.1865 0 25.5996 12.7998 25.5996 51.1992zM426.667 131.682v179.784h-21.5498l-33.4492 -197.352l0.385742 0.231445c16.3643 9.66992 35.3223 15.4473 54.6133 17.3359zM221.867 260.267
c-5.12012 0 -8.5332 3.41309 -8.5332 8.5332s3.41309 8.5332 8.5332 8.5332h68.2666c5.12012 0 8.5332 -3.41309 8.5332 -8.5332s-3.41309 -8.5332 -8.5332 -8.5332h-68.2666zM221.867 209.067c-5.12012 0 -8.5332 3.41309 -8.5332 8.53223
c0 5.12012 3.41309 8.5332 8.5332 8.5332h68.2666c5.12012 0 8.5332 -3.41309 8.5332 -8.5332c0 -5.11914 -3.41309 -8.53223 -8.5332 -8.53223h-68.2666zM221.867 157.867c-5.12012 0 -8.5332 3.41309 -8.5332 8.5332c0 5.11914 3.41309 8.53223 8.5332 8.53223h68.2666
c5.12012 0 8.5332 -3.41309 8.5332 -8.53223c0 -5.12012 -3.41309 -8.5332 -8.5332 -8.5332h-68.2666z" />
    <glyph glyph-name="uniF15E" unicode="&#xf15e;" 
d="M101.856 307.438v40.7432h410.144v-40.7432h-410.144zM0 307.438v40.7432h40.7432v-40.7432h-40.7432zM0 35.8193v40.7432h40.7432v-40.7432h-40.7432zM101.856 35.8193v40.7432h410.144v-40.7432h-410.144zM0 171.629v40.7422h40.7432v-40.7422h-40.7432z
M101.856 171.629v40.7422h410.144v-40.7422h-410.144z" />
    <glyph glyph-name="uniF1A6" unicode="&#xf1a6;" 
d="M302.147 120.155c-30.9512 -13.0488 -64.6211 -19.5693 -101.005 -19.5557c-16.3799 0 -33.1416 1.52246 -50.2832 4.57129c-23.6182 -16.7607 -50.0967 -28.9561 -79.4307 -36.5723c-6.85547 -1.71582 -15.0479 -3.23926 -24.5693 -4.57227h-0.857422
c-2.09766 0 -4.04785 0.759766 -5.85645 2.28125c-1.80957 1.53027 -2.9043 3.52734 -3.28516 6c-0.194336 0.574219 -0.289062 1.19043 -0.289062 1.85547c0 0.664062 0.0488281 1.28809 0.144531 1.85547c0.09375 0.575195 0.288086 1.1377 0.570312 1.71289
l0.71582 1.42383s0.333984 0.523438 1.00098 1.57227c0.666016 1.04785 1.04688 1.52441 1.14355 1.4209c0.09375 -0.0888672 0.522461 0.384766 1.28613 1.43262c0.762695 1.04785 1.14355 1.47852 1.14355 1.28809c0.950195 1.13965 3.14258 3.52051 6.57129 7.13965
c3.43066 3.61328 5.90723 6.42871 7.43066 8.42871c1.52539 1.99316 3.66602 4.75293 6.42773 8.28027c2.76465 3.52734 5.14258 7.19043 7.14453 10.999c2 3.81543 3.95312 8 5.85645 12.5752c-23.6172 13.7129 -42.1904 30.5732 -55.7119 50.5684
c-13.5234 20 -20.2949 41.3418 -20.2949 64.0068c0 26.4785 8.95312 50.9512 26.8574 73.4307c17.9023 22.4766 42.3311 40.2383 73.2832 53.2881c30.9541 13.0439 64.6201 19.5703 101 19.5703c36.3838 0 70.0498 -6.52246 101.002 -19.5703
c30.9531 -13.0508 55.3809 -30.8125 73.2812 -53.2881c17.9082 -22.4756 26.8604 -46.9521 26.8604 -73.4297c0 -26.4766 -8.95215 -50.9512 -26.8525 -73.4258c-17.9033 -22.4795 -42.335 -40.2393 -73.2842 -53.2871zM491.713 109.587
c-13.5205 -19.9111 -32.0879 -36.7197 -55.707 -50.4463c1.9043 -4.56836 3.85645 -8.75977 5.85547 -12.5684c2.00098 -3.81152 4.38477 -7.47852 7.14453 -11c2.76074 -3.52734 4.9043 -6.28711 6.42871 -8.28711s3.99609 -4.80859 7.42773 -8.4248
c3.42676 -3.62012 5.61719 -6 6.56836 -7.14355c0.192383 -0.191406 0.575195 -0.624023 1.14355 -1.28418c0.576172 -0.662109 1.00098 -1.14062 1.28125 -1.4248c0.288086 -0.285156 0.667969 -0.767578 1.14355 -1.42871
c0.479492 -0.664062 0.801758 -1.19141 1 -1.56836l0.712891 -1.4248s0.192383 -0.571289 0.568359 -1.71582c0.376953 -1.14062 0.424805 -1.76367 0.143555 -1.85352c-0.287109 -0.0908203 -0.375977 -0.71875 -0.287109 -1.8623
c-0.568359 -2.66406 -1.80762 -4.75391 -3.71191 -6.27637c-1.9043 -1.52441 -4.00293 -2.19238 -6.28809 -2.00098c-9.52344 1.33203 -17.7148 2.85254 -24.5723 4.57129c-29.3311 7.62402 -55.8105 19.8086 -79.4277 36.5762
c-17.1445 -3.04785 -33.9043 -4.57422 -50.2881 -4.57422c-51.6162 0 -96.5703 12.5752 -134.854 37.7119c11.0469 -0.760742 19.4287 -1.1377 25.1406 -1.1377c30.668 0 60.0977 4.28906 88.2822 12.8574c28.1934 8.57422 53.3359 20.8564 75.4326 36.8564
c23.8086 17.5264 42.0947 37.7148 54.8564 60.5674c12.7695 22.8604 19.1426 47.0508 19.1426 72.5723c0 14.6699 -2.19043 29.1455 -6.56738 43.4297c24.5684 -13.5234 44 -30.4795 58.2871 -50.8555c14.2803 -20.3789 21.4316 -42.2979 21.4316 -65.7285
c0 -22.8594 -6.75879 -44.2334 -20.2871 -64.1367z" />
    <glyph glyph-name="uniF100" unicode="&#xf100;" 
d="M484.214 227.721c8.76758 0 27.7861 -11.9053 27.7861 -35.7197s-19.0156 -35.7207 -27.7832 -35.7207h-192.496v-192.496c0 -8.76758 -11.9062 -27.7832 -35.7207 -27.7832s-35.7207 19.0156 -35.7207 27.7832v192.496h-192.496
c-8.76855 0 -27.7832 11.9082 -27.7832 35.7207s19.0146 35.7197 27.7832 35.7188h192.495v192.496c0 8.76855 11.9072 27.7832 35.7207 27.7832s35.7207 -19.0137 35.7207 -27.7832v-192.495h192.494z" />
    <glyph glyph-name="uniF14B" unicode="&#xf14b;" 
d="M256 -38.5986c-127.008 0 -230.201 103.591 -230.201 230.599s102.797 230.201 230.201 230.201s230.599 -102.797 230.599 -230.201s-103.591 -230.599 -230.599 -230.599zM256 390.053c-109.147 0 -198.053 -88.9053 -198.053 -198.053
s88.9053 -198.053 198.053 -198.053s198.053 88.9053 198.053 198.053s-88.9053 198.053 -198.053 198.053zM277.829 76.8994l-104.781 104.781c-3.1748 3.1748 -4.7627 7.14453 -4.7627 11.5098c0 4.36621 1.58789 8.33496 4.7627 11.5107l104.781 104.781
c6.35059 6.35059 16.6699 6.35059 23.0205 0s6.35059 -16.6699 0 -23.0205l-93.2715 -93.2715l93.2715 -93.2715c6.35059 -6.34961 6.35059 -16.6689 0 -23.0195c-3.1748 -3.17578 -7.54102 -4.7627 -11.5098 -4.7627c-4.36621 0 -8.33496 1.58691 -11.5107 4.7627z" />
    <glyph glyph-name="uniF156" unicode="&#xf156;" 
d="M472.574 383.946c21.7109 0 39.4258 -17.7148 39.4258 -39.4268v-305.039c0 -21.7119 -17.7148 -39.4268 -39.4258 -39.4268h-433.148c-21.7109 0 -39.4258 17.7148 -39.4258 39.4268v305.039c0 21.7119 17.7148 39.4268 39.4258 39.4268h433.148zM466.849 354.781
h-416.297l208.148 -178.012zM482.835 39.4805v290.565l-214.845 -183.521c-0.108398 -0.108398 -0.324219 -0.216797 -0.432617 -0.324219c-0.107422 -0.108398 -0.324219 -0.216797 -0.431641 -0.324219c-0.324219 -0.21582 -0.540039 -0.324219 -0.864258 -0.540039
c-0.108398 -0.108398 -0.21582 -0.108398 -0.324219 -0.21582c-0.431641 -0.216797 -0.864258 -0.432617 -1.2959 -0.648438c-0.108398 0 -0.216797 -0.108398 -0.324219 -0.108398c-0.432617 -0.21582 -0.755859 -0.323242 -1.08008 -0.431641
c-0.108398 0 -0.324219 -0.108398 -0.432617 -0.108398c-0.323242 0 -0.647461 -0.107422 -0.97168 -0.21582c-0.108398 0 -0.324219 -0.108398 -0.432617 -0.108398c-0.323242 -0.107422 -0.755859 -0.21582 -1.08008 -0.21582h-0.324219
c-0.431641 -0.107422 -0.97168 -0.107422 -1.40332 -0.107422v0v0c-0.432617 0 -0.972656 0.107422 -1.4043 0.107422h-0.324219c-0.324219 0.108398 -0.755859 0.108398 -1.08008 0.21582c-0.108398 0 -0.324219 0.108398 -0.432617 0.108398
c-0.324219 0 -0.647461 0.108398 -0.97168 0.21582c-0.108398 0 -0.324219 0.108398 -0.432617 0.108398c-0.431641 0.108398 -0.755859 0.324219 -1.08008 0.431641c-0.107422 0 -0.21582 0.108398 -0.324219 0.108398
c-0.431641 0.21582 -0.863281 0.431641 -1.2959 0.648438c-0.107422 0.107422 -0.21582 0.107422 -0.324219 0.21582c-0.323242 0.107422 -0.540039 0.324219 -0.864258 0.540039c-0.107422 0.107422 -0.323242 0.21582 -0.431641 0.324219
c-0.108398 0.107422 -0.324219 0.21582 -0.431641 0.324219l-220.03 188.165v-295.21c0 -5.61719 4.64453 -10.2617 10.2607 -10.2617h433.148c5.61621 0 10.2607 4.64453 10.2607 10.2617z" />
    <glyph glyph-name="uniF138" unicode="&#xf138;" 
d="M490.581 264.533c12.4082 0 21.4189 -10.667 21.4189 -25.3613v-1.50977l-87.2617 -239.258c-2.35547 -8.82324 -11.042 -15.4707 -20.9072 -15.4707h-381.943c-6.86914 0 -13.2012 3.12305 -17.3818 8.58398c-3.00391 3.93457 -4.49707 8.63574 -4.45508 13.4404
h-0.0507812v372.796c0 12.8506 10.4619 23.3125 23.3135 23.3125h160.281l42.667 -59.7334h211.226c12.8506 0 23.3125 -10.4531 23.3125 -23.3125v-53.4873h29.7812zM17.0664 377.754v-321.426l70.6738 192.743c2.05566 7.70508 8.95996 13.7637 17.2627 15.1553
c1.18555 0.204102 2.40625 0.306641 3.63477 0.306641h335.087v53.4873c0 3.44727 -2.79883 6.24609 -6.24609 6.24609h-220.007l-42.666 59.7334h-151.492c-3.43945 0 -6.24707 -2.79883 -6.24707 -6.24609zM408.482 3.55859l86.3828 236.919
c-0.213867 2.33008 -1.04102 6.98926 -4.28418 6.98926h-29.7812h-352.171c-2.16699 0 -4.08691 -1.46777 -4.65039 -3.55859l-86.9629 -238.532c-0.31543 -1.29688 0.511719 -2.78223 1.0498 -3.48145c0.537109 -0.708008 1.74902 -1.89453 3.82227 -1.89453h381.943
c2.16797 0 4.08789 1.46777 4.65137 3.55859z" />
    <glyph glyph-name="uniF159" unicode="&#xf159;" 
d="M414.543 92.876c-2.03027 0 -4.06152 0.742188 -5.64648 2.24512l-94.9971 89.1191c-3.31836 3.10352 -3.4834 8.33789 -0.363281 11.6562c3.12109 3.35156 8.32129 3.5 11.6729 0.363281l94.9971 -89.1201c3.31836 -3.10352 3.4834 -8.33691 0.363281 -11.6553
c-1.63477 -1.7334 -3.81445 -2.6084 -6.02637 -2.6084zM97.4404 92.876c-2.19531 0 -4.3916 0.875 -6.02637 2.6084c-3.12012 3.31836 -2.95508 8.55176 0.363281 11.6553l95.0303 89.1201c3.33496 3.10352 8.56836 2.97168 11.6729 -0.363281
c3.12012 -3.31836 2.95508 -8.55273 -0.363281 -11.6562l-95.0303 -89.1191c-1.58496 -1.50293 -3.61621 -2.24512 -5.64648 -2.24512zM470.726 10.0127h-429.451c-22.751 0 -41.2744 18.5078 -41.2744 41.2744v281.441c0 22.7676 18.5234 41.2744 41.2744 41.2744h429.451
c22.751 0 41.2744 -18.5068 41.2744 -41.2744v-281.441c0 -22.7666 -18.5234 -41.2744 -41.2744 -41.2744zM41.2744 357.493c-13.6533 0 -24.7646 -11.1104 -24.7646 -24.7646v-281.441c0 -13.6533 11.1113 -24.7646 24.7646 -24.7646h429.451
c13.6533 0 24.7646 11.1113 24.7646 24.7646v281.441c0 13.6543 -11.1113 24.7646 -24.7646 24.7646h-429.451zM256 150.527c-10.9785 0 -21.958 3.64844 -30.3115 10.9297l-211.985 184.926c-3.43359 2.98828 -3.79688 8.20508 -0.808594 11.6553
c3.02051 3.43457 8.22168 3.74805 11.6553 0.792969l211.985 -184.909c10.5498 -9.19629 28.3799 -9.19629 38.9131 0l211.721 184.612c3.41797 2.9873 8.61816 2.65723 11.6562 -0.792969c2.98828 -3.4502 2.6416 -8.65137 -0.791992 -11.6562l-211.722 -184.611
c-8.37012 -7.29785 -19.333 -10.9463 -30.3115 -10.9463z" />
    <glyph glyph-name="uniF177" unicode="&#xf177;" 
d="M511.756 44.0303c1.08496 -8.3125 -1.44824 -15.5391 -7.58887 -21.6807l-72.0879 -71.5439c-3.25195 -3.61328 -7.49707 -6.6875 -12.7363 -9.21484c-5.24023 -2.53027 -10.3887 -4.15625 -15.4453 -4.87793c-0.361328 0 -1.44824 -0.0927734 -3.25586 -0.273438
c-1.80371 -0.179688 -4.15234 -0.272461 -7.04297 -0.272461c-6.86816 0 -17.9795 1.1748 -33.3369 3.52441s-34.1465 8.13184 -56.3672 17.3447c-22.2266 9.21387 -47.4297 23.0371 -75.6133 41.4639c-28.1846 18.4268 -58.1768 43.7227 -89.9756 75.8828
c-25.2939 24.9326 -46.252 48.7812 -62.874 71.5459c-16.6221 22.7656 -29.9912 43.8135 -40.1094 63.1455s-17.707 36.8574 -22.7656 52.5762s-8.49121 29.2686 -10.2979 40.6514c-1.80664 11.3818 -2.53027 20.3252 -2.16797 26.8301
c0.361328 6.50391 0.541992 10.1172 0.541992 10.8398c0.722656 5.05859 2.34863 10.208 4.87793 15.4473c2.5293 5.24023 5.60059 9.48535 9.21387 12.7383l72.0889 72.0879c5.05859 5.05859 10.8398 7.58887 17.3447 7.58887c4.69727 0 8.85254 -1.35547 12.4658 -4.06543
s6.68555 -6.05273 9.21484 -10.0273l57.9961 -110.03c3.25195 -5.78125 4.15527 -12.1045 2.70996 -18.9707c-1.44531 -6.86523 -4.51758 -12.6465 -9.21484 -17.3438l-26.5586 -26.5596c-0.722656 -0.722656 -1.35547 -1.89648 -1.89746 -3.52246
s-0.8125 -2.98145 -0.8125 -4.06543c1.44531 -7.58789 4.69727 -16.2607 9.75586 -26.0166c4.33594 -8.67285 11.0215 -19.2422 20.0547 -31.708c9.03418 -12.4668 21.8613 -26.8291 38.4834 -43.0898c16.2607 -16.624 30.7148 -29.54 43.3613 -38.7559
c12.6445 -9.21094 23.2178 -15.9893 31.709 -20.3252c8.49219 -4.33594 14.9961 -6.95605 19.5117 -7.85645l6.77344 -1.35645c0.722656 0 1.90039 0.272461 3.52441 0.813477c1.62598 0.542969 2.80078 1.17383 3.52441 1.89746l30.8936 31.4375
c6.50781 5.78027 14.0928 8.6709 22.7656 8.6709c6.14453 0 11.0205 -1.08301 14.6338 -3.25195h0.541016l104.608 -61.79c7.59082 -4.70117 12.1074 -10.6611 13.5537 -17.8877z" />
    <glyph glyph-name="uniF1A0" unicode="&#xf1a0;" 
d="M290.083 49.1602v0.0146484h17.9482v-87.4297c0 -14.1748 -11.6006 -25.7451 -25.7744 -25.7451h-169.975c-14.1592 0 -25.7588 11.5703 -25.7588 25.7451v329.768c0 14.1592 11.5996 25.7441 25.7588 25.7441h71.7197v-16.8213h-79.5596v-316.793h185.641v65.5176z
M159.413 -45.3936c3.99316 0 7.25488 3.24707 7.25488 7.25586c0 3.97852 -3.24707 7.24023 -7.24023 7.24023h-21.7373c-3.97852 0 -7.24023 -3.26172 -7.24023 -7.24023c0 -3.97949 3.26172 -7.25586 7.24023 -7.25586h21.7227zM197.24 -51.0986
c7.12402 0 12.873 5.76367 12.873 12.873c0 7.1084 -5.77832 12.8867 -12.873 12.8867s-12.8721 -5.77832 -12.8721 -12.8867c0 -7.08008 5.7627 -12.873 12.8721 -12.873zM256.834 -45.3936c3.99316 0 7.24023 3.24707 7.25488 7.25586
c0 3.97852 -3.26172 7.24023 -7.25488 7.24023h-21.7373c-3.97852 0 -7.24023 -3.26172 -7.24023 -7.24023c0 -3.97949 3.26172 -7.25586 7.24023 -7.25586h21.7373zM399.732 448c14.1299 0 25.7295 -11.5703 25.7588 -25.7451v-329.753
c0 -14.1738 -11.5996 -25.7734 -25.7588 -25.7734h-169.975c-14.1592 0 -25.7451 11.5996 -25.7451 25.7734v329.753c0 14.1748 11.5859 25.7451 25.7451 25.7451h169.975zM287.552 429.423c-1.71094 0 -3.12988 -1.375 -3.12988 -3.11621
c0 -1.71094 1.4043 -3.11523 3.12988 -3.11523h54.3711c1.72656 0 3.11621 1.4043 3.11621 3.11523c0 1.71191 -1.38965 3.11621 -3.11621 3.11621h-54.3711zM314.73 79.6152c7.10938 0 12.8867 5.76367 12.8867 12.8867c0 7.10938 -5.77734 12.873 -12.8867 12.873
c-7.09473 0 -12.8574 -5.76367 -12.8574 -12.873c0 -7.12305 5.7627 -12.8867 12.8574 -12.8867zM407.572 114.385h-0.0146484v292.789h-185.641v-292.789h185.655z" />
    <glyph glyph-name="uniF15B" unicode="&#xf15b;" 
d="M255.999 448c106.03 0 192.002 -85.9707 192.002 -192c0 -43.1885 -14.248 -83.002 -38.3145 -115.097l-153.686 -204.903l-153.688 204.903c-24.0645 32.0947 -38.3145 71.9092 -38.3145 115.097c0 106.029 85.9707 192 192 192zM255.999 128.001
c70.6904 0 127.999 57.3086 127.999 127.999c0 70.6875 -57.3096 128.001 -127.999 128.001c-70.6865 0 -127.998 -57.3135 -127.998 -128.001c0 -70.6895 57.3115 -127.999 127.998 -127.999z" />
    <glyph glyph-name="uniF101" unicode="&#xf101;" 
d="M512 204.19v-24.3809h-243.81v-243.81h-24.3809v243.81h-243.81v24.3809h243.81v243.81h24.3809v-243.81h243.81z" />
    <glyph glyph-name="uniF19F" unicode="&#xf19f;" 
d="M345.644 231.936l-12.9609 -12.9463c-42.3057 42.292 -111.104 42.292 -153.409 0l-12.9463 12.9463c49.4443 49.4307 129.901 49.4453 179.316 0zM188.709 209.555c37.1123 37.083 97.4551 37.083 134.539 0l-12.9473 -12.9609
c-29.959 29.959 -78.7012 29.959 -108.646 0zM211.807 186.456c24.3867 24.3564 63.9863 24.3564 88.3574 0l-12.9609 -12.9463c-17.2178 17.2178 -45.2314 17.2178 -62.4502 0zM404.714 413.418v-442.821c0 -19.0322 -15.5352 -34.582 -34.582 -34.582h-228.278
c-19.0176 -0.0146484 -34.582 15.5352 -34.582 34.5674v442.836c0 19.0176 15.5645 34.582 34.582 34.582h228.264c19.0176 0 34.5967 -15.5498 34.5967 -34.582zM215.289 418.889c0 -2.31055 1.87207 -4.18359 4.18359 -4.18359h73.0254
c2.31152 0 4.18359 1.87305 4.18359 4.18359c0 2.31152 -1.87207 4.19922 -4.18359 4.19922h-73.0254c-2.29688 -0.0146484 -4.18359 -1.8877 -4.18359 -4.19922zM273.276 -29.418c0 9.55273 -7.73828 17.291 -17.291 17.291s-17.291 -7.72363 -17.291 -17.291
s7.73828 -17.3057 17.291 -17.3057s17.291 7.75293 17.291 17.3057zM380.65 393.157h-249.301v-393.157h249.301v393.157z" />
    <glyph glyph-name="uniF1C2" unicode="&#xf1c2;" 
d="M319.889 210.054h-0.000976562v45.916h85.2236l-64.8145 -255.939h-50.168l-34.1279 151.354l-38.1475 -151.354h-54.4189l-56.5459 255.939h55.6973l28.9082 -159.005l38.5566 159.005h53.2754l33.1621 -159.005l25.5059 113.089h-22.1055zM451.717 348.285
c15.5547 -15.5566 28.2832 -46.2852 28.2832 -68.2852v-304c0 -22 -18 -40 -40 -40h-368c-22 0 -40 18 -40 40v432c0 22 18 40 40 40h240c22 0 52.7285 -12.7275 68.2832 -28.2842zM429.09 325.657l-71.4336 71.4307c-1.56445 1.56543 -3.48633 3.125 -5.65625 4.63965
v-81.7275h81.7285c-1.51367 2.16992 -3.07422 4.0918 -4.63867 5.65723zM448 -24v304c0 2.41699 -0.304688 5.12695 -0.851562 8h-127.148v127.148c-2.87305 0.546875 -5.58398 0.851562 -8 0.851562h-240c-4.33594 0 -8 -3.66406 -8 -8v-432c0 -4.33594 3.66406 -8 8 -8
h368c4.33594 0 8 3.66406 8 8z" />
    <glyph glyph-name="uniF10E" unicode="&#xf10e;" 
d="M335.62 138.365c28.9639 0 52.5273 -23.5635 52.5273 -52.5264s-23.5645 -52.5273 -52.5273 -52.5273s-52.5264 23.5645 -52.5264 52.5273s23.5635 52.5264 52.5264 52.5264zM335.62 49.8994c19.8174 0 35.9395 16.123 35.9395 35.9395
s-16.1221 35.9395 -35.9395 35.9395s-35.9395 -16.123 -35.9395 -35.9395s16.1221 -35.9395 35.9395 -35.9395zM335.62 101.873c8.84277 0 16.0342 -7.19336 16.0342 -16.0342s-7.19336 -16.0342 -16.0342 -16.0342s-16.0342 7.19336 -16.0342 16.0342
s7.19336 16.0342 16.0342 16.0342zM512 253.925c0 -12.583 -8.99023 -23.1025 -20.8857 -25.4834l-69.9492 -122.41c1.53125 -6.48926 2.36719 -13.2441 2.36719 -20.1943c0 -48.4756 -39.4365 -87.9141 -87.9131 -87.9141c-45.6787 0 -83.3164 35.0205 -87.5107 79.6201
h-23.8271l-56.8193 -62.501c-4.87012 -5.35742 -11.5742 -8.23047 -18.4727 -8.23047c-3.04492 0 -6.12988 0.560547 -9.11035 1.71289c-9.73633 3.76465 -16.0264 12.9404 -16.0264 23.3789v96.209l-122.977 245.955c-2.04785 4.09766 -0.387695 9.0791 3.70898 11.127
c4.10059 2.04883 9.08008 0.388672 11.1279 -3.70898l123.853 -247.706c0.576172 -1.15039 0.875977 -2.41992 0.875977 -3.70898v-98.166c0 -5.39258 4.14844 -7.41504 5.41992 -7.90723c1.27148 -0.491211 5.70312 -1.7832 9.32812 2.2041l59.2871 65.2158
c1.57227 1.72754 3.80078 2.71387 6.1377 2.71387h27.4951c0.317383 3.37695 0.824219 6.69727 1.51367 9.95312h-35.0137c-15.6357 0 -30.166 8.43262 -37.9258 22.0078l-58.4844 102.352c-11.8945 2.37891 -20.8848 12.8984 -20.8848 25.4814
c0 14.3291 11.6572 25.9873 25.9863 25.9873h362.712c14.3301 0 25.9873 -11.6582 25.9873 -25.9873zM123.301 263.324c-5.18164 0 -9.39941 -4.2168 -9.39941 -9.39941s4.2168 -9.39941 9.39941 -9.39941h362.712c5.18359 0 9.39941 4.2168 9.39941 9.39941
s-4.21582 9.39941 -9.39941 9.39941h-362.712zM335.62 14.5127c39.3301 0 71.3262 31.9971 71.3262 71.3262s-31.9971 71.3262 -71.3262 71.3262s-71.3262 -31.9971 -71.3262 -71.3262s31.9971 -71.3262 71.3262 -71.3262zM335.62 173.752
c33.8965 0 63.3506 -19.293 78.0156 -47.4629l58.0859 101.648h-334.129l53.4932 -93.6133c4.81152 -8.4209 13.8252 -13.6523 23.5234 -13.6523h40.3096c13.5166 31.1963 44.5957 53.0801 80.7012 53.0801z" />
    <glyph glyph-name="uniF1BF" unicode="&#xf1bf;" 
d="M383.404 341.631c9.12891 0 16.2734 -7.14355 16.6699 -16.2725v-76.6016l59.1387 59.1377c4.36523 4.7627 11.5098 5.95312 17.4629 3.57227c5.9541 -2.77832 9.92285 -8.73145 9.92285 -15.082v-208.372c0 -6.74707 -3.96875 -12.7012 -9.92285 -15.082
c-1.98438 -0.793945 -4.36523 -1.19141 -6.35059 -1.19141c-4.36523 0 -8.33496 1.58789 -11.5098 4.7627l-59.1377 59.1387v-76.999c0 -9.12793 -7.54102 -16.2725 -16.2734 -16.2725h-341.729c-9.12891 0 -16.2734 7.54102 -16.2734 16.2725v266.717
c0 9.12793 7.54102 16.2725 16.2734 16.2725h341.729zM367.132 209.464v100.019h-309.581v-234.965h309.581v100.019v34.9277zM454.053 257.092l-54.375 -54.7725v-21.4326l54.375 -54.375v130.58z" />
    <glyph glyph-name="uniF1BE" unicode="&#xf1be;" 
d="M316.798 -28.6963h-277.453c-21.7002 0 -39.3447 17.6445 -39.3447 39.3164v208.34c0 21.6865 17.6445 39.3174 39.3447 39.3174h277.453c21.6855 0 39.3174 -17.6445 39.3174 -39.3174v-208.34c0 -21.6719 -17.6318 -39.3164 -39.3174 -39.3164zM39.3447 244.578
c-14.1377 0 -25.6455 -11.4941 -25.6455 -25.6182v-208.34c0 -14.124 11.5078 -25.6172 25.6455 -25.6172h277.453c14.124 0 25.6182 11.4932 25.6182 25.6172v208.34c0 14.124 -11.4941 25.6182 -25.6182 25.6182h-277.453zM505.15 -5.25684
c-1.4248 0 -2.83594 0.438477 -4.02734 1.31445l-155.886 113.239c-1.78027 1.28809 -2.82129 3.34277 -2.82129 5.53516c0 2.19141 1.05469 4.25977 2.82129 5.54785l155.845 113.17c2.06836 1.50684 4.84961 1.71289 7.13672 0.5625
c2.30176 -1.16504 3.74023 -3.52148 3.74023 -6.09668l0.0410156 -226.396c0 -2.5752 -1.43848 -4.93164 -3.72656 -6.09668c-1 -0.53418 -2.06836 -0.780273 -3.12305 -0.780273zM360.924 114.831l137.377 -99.7861l-0.0410156 199.518zM84.0459 244.578
c-46.3457 0 -84.0459 37.7148 -84.0459 84.0596s37.7002 84.0586 84.0459 84.0586c46.3447 0 84.0586 -37.7002 84.0586 -84.0586s-37.7139 -84.0596 -84.0586 -84.0596zM84.0459 398.997c-38.7832 0 -70.3467 -31.5635 -70.3467 -70.3594
c0 -38.7969 31.5635 -70.3604 70.3467 -70.3604c38.7959 0 70.3594 31.5635 70.3594 70.3604c0 38.7959 -31.5635 70.3594 -70.3594 70.3594zM272.056 244.578c-46.3447 0 -84.0596 37.7012 -84.0596 84.0596s37.7148 84.0586 84.0596 84.0586
s84.0596 -37.7002 84.0596 -84.0586s-37.7148 -84.0596 -84.0596 -84.0596zM272.056 398.997c-38.7969 0 -70.3604 -31.5635 -70.3604 -70.3594c0 -38.7969 31.5635 -70.3604 70.3604 -70.3604s70.3604 31.5635 70.3604 70.3604
c0 38.7959 -31.5635 70.3594 -70.3604 70.3594z" />
    <glyph glyph-name="uniF133" unicode="&#xf133;" 
d="M256 -43.5205l-35.8398 35.8408c-133.12 117.76 -220.16 197.12 -220.16 294.399c0 79.3604 61.4404 140.8 140.8 140.8c43.5205 0 87.04 -20.4795 115.2 -53.7598c28.1602 33.2803 71.6797 53.7598 115.2 53.7598c79.3594 0 140.8 -61.4395 140.8 -140.8
c0 -97.2793 -87.04 -176.64 -220.16 -294.399z" />
    <glyph glyph-name="uniF17B" unicode="&#xf17b;" 
d="M255.893 448c113.134 0 205.229 -92.0957 205.444 -205.229c0 -12.8799 -1.28809 -25.8682 -3.64941 -38.5342c-0.107422 -0.750977 -0.537109 -3.00488 -1.39551 -6.86914c-3.11328 -13.9541 -7.72852 -27.4785 -13.7393 -40.4668
c-22.1113 -52.0586 -70.8428 -132.024 -177.429 -217.681c-2.68359 -2.14648 -5.9043 -3.21973 -9.12402 -3.21973s-6.44043 1.07324 -9.12402 3.21973c-106.693 85.6562 -155.317 165.622 -177.429 217.681c-6.01074 12.9883 -10.626 26.6201 -13.7393 40.4668
c-0.858398 3.86426 -1.28809 6.11816 -1.39551 6.86914c-2.46875 12.666 -3.64941 25.6543 -3.64941 38.5342c0 113.134 92.0957 205.229 205.229 205.229zM428.921 209.281c2.14648 10.9482 3.21973 22.2188 3.21973 33.5967c0 97.1406 -79.1074 176.248 -176.248 176.248
s-176.248 -79.1074 -176.248 -176.248c0 -11.2705 1.07324 -22.4336 3.21973 -33.4893c0 -0.322266 0.107422 -0.537109 0.107422 -0.750977c0.107422 -0.537109 0.322266 -2.14746 0.96582 -4.61621v-0.214844c2.79102 -12.0215 6.7627 -23.8281 11.915 -34.9912
c0.107422 -0.107422 0.107422 -0.322266 0.214844 -0.429688c20.0723 -47.5508 64.0801 -120.11 159.825 -199.219c95.7451 79.1084 139.754 151.668 159.825 199.219c0.107422 0.107422 0.107422 0.322266 0.214844 0.429688
c5.25977 11.2705 9.23145 22.9697 11.915 34.9912v0.214844c0.536133 2.46875 0.858398 4.0791 0.96582 4.61621c0 0.213867 0.107422 0.428711 0.107422 0.643555zM255.893 370.824c71.8086 0 130.308 -58.499 130.308 -130.308s-58.499 -130.308 -130.308 -130.308
s-130.308 58.499 -130.308 130.308s58.499 130.308 130.308 130.308zM255.893 139.189c55.9229 0 101.327 45.5117 101.327 101.327s-45.5117 101.326 -101.327 101.326s-101.326 -45.5107 -101.326 -101.326s45.4033 -101.327 101.326 -101.327z" />
    <glyph glyph-name="uniF193" unicode="&#xf193;" 
d="M485.793 245.746c15.2939 -2.56738 26.418 -15.7227 26.2041 -31.2314v-45.0283c0 -15.5088 -11.124 -28.6641 -26.418 -31.2314l-35.9375 -5.98926c-3.63672 -11.9785 -8.55664 -23.6367 -14.4385 -34.8672l21.1768 -29.7334
c8.98438 -12.6211 7.4873 -29.8408 -3.42285 -40.751l-31.8721 -31.8721c-5.99023 -5.99023 -13.9043 -9.30566 -22.3545 -9.30566v0c-6.63086 0 -13.0479 2.03223 -18.3965 5.88281l-29.626 21.1768c-11.124 -5.88184 -22.7822 -10.6953 -34.8682 -14.4385
l-6.0957 -35.9375c-2.56738 -15.2949 -15.7227 -26.418 -31.2314 -26.418h-45.1357c-15.5078 0 -28.6641 11.124 -31.2305 26.418l-5.99023 35.9375c-11.6582 3.63672 -22.9951 8.23535 -33.7979 13.9043l-30.0547 -21.3916
c-5.34766 -3.85059 -11.6572 -5.88184 -18.2891 -5.88184c-8.44922 0 -16.3643 3.31543 -22.3535 9.30469l-31.873 31.873c-11.0166 10.9092 -12.4062 28.1289 -3.42285 40.75l21.0703 29.3057c-5.98926 11.123 -10.9092 22.7812 -14.6523 34.7607l-36.3652 6.20312
c-15.2949 2.56738 -26.418 15.7227 -26.418 31.2314v45.0283c0 15.5088 11.123 28.6641 26.418 31.2305l35.5098 5.99023c3.63574 12.0859 8.3418 23.7441 14.2246 34.9746l-21.3906 30.0537c-8.98438 12.6211 -7.4873 29.8408 3.42188 40.751l31.9805 31.8721
c5.88184 5.99023 13.9033 9.30566 22.3535 9.30566c6.63086 0 13.0488 -2.03223 18.3965 -5.88281l29.4121 -21.1768c11.124 5.98926 22.7822 10.9092 34.7607 14.6523l6.2041 36.3652c2.56641 15.2949 15.7217 26.418 31.2305 26.418h45.0283
c15.5088 0 28.6641 -11.123 31.2314 -26.418l5.98926 -35.5098c12.5137 -3.74316 24.5996 -8.77051 36.1514 -14.8662l29.7334 21.1768c5.34766 3.85059 11.6582 5.88281 18.2891 5.88281c8.4502 0 16.3643 -3.31543 22.3545 -9.30566l31.8721 -31.8721
c11.0166 -10.9102 12.4072 -28.1299 3.42285 -40.75l-21.1768 -29.627c5.88184 -11.124 10.6953 -22.7822 14.4385 -34.8682zM483.333 169.486h0.106445v45.0283c0 1.39062 -0.962891 2.56738 -2.35254 2.78125l-44.9219 7.59375
c-5.56152 0.855469 -10.1611 5.02637 -11.5508 10.5889c-4.06445 15.7217 -10.2676 30.8027 -18.6104 44.8145c-2.8877 4.91992 -2.67383 11.123 0.641602 15.7217l26.418 37.1143c0.749023 1.17578 0.641602 2.67383 -0.321289 3.63574l-31.8721 31.873
c-0.749023 0.749023 -1.60449 0.855469 -2.03223 0.855469c-0.535156 0 -1.06934 -0.213867 -1.60449 -0.53418l-36.8994 -26.5254c-4.70605 -3.31543 -10.8027 -3.5293 -15.7227 -0.641602c-14.332 8.44922 -29.7334 14.7598 -45.8838 18.8242
c-5.5625 1.39062 -9.7334 5.98926 -10.6963 11.6582l-7.48633 44.6006c-0.213867 1.39062 -1.39062 2.35254 -2.78125 2.35254h-45.0283c-1.39062 0 -2.56641 -0.961914 -2.78027 -2.35254l-7.70117 -45.2422c-0.962891 -5.56152 -5.13379 -10.0537 -10.5889 -11.5518
c-15.7227 -4.06348 -30.8027 -10.4814 -44.707 -18.8242c-4.91992 -2.8877 -11.124 -2.67383 -15.8301 0.641602l-36.8994 26.3115c-0.427734 0.321289 -0.962891 0.535156 -1.60449 0.535156c-0.53418 0 -1.2832 -0.107422 -2.03223 -0.856445l-31.8721 -31.8721
c-0.962891 -0.962891 -1.07031 -2.56738 -0.321289 -3.63672l26.6318 -37.4346c3.31543 -4.59863 3.63672 -10.6953 0.749023 -15.6152c-8.23535 -14.0117 -14.332 -29.1992 -18.2891 -44.9219c-1.39062 -5.56152 -5.99023 -9.73242 -11.6582 -10.6953l-44.6006 -7.4873
c-1.39062 -0.213867 -2.35352 -1.38965 -2.35352 -2.78027v-45.0283c0 -1.39062 0.962891 -2.56738 2.35352 -2.78125l45.2422 -7.7002c5.56152 -0.962891 10.0537 -5.13477 11.5508 -10.5889c4.06445 -15.7227 10.4814 -30.8037 18.8242 -44.708
c2.8877 -4.91992 2.67383 -11.123 -0.641602 -15.8291l-26.3115 -36.8994c-0.748047 -1.17676 -0.641602 -2.67383 0.321289 -3.63672l31.873 -31.873c0.748047 -0.748047 1.60449 -0.855469 2.03223 -0.855469c0.53418 0 1.06934 0.213867 1.60352 0.535156
l37.4346 26.6318c2.45996 1.81836 5.45508 2.67383 8.34277 2.67383c2.45996 0 5.02734 -0.641602 7.27344 -1.9248c13.7969 -7.91504 28.5566 -14.0117 43.8516 -17.9688c5.45508 -1.39062 9.62598 -5.88281 10.5889 -11.5518l7.48633 -44.9209
c0.213867 -1.39062 1.39062 -2.35352 2.78125 -2.35352h45.0283c1.39062 0 2.56641 0.962891 2.78027 2.35352l7.59473 44.9209c0.855469 5.56152 5.02637 10.1611 10.5879 11.5518c15.7227 4.06445 30.8037 10.2676 44.8145 18.6104
c4.91992 2.8877 11.124 2.67383 15.7227 -0.641602l37.1143 -26.4189c0.427734 -0.320312 0.961914 -0.53418 1.60352 -0.53418c0.535156 0 1.28418 0.106445 2.03223 0.855469l31.873 31.873c0.962891 0.961914 1.06934 2.56641 0.321289 3.63574l-26.4189 37.2207
c-3.31543 4.70605 -3.5293 10.8027 -0.641602 15.7227c8.34277 14.0117 14.5459 29.0918 18.6104 44.8145c1.39062 5.45508 5.88281 9.62598 11.5518 10.5889l44.9209 7.48633c1.39062 0.214844 2.35352 1.39062 2.35352 2.78125zM256.052 302.539
c60.9648 0 110.485 -49.5205 110.485 -110.485s-49.5205 -110.485 -110.485 -110.485s-110.485 49.5205 -110.485 110.485s49.5205 110.485 110.485 110.485zM256.052 110.447c45.0283 0 81.6074 36.5781 81.6074 81.6064s-36.5791 81.6074 -81.6074 81.6074
s-81.6074 -36.5791 -81.6074 -81.6074s36.5791 -81.6064 81.6074 -81.6064z" />
    <glyph glyph-name="uniF12D" unicode="&#xf12d;" 
d="M478.836 414.833c21.3818 -21.2725 33.1641 -49.6367 33.1641 -79.8555c0 -30.2178 -11.7822 -58.582 -33.1641 -79.9639l-293.02 -292.91c-2.72754 -2.83691 -6.54492 -4.36328 -10.3633 -4.36328s-7.63672 1.63574 -10.3643 4.36328l-118.037 118.037
l-15.1631 -112.146l77.6729 10.4727c8.07324 1.09082 15.4912 -4.58105 16.582 -12.6543c1.09082 -8.07227 -4.58203 -15.4912 -12.6543 -16.582l-96.874 -13.0908c-0.654297 -0.109375 -1.30859 -0.109375 -1.96289 -0.109375
c-3.81836 0 -7.63672 1.63672 -10.3643 4.36426c-3.16309 3.16309 -4.7998 7.74512 -4.14551 12.3271l21.71 160.801c0.435547 3.16309 1.85449 6.10938 4.14551 8.39941l293.02 292.911c44.0723 44.1816 115.746 44.1816 159.818 0zM324.69 378.833l-267.384 -267.384
l49.2002 -49.2002l267.384 267.384zM175.562 -6.69629l267.384 267.383l-48.1094 48.1094l-267.384 -267.383zM463.454 281.741c12.3271 14.9453 19.0908 33.4912 19.0908 53.2363c0 22.3643 -8.61816 43.4189 -24.4365 59.1279
c-15.8174 15.709 -36.7637 24.4365 -59.127 24.4365c-19.6367 0 -38.291 -6.76367 -53.2373 -19.0908z" />
    <glyph glyph-name="uniF19D" unicode="&#xf19d;" 
d="M508.164 391.312c2.69824 -2.69629 4.08203 -6.43457 3.79785 -10.2354l-12.9668 -172.106c-0.236328 -3.12402 -1.58398 -6.05566 -3.79688 -8.26953l-255.398 -255.396c-5.10742 -5.11328 -13.3975 -5.11035 -18.5068 0l-25.3516 25.3516
c1.41406 1.07617 2.76758 2.24609 4.04492 3.52344l255.4 255.398c6.63184 6.63086 10.6768 15.4424 11.3848 24.8096l10.4854 139.161l20.6748 1.55859c3.80078 0.289062 7.53613 -1.09766 10.2324 -3.79492zM440.672 256.355
c-0.235352 -3.12402 -1.58008 -6.05762 -3.79395 -8.27148l-255.398 -255.399c-2.55469 -2.55371 -5.90527 -3.83105 -9.25391 -3.83105c-3.34961 0 -6.69727 1.27637 -9.25293 3.83105l-159.141 159.139c-5.10938 5.10938 -5.10938 13.3975 0 18.5088l255.398 255.397
c2.21484 2.21582 5.14941 3.55957 8.27148 3.79492l172.105 12.9697c0.328125 0.0244141 0.657227 0.0371094 0.983398 0.0371094c3.4541 0 6.78809 -1.37109 9.25 -3.83496c2.69922 -2.69531 4.08496 -6.43555 3.79785 -10.2363zM374.786 314.007
c13.7012 13.7041 13.7012 35.9258 -0.000976562 49.6309c-13.707 13.7061 -35.9287 13.7061 -49.6328 0c-13.7041 -13.7051 -13.7041 -35.9258 -0.00292969 -49.6309c13.709 -13.7051 35.9316 -13.7051 49.6367 0z" />
    <glyph glyph-name="uniF105" unicode="&#xf105;" 
d="M16.2383 -64v512l479.521 -256.01z" />
    <glyph glyph-name="uniF189" unicode="&#xf189;" 
d="M470.325 422.201c8.73242 0 15.876 -7.14355 15.876 -15.876v-148.043c0 -9.12891 -7.14355 -16.2725 -16.2725 -16.2725h-148.044c-9.12793 0 -16.2725 7.14355 -16.2725 16.2725s7.14453 16.2725 16.2725 16.2725h113.91
c-31.752 69.8545 -101.605 115.498 -179.795 115.498c-109.147 0 -198.053 -88.9053 -198.053 -198.053s88.5088 -198.449 197.656 -198.449c109.146 0 198.053 88.9053 198.053 198.053c0 9.12793 7.14355 16.2725 16.2725 16.2725s16.2725 -7.14453 16.2725 -16.2725
c0 -127.008 -103.193 -230.202 -230.201 -230.202s-230.201 102.797 -230.201 230.202c0 127.404 103.193 230.598 230.201 230.598c82.9521 0 157.172 -44.0557 198.053 -112.719v96.4463c0 9.12891 7.14453 16.2725 16.2725 16.2725z" />
    <glyph glyph-name="uniF14D" unicode="&#xf14d;" 
d="M227.82 -37.0107c-7.14453 2.77832 -11.1133 10.3193 -9.52539 17.8604l31.3545 180.986l-116.688 0.793945c-6.34961 0 -11.9062 3.57129 -14.6846 9.12793s-1.98535 12.3047 1.98438 17.0674l180.589 227.423c4.7627 5.95312 12.7012 7.93848 19.4482 4.7627
c6.74707 -3.1748 10.7158 -10.7158 9.12891 -17.8604l-30.5615 -161.935l105.575 -0.793945c5.95312 0 11.5098 -3.57227 14.2881 -8.73242c2.77832 -5.15918 2.38184 -11.9062 -1.19043 -16.6689l-170.27 -246.078c-3.17578 -4.7627 -8.33496 -7.14355 -13.4951 -7.14355
c-1.98438 0 -3.96875 0.396484 -5.95312 1.19043zM166.301 194.778l102.4 -0.793945c4.7627 0 9.12793 -1.98438 11.9062 -5.55664c3.17578 -3.57227 4.36621 -8.33496 3.57227 -13.0977l-21.8291 -127.802l110.734 160.348l-94.0645 0.396484
c-4.7627 0 -9.12891 2.38184 -12.3037 5.9541c-3.17578 3.96875 -4.36621 8.73145 -3.57227 13.4941l22.2256 117.086z" />
    <glyph glyph-name="uniF10D" unicode="&#xf10d;" 
d="M433.017 301.941l53.1846 -318.71c0.397461 -1.58789 0.793945 -3.17578 0.793945 -5.16016c0 -9.12891 -7.14355 -16.2725 -16.2725 -16.2725h-0.397461h-428.65c-4.7627 0 -9.12891 1.98438 -12.3047 5.55664c-3.1748 3.57129 -4.36523 8.33398 -3.57129 13.0977
l53.1846 321.488c1.19043 7.9375 7.9375 13.4941 15.876 13.4941h91.2861v37.3086c0 38.499 31.3555 69.8545 69.8545 69.8545s69.8545 -31.3555 69.8545 -69.8545v-37.3086h91.2861c7.93848 0 14.6855 -5.55664 15.876 -13.4941zM218.691 352.744v-37.3086h74.6172v37.3086
c0 20.6387 -16.6699 37.3086 -37.3086 37.3086s-37.3086 -16.6699 -37.3086 -37.3086zM60.7256 -6.05273h390.549l-48.0244 288.942h-77.3955v-90.8896c0 -9.12891 -7.14453 -16.2725 -16.2734 -16.2725c-9.12793 0 -16.2725 7.14355 -16.2725 16.2725v90.8896h-74.6172
v-90.8896c0 -9.12891 -7.14453 -16.2725 -16.2725 -16.2725c-9.12891 0 -16.2734 7.14355 -16.2734 16.2725v90.8896h-77.3955z" />
    <glyph glyph-name="uniF192" unicode="&#xf192;" 
d="M231.393 390.053c-70.252 0 -127.802 -57.5508 -127.802 -127.802v-86.5234h275.845c9.12891 0 16.2734 -7.14453 16.2734 -16.2734v-181.779c0 -9.12891 -7.14453 -16.2734 -16.2734 -16.2734h-291.721c-9.12891 0 -16.2734 7.14453 -16.2734 16.2734v181.779v102.797
c0 88.1123 71.4424 160.348 159.951 160.348c88.5078 0 160.347 -71.8389 160.347 -160.348c0 -9.12891 -7.14355 -16.2725 -16.2725 -16.2725s-16.2734 7.14355 -16.2734 16.2725c0 70.6484 -57.1533 127.802 -127.801 127.802zM363.163 143.182h-259.572v-149.234h259.572
v149.234zM207.578 68.5645c0 17.4635 8.73177 26.1953 26.1953 26.1953s26.1953 -8.73177 26.1953 -26.1953c0 -17.4635 -8.73177 -26.1953 -26.1953 -26.1953c-17.4635 3.8147e-06 -26.1953 8.73177 -26.1953 26.1953z" />
    <glyph glyph-name="uniF175" unicode="&#xf175;" 
d="M511.649 26.5928c1.62695 -12.3037 -2.47363 -24.3936 -11.248 -33.1689l-37.4883 -37.4893c-13.2861 -13.2852 -32.168 -19.9346 -55.4873 -19.9346c-22.6074 -0.000976562 -49.3838 6.24707 -79.2832 18.75c-58.4082 24.4258 -122.704 70.0068 -181.046 128.347
c-58.3389 58.3418 -103.92 122.638 -128.346 181.045c-25.4014 60.7432 -24.9814 108.604 1.18359 134.771l37.4883 37.4893c8.77539 8.77539 20.8652 12.8789 33.1699 11.248c12.3027 -1.62793 22.9102 -8.72949 29.1025 -19.4844l72.7256 -126.312
c8.90918 -15.4736 6.31348 -35.0967 -6.31348 -47.7217l-24.8779 -24.8799c-6.62305 -6.62207 -7.20801 -17.0947 -1.36133 -24.3604c15.7832 -19.6143 33.1523 -38.9248 51.625 -57.3975c18.4717 -18.4736 37.7842 -35.8428 57.3975 -51.625
c7.26465 -5.84668 17.7383 -5.26074 24.3594 1.36133l24.8789 24.8799c12.6279 12.626 32.2539 15.2188 47.7236 6.31152l126.312 -72.7256c10.7539 -6.19141 17.8564 -16.7998 19.4844 -29.1025zM357.577 114.047c-8.98535 5.17285 -20.3857 3.66504 -27.7188 -3.66699
l-6.81738 -6.81738l167.868 -95.8057c3.53125 4.75879 5.08984 10.6641 4.2959 16.6602c-0.944336 7.14648 -5.06934 13.3076 -11.3154 16.9033zM88.416 431.205c-1.02734 0.135742 -2.05469 0.203125 -3.07324 0.203125c-4.90918 0 -9.61914 -1.58301 -13.5566 -4.49902
l96.3311 -167.312l6.2627 6.26172c7.33203 7.33203 8.84082 18.7305 3.66504 27.7178l-72.7256 126.312c-3.5957 6.24707 -9.75586 10.3721 -16.9033 11.3174zM451.183 -32.3359l27.7998 27.8008l-168.101 95.9395l-5.90234 -5.90332
c-12.627 -12.625 -32.6104 -13.7227 -46.4883 -2.55664c-20.0762 16.1553 -39.835 33.9268 -58.7285 52.8193c-18.8916 18.8916 -36.6631 38.6504 -52.8184 58.7275c-11.166 13.8799 -10.0674 33.8643 2.55566 46.4883l6.46973 6.46973l-96.4756 167.565l-27.8301 -27.8311
c-20.7871 -20.7881 -19.917 -63.3018 2.39062 -116.643c23.6113 -56.4619 67.9229 -118.865 124.772 -175.715c56.8496 -56.8486 119.252 -101.16 175.715 -124.771c53.3398 -22.3066 95.8535 -23.1777 116.641 -2.39062z" />
    <glyph glyph-name="uniF1C0" unicode="&#xf1c0;" 
d="M441.617 261.526l70.3916 -70.374l-68.6787 -68.6787c-51.417 -51.416 -118.937 -77.1201 -186.474 -77.1201s-135.066 25.7129 -186.474 77.1201l-70.3828 70.3828l68.6787 68.6699c102.824 102.824 270.115 102.824 372.938 0zM431.092 134.703l56.4502 56.4492
l-58.1543 58.1533c-96.0771 96.0693 -252.401 96.0693 -348.479 0l-56.4502 -56.4492l58.1543 -58.1533c96.0771 -96.0693 252.401 -96.0693 348.479 0zM247.109 261.448c4.78223 0 8.64844 -3.87402 8.64844 -8.64844c0 -4.77344 -3.875 -8.64844 -8.64844 -8.64844
c-23.8447 0 -43.2432 -19.3994 -43.2432 -43.2432c0 -4.77441 -3.875 -8.64844 -8.64844 -8.64844c-4.77441 0 -8.64941 3.87402 -8.64941 8.64844c0 33.3838 27.1572 60.54 60.541 60.54zM255.758 304.691c62.002 0 112.433 -50.4385 112.433 -112.432
c0 -61.9941 -50.4395 -112.433 -112.433 -112.433s-112.433 50.4385 -112.433 112.433c0 61.9932 50.4395 112.432 112.433 112.432zM255.758 97.124c52.4629 0 95.1348 42.6816 95.1348 95.1357s-42.6807 95.1348 -95.1348 95.1348s-95.1348 -42.6807 -95.1348 -95.1348
s42.6807 -95.1357 95.1348 -95.1357z" />
    <glyph glyph-name="uniF10F" unicode="&#xf10f;" 
d="M0 62.5938v33.7578h512v-33.7578h-512zM0 175.121v33.7578h512v-33.7578h-512zM0 287.648v33.7578h512v-33.7578h-512z" />
    <glyph glyph-name="uniF174" unicode="&#xf174;" 
d="M112.551 337.791c-30.3857 0 -55.1064 24.7188 -55.1064 55.1035c0 30.3857 24.7207 55.1055 55.1064 55.1055c22.4287 0 41.7705 -13.4707 50.3633 -32.7451l21.8105 2.25977c7.2627 0.754883 13.7539 -4.52539 14.5059 -11.7832
c0.751953 -7.25977 -4.52344 -13.7539 -11.7832 -14.5059l-19.915 -2.06348c-1.9248 -28.6514 -25.8496 -51.3711 -54.9814 -51.3711zM112.551 421.57c-10.4902 0 -19.6816 -5.65918 -24.6816 -14.0879l45.8398 4.74805c-5.24805 5.73633 -12.79 9.33984 -21.1582 9.33984z
M140.476 386.361l-53.9111 -5.58496c4.5752 -9.77148 14.502 -16.5547 25.9863 -16.5547c13.5645 0 24.959 9.46582 27.9248 22.1396zM353.961 173.565c-2.07422 -5.83496 -5.35352 -11.0195 -9.74902 -15.4131c-7.81152 -7.81445 -18.2051 -12.1211 -29.2637 -12.1211
c-6.49414 0 -12.7598 1.48633 -18.4102 4.29688l-23.5195 -23.5195c-0.157227 -0.166016 -0.320312 -0.328125 -0.485352 -0.486328l-16.7041 -16.7021c-5.16113 -5.16309 -13.5283 -5.16309 -18.6895 0c-5.16113 5.16113 -5.16113 13.5273 0 18.6885l10.0176 10.0176
l-50.7285 95.0371c-16.0371 30.0508 -34.6641 57.0234 -85.7842 57.0234c-37.707 0 -43.0518 -35.3604 -43.5713 -50.9092l0.472656 -31.334l46.752 -11.6924v54.6836c0 7.29883 5.91602 13.2148 13.2148 13.2148s13.2148 -5.91602 13.2148 -13.2148v-61.2939
l42.1768 -10.5488c7.08008 -1.77051 11.3838 -8.94629 9.61328 -16.0264s-8.94922 -11.3867 -16.0273 -9.61328l-35.7637 8.94531v-200.16h22.4863c7.29883 0 13.2148 -5.91602 13.2148 -13.2148c0 -7.2998 -5.91602 -13.2148 -13.2148 -13.2148h-35.334
c-0.12207 -0.00292969 -0.244141 -0.00488281 -0.366211 -0.00488281c-3.58594 0 -6.83887 1.42871 -9.21973 3.74902c-2.46777 2.40039 -3.99902 5.75684 -3.99902 9.47168c0 0.124023 0.000976562 0.24707 0.00390625 0.369141v219.612l-63.0176 15.7607
c-5.81055 1.4541 -9.91699 6.63281 -10.0068 12.6201l-0.631836 41.7979c-0.00292969 0.198242 -0.000976562 0.397461 0.00488281 0.597656c1.40527 46.6738 28.8809 76.832 69.9951 76.832h0.00292969c65.7051 0 90.7666 -36.6523 109.101 -71.0088l46.9453 -87.9482
l11.1572 11.1572c-2.80957 5.64941 -4.29492 11.9141 -4.29492 18.4092c0 11.0566 4.30664 21.4502 12.126 29.2676c4.39355 4.39551 9.58105 7.6748 15.4189 9.74414c6.88086 2.43555 14.4326 -1.16113 16.8711 -8.04102
c2.43848 -6.87891 -1.16113 -14.4316 -8.04102 -16.8711c-2.09766 -0.742188 -3.96875 -1.92773 -5.56055 -3.51953c-2.82715 -2.82812 -4.38379 -6.58496 -4.38379 -10.5801c0 -3.99707 1.55664 -7.75293 4.38281 -10.5801s6.58398 -4.38379 10.5811 -4.38379
c3.99512 0 7.75098 1.55664 10.5762 4.38086c1.59766 1.59668 2.78418 3.46973 3.5293 5.56934c2.44336 6.87793 9.99805 10.4727 16.8779 8.0293c6.87695 -2.44043 10.4717 -9.99512 8.03027 -16.873zM89.0732 81.5088v-132.294
c0 -7.29883 -5.91602 -13.2148 -13.2148 -13.2148c-0.12207 0 -0.244141 0.00195312 -0.365234 0.00390625h-35.3389c-7.29883 0 -13.2148 5.91602 -13.2148 13.2158c0 7.29883 5.91602 13.2148 13.2148 13.2148h22.4893v119.074c0 7.29883 5.91602 13.2148 13.2148 13.2148
s13.2148 -5.91602 13.2148 -13.2148zM471.846 -37.5645c7.29883 0 13.2178 -5.91602 13.2178 -13.2148s-5.91602 -13.2148 -13.2148 -13.2148h-17.4883c-0.12207 -0.00292969 -0.243164 -0.00390625 -0.365234 -0.00390625s-0.244141 0.000976562 -0.366211 0.00390625
h-17.4873c-7.29883 0 -13.2148 5.91602 -13.2148 13.2148s5.91602 13.2148 13.2148 13.2148h4.63672v146.194h-36.7139c-7.29883 0 -13.2148 5.91602 -13.2148 13.2158v229.161c0 7.29883 5.91602 13.2148 13.2148 13.2148h36.7139v57.3467h-4.63672
c-7.29883 0 -13.2148 5.91602 -13.2148 13.2148c0 7.2998 5.91602 13.2148 13.2148 13.2148h35.7041c7.29883 0 13.2148 -5.91504 13.2148 -13.2148c0 -7.29883 -5.91602 -13.2148 -13.2148 -13.2148h-4.63672v-459.133h4.63672zM440.778 135.061v202.73h-23.499v-202.73
h23.499z" />
    <glyph glyph-name="uniF10C" unicode="&#xf10c;" 
d="M504.155 184.163h-496.311c-4.33008 0 -7.84473 3.51465 -7.84473 7.84473s3.51465 7.84473 7.84473 7.84473h496.311c4.33008 0 7.84473 -3.51465 7.84473 -7.84473s-3.51465 -7.84473 -7.84473 -7.84473zM204.533 -12.5098
c-2.00781 0 -4.0166 0.768555 -5.55371 2.29102l-196.688 196.704c-1.45996 1.47461 -2.29102 3.46777 -2.29102 5.55371c0 2.08691 0.831055 4.0791 2.29102 5.55371l196.704 196.61c3.05957 3.05957 8.03223 3.05957 11.0918 0
c3.05957 -3.05859 3.05957 -8.03223 0 -11.0918l-191.15 -191.072l191.15 -191.15c3.05957 -3.05957 3.05957 -8.0332 0 -11.0918c-1.53711 -1.53809 -3.5459 -2.30664 -5.55371 -2.30664z" />
    <glyph glyph-name="uniF110" unicode="&#xf110;" 
d="M487.789 300.354c0 -6.35059 -3.57227 -11.9072 -9.12891 -14.6855l-186.146 -92.874l186.146 -93.2715c5.55664 -2.77832 9.12891 -8.33496 9.12891 -14.6855s-3.57227 -11.9062 -9.12891 -14.6846l-215.516 -107.561
c-1.98438 -1.19043 -4.76367 -1.58691 -7.14453 -1.58691c-3.1748 0 -5.95312 0.793945 -8.73145 2.38086c-4.7627 3.17578 -7.54102 8.33496 -7.54102 13.8916v188.924l-191.703 -96.0488c-2.38086 -1.19141 -4.7627 -1.58789 -7.14355 -1.58789
c-5.9541 0 -11.9072 3.57227 -14.6855 9.12891c-4.36621 7.9375 -0.793945 17.8604 7.14453 21.8291l186.146 93.668l-186.146 92.875c-7.93848 3.96875 -11.1133 13.8916 -7.14453 21.8291c3.96875 7.93848 13.8916 11.1133 21.8291 7.14453l191.703 -96.0498v188.924
c0 5.55664 2.77832 11.1133 7.54102 13.8916c4.7627 3.1748 10.7158 3.1748 15.876 0.793945l215.516 -107.56c5.55664 -2.77832 9.12891 -8.33496 9.12891 -14.6855zM272.272 3.87012l162.729 80.9668l-162.729 81.3643v-162.331zM272.272 218.989l162.729 81.3643
l-162.729 81.3643v-162.729z" />
    <glyph glyph-name="uniF11A" unicode="&#xf11a;" 
d="M162.909 78.5459l308.363 308.363l40.7275 -40.7275l-349.091 -349.091l-162.909 162.909l40.7275 40.7275z" />
    <glyph glyph-name="uniF124" unicode="&#xf124;" 
d="M494.896 36.2412c7.54102 0 13.6611 -6.12012 13.6611 -13.6602v-21.3105c0 -7.54102 -6.12012 -13.6611 -13.6611 -13.6611h-481.072c-7.54004 0 -13.6602 6.12012 -13.6602 13.6611v21.3105c0 7.54004 6.12012 13.6602 13.6602 13.6602h187.697
c2.02148 0 3.66113 -1.63867 3.66113 -3.66113v-0.163086c0 -7.54199 6.12012 -13.6611 13.6602 -13.6611h71.0352c7.54102 0 13.6611 6.11914 13.6611 13.6611v0.163086c0 2.02246 1.63867 3.66113 3.66113 3.66113h187.696zM465.991 11.8164v0.164062
c0 3.77051 -3.05957 6.77539 -6.77539 6.77539h-29.2334c-3.77051 0 -6.77637 -3.05957 -6.77637 -6.77539v-0.164062c0 -3.76953 3.05957 -6.77539 6.77637 -6.77539h29.2334c3.76953 0 6.77539 3.05957 6.77539 6.77539zM464.188 396.391
c26.3379 0 47.8125 -21.4746 47.8125 -47.8125v-244.854c0 -26.3379 -21.4746 -47.8115 -47.8125 -47.8115h-416.375c-26.3379 0 -47.8125 21.4736 -47.8125 47.8115v244.854c0 26.3379 21.4746 47.8125 47.8125 47.8125h416.375zM471.019 103.725v244.854
c0 3.77051 -3.06055 6.83008 -6.83105 6.83008h-416.375c-3.77051 0 -6.83105 -3.05957 -6.83105 -6.83008v-244.854c0 -3.76953 3.06055 -6.83008 6.83105 -6.83008h416.375c3.77051 0 6.83105 3.06055 6.83105 6.83008z" />
    <glyph glyph-name="uniF16F" unicode="&#xf16f;" 
d="M10.5801 312.691l487.59 81.9414v0h0.339844c1.17871 0.169922 2.3584 0.169922 3.53711 0v0h0.169922c0.169922 0 0.509766 0 0.668945 -0.169922v0h0.169922h0.169922v0l0.339844 -0.169922v0h0.169922v0v0c0.169922 -0.169922 0.34082 -0.169922 0.510742 -0.169922
h0.169922l0.169922 -0.169922v0c0.339844 0 0.509766 -0.169922 0.838867 -0.339844v0c0.509766 -0.339844 1.17871 -0.668945 1.68848 -1.00879h0.169922v-0.15918l0.169922 -0.170898v0h0.169922l0.169922 -0.169922v0l0.169922 -0.169922v0l0.170898 -0.169922
l0.339844 -0.169922v-0.169922l0.169922 -0.169922l0.169922 -0.169922v0v0l0.169922 -0.169922h0.169922v-0.169922l0.169922 -0.169922v-0.169922h0.169922v-0.169922l0.169922 -0.169922v0l0.169922 -0.169922v-0.169922h0.169922v-0.148438l0.169922 -0.169922v0
l0.169922 -0.169922v-0.170898l0.169922 -0.169922v0l0.169922 -0.169922v-0.169922v-0.169922h0.169922v-0.169922l0.169922 -0.169922v-0.169922v-0.169922h0.169922v-0.169922v-0.169922l0.169922 -0.169922v0v-0.169922v-0.169922l0.169922 -0.169922v-0.169922
v-0.169922v0h0.169922v-0.339844v-0.169922v-0.169922l0.169922 -0.169922v-0.339844v0v-0.339844v0l0.12793 -0.138672v0v0v-0.339844v-0.169922v-0.169922v-1.85938v0v-0.838867v0l-0.169922 -0.329102v0v-0.509766v0v-0.169922l-0.169922 -0.169922v0v-0.169922
v-0.169922v-0.169922h-0.169922v-0.169922c0 -0.169922 -0.169922 -0.339844 -0.169922 -0.669922v0v-0.169922c-0.509766 -1.00879 -1.00879 -2.01758 -1.85938 -3.03809l-0.169922 -0.169922v0l-314.773 -381.365c-1.85938 -2.52832 -4.88672 -4.38672 -8.43457 -4.7168
c-6.5752 -0.668945 -12.3115 4.21777 -12.9805 10.623l-16.5176 184.617l-151.571 106.554c-5.39648 3.87695 -6.5752 11.291 -2.86816 16.6875c2.0293 2.86816 5.22656 4.55664 8.43457 4.89648v0zM503.735 394.293
c0.169922 -0.169922 0.34082 -0.169922 0.510742 -0.169922zM449.104 339.832l-268.577 -155.278l13.6611 -153.6zM437.304 360.407l-395.026 -66.4326l126.279 -88.6855z" />
    <glyph glyph-name="uniF18B" unicode="&#xf18b;" 
d="M484.216 227.722c8.76855 0 27.7842 -11.9082 27.7842 -35.7217s-19.0156 -35.7217 -27.7822 -35.7217h-234.171h-222.264c-8.76855 0 -27.7832 11.9082 -27.7832 35.7217s19.0137 35.7217 27.7832 35.7217h222.264h234.169z" />
    <glyph glyph-name="uniF141" unicode="&#xf141;" 
d="M431.508 -56.9873h-351.03c-4.28223 0 -7.75781 3.47559 -7.75781 7.75781v217.119c0 4.28223 3.47559 7.75781 7.75781 7.75781c4.28125 0 7.75684 -3.47559 7.75684 -7.75781v-209.377h335.516v209.377c0 4.28223 3.47559 7.75781 7.75781 7.75781
s7.75684 -3.47559 7.75684 -7.75781v-217.135c0 -4.28223 -3.45996 -7.74219 -7.75684 -7.74219zM431.229 159.76c-1.90918 0 -3.83301 0.698242 -5.32227 2.10938l-169.906 160.411l-169.829 -160.411c-3.11816 -2.94727 -8.06738 -2.79199 -10.9688 0.310547
c-2.93262 3.11914 -2.80859 8.02148 0.310547 10.9697l175.166 165.438c2.99414 2.83984 7.67969 2.82422 10.6582 0l175.229 -165.438c3.11816 -2.94824 3.25781 -7.85059 0.326172 -10.9697c-1.55176 -1.61328 -3.59961 -2.41992 -5.66309 -2.41992zM504.242 191.085
c-1.9082 0 -3.83203 0.698242 -5.33691 2.10938l-242.905 229.376l-242.905 -229.376c-3.11816 -2.93164 -8.05273 -2.79199 -10.9688 0.326172c-2.93262 3.11816 -2.80859 8.02148 0.30957 10.9688l248.243 234.403c2.99414 2.82422 7.66406 2.82422 10.6738 0
l248.242 -234.403c3.10352 -2.94727 3.24316 -7.85059 0.310547 -10.9688c-1.55176 -1.62891 -3.59961 -2.43555 -5.66309 -2.43555zM317.921 -56.9873h-123.826c-4.28223 0 -7.75781 3.47559 -7.75781 7.75781v168.106c0 4.28223 3.47559 7.75781 7.75781 7.75781h123.826
c4.28223 0 7.75781 -3.47559 7.75781 -7.75781v-168.106c0 -4.29785 -3.47559 -7.75781 -7.75781 -7.75781zM201.853 -41.4717h108.311v152.591h-108.311v-152.591z" />
    <glyph glyph-name="uniF140" unicode="&#xf140;" 
d="M428.979 -64h-111.957c-4.28223 0 -7.75781 3.47559 -7.75781 7.75781v157.944h-106.543v-157.944c0 -4.28223 -3.47559 -7.75781 -7.75684 -7.75781h-111.989c-4.28223 0 -7.75684 3.47559 -7.75684 7.75781v257.66h-63.8916
c-3.18066 0 -6.03516 1.93945 -7.21484 4.88672c-1.16309 2.94824 -0.418945 6.31445 1.87793 8.50293l244.643 231.066c2.99414 2.83984 7.66406 2.82422 10.6748 0l244.704 -231.066c2.29688 -2.1875 3.04102 -5.55469 1.87793 -8.50293
c-1.17969 -2.94727 -4.03418 -4.88672 -7.21484 -4.88672h-63.9375v-257.66c0 -4.28223 -3.47559 -7.75781 -7.75781 -7.75781zM324.778 -48.4844h96.4424v257.659c0 4.28223 3.47559 7.75781 7.75781 7.75781h52.1777l-225.188 212.636l-225.125 -212.636h52.1309
c4.28223 0 7.75781 -3.47559 7.75781 -7.75781v-257.659h96.4736v157.943c0 4.28223 3.47559 7.75781 7.75781 7.75781h122.058c4.28223 0 7.75684 -3.47559 7.75684 -7.75781v-157.943z" />
    <glyph glyph-name="uniF114" unicode="&#xf114;" 
d="M437.01 373.01c48.377 -48.377 74.9902 -112.592 74.9902 -181.01s-26.6133 -132.633 -74.9902 -181.01s-112.592 -74.9902 -181.01 -74.9902s-132.633 26.6133 -181.01 74.9902s-74.9902 112.592 -74.9902 181.01s26.6133 132.633 74.9902 181.01
s112.592 74.9902 181.01 74.9902s132.633 -26.6133 181.01 -74.9902zM416.431 31.5693c88.458 88.458 88.458 232.403 0 320.861c-42.8818 42.8828 -99.8789 66.4785 -160.431 66.4785s-117.549 -23.5957 -160.431 -66.4785c-88.458 -88.458 -88.458 -232.403 0 -320.861
c42.8818 -42.8828 99.8789 -66.4785 160.431 -66.4785s117.549 23.5957 160.431 66.4785zM368.808 304.809c5.71094 -5.71094 5.71094 -14.8691 0.000976562 -20.5801l-92.2295 -92.2285l92.0137 -92.2285c5.70996 -5.71094 5.70996 -14.8691 0 -20.5801
c-2.80176 -2.9082 -6.46484 -4.30957 -10.2363 -4.30957c-3.66309 0 -7.43359 1.50879 -10.2354 4.30957l-92.2285 92.2295l-92.2295 -92.2295c-2.80078 -2.9082 -6.57227 -4.30957 -10.2354 -4.30957s-7.43457 1.50879 -10.2354 4.30957
c-5.71094 5.71094 -5.71094 14.8691 0 20.5801l92.2285 92.2285l-92.2285 92.2285c-5.71094 5.71094 -5.71094 14.8691 0 20.5801c5.70996 5.70996 14.8682 5.70996 20.5791 0l92.2285 -92.2295l92.2285 92.2295c5.71094 5.70996 14.8691 5.70996 20.5791 0z" />
    <glyph glyph-name="uniF1B8" unicode="&#xf1b8;" 
d="M188.61 149.906c17.04 -20.3652 20.1387 -49.7861 16.8252 -75.0605c-7.4209 -56.6553 -55.5654 -94.6543 -112.302 -80.251c-55.2559 14.0293 -97.9541 67.5156 -69.5732 125.101c12.2598 24.8711 72.2217 88.6494 103.42 61.0547
c23.5156 -3.2793 45.1396 -11.1348 61.6299 -30.8438zM179.767 82.2852c0.97168 18.4395 -0.897461 42.207 -16.2129 55.3154c-17.9482 15.3672 -40.5635 16.2158 -62.9727 18.4951c-0.751953 0.0761719 -1.43359 0.25293 -2.12402 0.421875
c-3.49902 -1.08203 -6.96094 -2.60449 -10.3877 -4.83887c-15.1152 -9.85645 -30.0576 -23.3789 -38.2676 -39.8096c-21.0117 -42.0479 6.09082 -83.9922 50.3203 -91.9414c42.4053 -7.61914 77.2832 17.5723 79.6445 62.3574zM511.828 235.149
c0.351562 -1.71582 0.19043 -3.58203 -0.738281 -5.38672c-12.8701 -25.2051 -27.5732 -49.6328 -40.2871 -75.0684c-8.81152 -17.623 -17.1016 -48.7441 -31.4805 -64.5322c5.99121 -7.02539 10.501 -15.1338 12.582 -23.3916
c7.11914 -28.2236 -1.04492 -63.8691 -28.6152 -78.584c-36.9785 -19.7422 -77.8906 -2.92676 -84.6855 39.5215c-2.23145 13.9414 -0.290039 29.0986 5.0791 42.5586c-33.3047 -1.24023 -75.4121 -0.948242 -107.492 7.87402
c-19.7275 5.43066 -18.7607 32.1152 -22.3438 47.7051c-12.8506 55.9307 -62.6953 97.3691 -122.673 81.0889c-26.5264 -7.2002 -56.7227 -30.1514 -84.7764 -19.2207c-1.32422 0.515625 -2.36133 1.375 -2.9707 2.51855
c-1.63281 0.443359 -3.05664 1.89941 -3.29297 3.8916c-2.05176 17.373 19.2373 34.3574 35.585 39.4814c0.0908203 0.0800781 0.1875 0.158203 0.279297 0.239258c-0.102539 0.311523 -0.231445 0.598633 -0.268555 0.96875
c-5.27734 53.6211 6.49316 106.903 5.41699 160.627c-0.0917969 4.58691 3.73535 7.75586 8.03223 8.03223c39.0518 2.5 77.9287 -4.30469 116.722 -1.93945c12.8105 0.782227 35.4473 7.03125 45.6152 -5.02734c27.2188 -32.2754 27.8955 -92.0137 35.0498 -133.681
c37.3242 -0.966797 74.668 -1.20117 111.601 -7.08789c-6.15332 22.7422 -3.51074 50.4785 8.07031 69.7832c9.90918 16.5166 31.1475 38.9414 53.0244 34.7754c34.8916 -6.64355 16.0596 -62.1611 -12.8291 -64.5049c1.19727 -12.2305 1.51465 -24.6035 4.49805 -36.541
c1.5957 -6.38574 16.0762 -5.49219 23.166 -6.08789c23.6338 -1.9873 49.125 -0.865234 71.5342 -9.59863c4.11914 -1.60352 6.02344 -5.00293 6.19824 -8.41406zM56.8945 387.026c-1.13086 -42.6719 -4.9873 -85.3467 -9.06641 -127.873
c52.1973 9.50195 101.15 9.38086 154.481 5.59961c9.13086 -0.647461 18.2783 -1.05273 27.4248 -1.38574c-5.38965 33.7959 -17.4531 122.389 -37.7803 121.347c-44.8906 -2.29883 -90.1055 0.0400391 -135.06 2.3125zM419.384 21.2031
c7.92578 12.5713 10.9277 30.4014 3.58301 44.1221c-9.79688 18.2998 -22.7871 14.8242 -40.2168 18.3379c-7.81543 -6.39453 -13.4492 -20.167 -15.0635 -27.1035c-2.56543 -11.0352 -4.74023 -24.9141 1.06348 -35.4746c10.417 -18.96 39.0674 -18.2266 50.6338 0.118164z
M455.046 163.906c8.06836 16.8008 17.8701 46.6729 32.3193 64.8379c-27.5039 4.31836 -56.5029 2.3125 -82.8242 10.8955c-19.6182 6.39746 -11.7715 41.8818 -8.1084 59.1592c-1.93555 2.34961 -2.48633 5.60156 0.49707 8.03516
c8.68848 7.08984 20.4326 9.69727 23.9102 21.9629c3.71387 13.0977 -3.41895 20.3975 -16.3926 12.7354c-35.6357 -21.042 -29.4404 -55.2939 -33.627 -89.3877c5.40625 -5.17773 0.282227 -16.791 -9.25977 -15.4961c-63.8857 8.66113 -129.199 7.98145 -193.522 11.8701
c-2.0918 0.125977 -4.38281 0.297852 -6.79688 0.491211c-23.3916 -1.43652 -44.9707 1.30566 -68.3486 -5.9668c-15.2871 -4.75391 -29.7725 -11.9482 -44.9648 -16.8066c-0.320312 -0.787109 -0.639648 -1.5957 -1.25195 -2.16504
c-6.4082 -5.94824 -15.2783 -9.11426 -22.5674 -13.9111c-5.21777 -3.43457 -8.94043 -7.34766 -12.2842 -11.9375c10.6836 -6.12305 54.5723 19.5752 63.3994 22.374c15.7031 4.97656 33.041 8.40332 49.6621 6.70605c25.0947 -2.56543 51.7979 -8.78516 70.6885 -26.9639
c23.6572 -22.7656 34.6631 -49.3535 39.7949 -81.5381c4.50098 -28.2334 19.3682 -21.9893 43.6084 -25.1982c22.2744 -2.95215 44.3477 -5.94922 66.8213 -6.99609c2.29102 -0.105469 3.99023 -1.00195 5.2793 -2.22168
c0.438477 0.650391 0.816406 1.35156 1.27637 1.98535c5.22559 7.23242 13.7422 13.2881 22.7656 15.5068c0.974609 1.71582 2.27441 3.26562 4.1084 4.31836c16.001 9.19238 34.0195 5.11816 48.2852 -5.125c3.01562 20.6719 21.3691 49.998 27.5322 62.8359z" />
    <glyph glyph-name="uniF115" unicode="&#xf115;" 
d="M30.1641 -33.8359c-6.35059 6.35059 -6.35059 16.6699 0 23.0205l202.815 202.815l-202.815 202.815c-6.35059 6.35059 -6.35059 16.6699 0 23.0205c6.35059 6.34961 16.6699 6.34961 23.0205 0l202.815 -202.815l202.815 202.815
c6.35059 6.34961 16.6699 6.34961 23.0205 0c6.34961 -6.35059 6.34961 -16.6699 0 -23.0205l-202.815 -202.815l202.815 -202.815c6.34961 -6.35059 6.34961 -16.6699 0 -23.0205c-3.17578 -3.1748 -7.54102 -4.7627 -11.5107 -4.7627
c-4.36523 0 -8.33496 1.58789 -11.5098 4.7627l-202.815 202.815l-202.815 -202.815c-3.1748 -3.1748 -7.14453 -4.7627 -11.5098 -4.7627c-4.36621 0 -8.33496 1.58789 -11.5107 4.7627z" />
    <glyph glyph-name="uniF17D" unicode="&#xf17d;" 
d="M257.669 335.795c36.083 0 65.4531 -29.3691 65.4531 -65.4521c0 -36.084 -29.3701 -65.4531 -65.4531 -65.4531s-65.4531 29.3691 -65.4531 65.4531c0 36.083 29.3701 65.4521 65.4531 65.4521zM257.669 223.59c25.7793 0 46.752 20.9736 46.752 46.7529
c0 25.7783 -20.9727 46.752 -46.752 46.752s-46.752 -20.9736 -46.752 -46.752c0 -25.7793 20.9727 -46.7529 46.752 -46.7529zM382.806 395.479c62.6758 -62.666 70.4648 -180.575 16.6533 -252.302l-143.445 -207.177l-143.659 207.467
c-53.5967 71.4365 -45.8076 189.346 16.8682 252.012c33.8672 33.8672 78.8896 52.5215 126.791 52.5215c47.8936 0 92.9248 -18.6543 126.792 -52.5215zM384.292 154.107c48.8281 65.1064 41.8623 171.589 -14.708 228.15c-30.3418 30.332 -70.6699 47.041 -113.57 47.041
c-42.8994 0 -83.2275 -16.709 -113.561 -47.041c-56.5693 -56.5615 -63.5361 -163.044 -14.9229 -227.86l128.483 -185.54z" />
    <glyph glyph-name="uniF11C" unicode="&#xf11c;" 
d="M255.992 -64c-141.159 0 -255.992 114.833 -255.992 256.008c0 141.143 114.833 255.992 255.992 255.992c141.158 0 255.991 -114.85 255.991 -255.992c0.0166016 -141.175 -114.833 -256.008 -255.991 -256.008zM255.992 418.739
c-125.021 0 -226.731 -101.711 -226.731 -226.731c0 -125.036 101.711 -226.747 226.731 -226.747c125.02 0 226.73 101.711 226.73 226.747c0.0166016 125.021 -101.694 226.731 -226.73 226.731zM334.509 98.8691c-3.75879 0 -7.48438 1.41797 -10.3525 4.28613
l-78.5 78.501c-2.75293 2.75293 -4.28613 6.46191 -4.28613 10.3516v166.084c0 8.07812 6.54395 14.6221 14.6377 14.6221c8.07812 0 14.6221 -6.52734 14.6221 -14.6221v-160.033l74.2148 -74.2148c5.71973 -5.71973 5.71973 -14.9844 0 -20.6885
c-2.86816 -2.86816 -6.61035 -4.28613 -10.3359 -4.28613z" />
    <glyph glyph-name="uniF1AA" unicode="&#xf1aa;" 
d="M256 80.4717c-61.5195 0 -111.132 50.0088 -111.132 111.132c0 61.1221 50.0098 111.132 111.132 111.132s111.132 -50.0098 111.132 -111.132c0 -61.123 -49.6123 -111.132 -111.132 -111.132zM256 270.586c-43.6592 0 -78.9834 -35.3242 -78.9834 -78.9824
c0 -43.6592 35.3242 -78.9834 78.9834 -78.9834s78.9834 35.3242 78.9834 78.9834c0 43.6582 -35.3242 78.9824 -78.9834 78.9824zM272.272 354.332c0 -9.12891 -7.14355 -16.2734 -16.2725 -16.2734s-16.2725 7.14453 -16.2725 16.2734v51.2002
c0 9.12793 7.14355 16.2725 16.2725 16.2725s16.2725 -7.14453 16.2725 -16.2725v-51.2002zM239.728 28.874c0 9.12891 7.14355 16.2734 16.2725 16.2734s16.2725 -7.14453 16.2725 -16.2734v-51.1992c0 -9.12891 -7.14355 -16.2734 -16.2725 -16.2734
s-16.2725 7.14453 -16.2725 16.2734v51.1992zM382.611 295.193c-3.17578 -3.1748 -7.14453 -4.7627 -11.5107 -4.7627c-4.36523 0 -8.33496 1.58789 -11.5098 4.7627c-6.35059 6.35059 -6.35059 16.6699 0 23.0205l36.1182 36.1182
c6.34961 6.35059 16.6689 6.35059 23.0195 0s6.35059 -16.6699 0 -23.0205zM93.2715 28.874c-6.35059 6.35059 -6.35059 16.6699 0 23.0205l36.1172 36.1182c6.35059 6.35059 16.6699 6.35059 23.0205 0s6.35059 -16.6699 0 -23.0205l-36.1182 -36.1182
c-3.1748 -3.1748 -7.54102 -4.7627 -11.5098 -4.7627c-4.36621 0 -8.33496 1.58789 -11.5098 4.7627zM486.201 191.604c0 -9.12891 -7.54102 -16.2734 -16.2725 -16.2734h-51.2002c-9.12891 0 -16.2725 7.14453 -16.2725 16.2734c0 9.12793 7.14355 16.2725 16.2725 16.2725
h51.2002c9.12891 0 16.2725 -7.14453 16.2725 -16.2725zM42.0713 175.33c-8.73145 0 -16.2725 7.14453 -16.2725 16.2734c0 9.12793 7.14355 16.2725 16.2725 16.2725h51.2002c9.12891 0 16.2725 -7.14453 16.2725 -16.2725c0 -9.12891 -7.14355 -16.2734 -16.2725 -16.2734
h-51.2002zM407.219 24.1113c-3.96875 0 -8.33496 1.58789 -11.5098 4.7627l-36.1182 36.1182c-6.35059 6.35059 -6.35059 16.6699 0 23.0205c6.35059 6.34961 16.6699 6.34961 23.0205 0l36.1172 -36.1182c6.35059 -6.35059 6.35059 -16.6699 0 -23.0205
c-3.1748 -3.1748 -7.54102 -4.7627 -11.5098 -4.7627zM152.409 295.193c-3.1748 -3.1748 -7.14355 -4.7627 -11.5098 -4.7627s-8.33496 1.58789 -11.5107 4.7627l-36.1172 36.1182c-6.35059 6.35059 -6.35059 16.6699 0 23.0205s16.6699 6.35059 23.0195 0l36.1182 -36.1182
c6.35059 -6.35059 6.35059 -16.6699 0 -23.0205z" />
    <glyph glyph-name="uniF129" unicode="&#xf129;" 
d="M499.464 401.332c8.3584 -8.35742 12.54 -18.3984 12.5371 -30.1318v-290.136c0 -11.7383 -4.17773 -21.7773 -12.5361 -30.1357c-8.35547 -8.35547 -18.3945 -12.5293 -30.126 -12.5293h-145.069c0 -6.57812 1.42285 -13.4668 4.26758 -20.668
c2.8418 -7.19238 5.68652 -13.5107 8.53125 -18.9297c2.84473 -5.4209 4.26953 -9.29004 4.26953 -11.5957c0 -4.62207 -1.6875 -8.63086 -5.06836 -11.999c-3.37695 -3.38281 -7.37793 -5.07617 -12.001 -5.07617h-136.533c-4.62207 0 -8.62207 1.69434 -11.999 5.07617
c-3.37793 3.36914 -5.06641 7.37793 -5.06641 11.999c0 2.4873 1.42285 6.39355 4.26465 11.7314c2.84473 5.33105 5.68945 11.5508 8.5332 18.6621c2.84473 7.10645 4.26758 14.0459 4.26758 20.7998h-145.068c-11.7334 0 -21.7754 4.17383 -30.1357 12.5293
c-8.35547 8.35938 -12.5312 18.3984 -12.5312 30.1357v290.136c0 11.7334 4.17578 21.7744 12.5312 30.1318c8.36035 8.35449 18.4023 12.5361 30.1357 12.5361h426.664c11.7383 0 21.7783 -4.18164 30.1328 -12.5361zM477.866 149.332v0v221.868
c0 2.31055 -0.842773 4.30957 -2.53223 5.99902c-1.68359 1.68848 -3.68848 2.5332 -5.99609 2.5332h-426.671c-2.30957 0 -4.30957 -0.847656 -5.99902 -2.5332c-1.69141 -1.68848 -2.5332 -3.6875 -2.5332 -5.99902v-221.868c0 -2.31152 0.844727 -4.30273 2.5332 -6
c1.68848 -1.68457 3.68848 -2.52832 5.99902 -2.52832h426.664c2.3125 0 4.3125 0.84375 6.00293 2.52832c1.68945 1.69141 2.53223 3.68848 2.53223 6z" />
    <glyph glyph-name="uniF164" unicode="&#xf164;" 
d="M280.166 254.668c5.33594 0 9.66699 -4.33008 9.66699 -9.66602s-4.33105 -9.66699 -9.66699 -9.66699h-57.999v-57.999c0 -5.33594 -4.33105 -9.66699 -9.66699 -9.66699s-9.66602 4.33105 -9.66602 9.66699v57.999h-58c-5.33594 0 -9.66602 4.33105 -9.66602 9.66699
s4.33008 9.66602 9.66602 9.66602h58v58c0 5.33594 4.33008 9.66602 9.66602 9.66602s9.66699 -4.33008 9.66699 -9.66602v-58h57.999zM499.801 -47.6348c3.69238 -3.84668 3.57617 -9.96582 -0.270508 -13.668c-1.875 -1.79785 -4.28223 -2.69727 -6.69922 -2.69727
c-2.54199 0 -5.0752 0.986328 -6.96973 2.96777l-143.983 149.745c-35.1475 -29.1445 -80.2422 -46.709 -129.378 -46.709c-111.938 0 -202.998 91.0586 -202.998 202.998c0 111.938 91.0596 202.998 202.998 202.998c111.939 0 202.999 -91.0596 202.999 -202.998
c0 -55.8633 -22.6973 -106.517 -59.334 -143.259zM28.835 245.002c0 -101.276 82.3887 -183.665 183.665 -183.665c101.277 0 183.665 82.3877 183.665 183.665c0 101.276 -82.3877 183.665 -183.665 183.665c-101.276 0 -183.665 -82.3887 -183.665 -183.665z" />
    <glyph glyph-name="uniF123" unicode="&#xf123;" 
d="M302.147 120.154c-30.9521 -13.0479 -64.6221 -19.5684 -101.003 -19.5566c-16.3809 0 -33.1445 1.52344 -50.2852 4.57227c-23.6191 -16.7607 -50.0977 -28.9531 -79.4316 -36.5723c-6.85547 -1.7168 -15.0479 -3.23926 -24.5703 -4.57227h-0.857422
c-2.09863 0 -4.04785 0.758789 -5.8584 2.28027c-1.80859 1.53125 -2.90332 3.52734 -3.28613 6c-0.192383 0.575195 -0.286133 1.19141 -0.286133 1.85547c0 0.665039 0.0478516 1.28809 0.143555 1.85547c0.0947266 0.576172 0.286133 1.14551 0.570312 1.71387
l0.71582 1.42383s0.333984 0.523438 1.00098 1.57227c0.665039 1.04785 1.04785 1.52441 1.1416 1.4209c0.0966797 -0.0888672 0.524414 0.383789 1.28809 1.43164c0.760742 1.04785 1.14355 1.47949 1.14355 1.28809c0.950195 1.14062 3.1416 3.52051 6.57227 7.14062
c3.42969 3.61523 5.90527 6.42871 7.42969 8.42773c1.52539 1.99414 3.66504 4.75391 6.42773 8.28125c2.76367 3.52734 5.14258 7.19043 7.14453 11c2 3.81445 3.95215 7.99902 5.85547 12.5752c-23.6172 13.7119 -42.1895 30.5723 -55.7119 50.5723
c-13.5225 19.9971 -20.291 41.3398 -20.291 64.0049c0 26.4785 8.9541 50.9512 26.8604 73.4268c17.9023 22.4766 42.3311 40.2393 73.2822 53.2881c30.9551 13.0488 64.6211 19.5742 101.002 19.5742c36.3838 0 70.0498 -6.52148 101.003 -19.5703
c30.9531 -13.0508 55.3809 -30.8125 73.2822 -53.2891c17.9043 -22.4785 26.8564 -46.9521 26.8564 -73.4297s-8.95215 -50.9521 -26.8564 -73.4268c-17.9014 -22.4795 -42.3291 -40.2402 -73.2822 -53.2881zM142.29 144.008l15.1426 -2.85352
c14.8594 -2.66406 29.4307 -4 43.7139 -4c29.1455 0 56.3838 4.95215 81.7148 14.8574c25.332 9.90332 45.4766 23.3281 60.4326 40.2852c14.9512 16.9531 22.4248 35.1426 22.4248 54.5703c0 19.4326 -7.47363 37.623 -22.4248 54.5752
c-14.957 16.9521 -35.1016 30.3818 -60.4326 40.2891c-25.3311 9.90234 -52.5723 14.8574 -81.7148 14.8574s-56.3818 -4.95508 -81.7139 -14.8574c-25.334 -9.90918 -45.4775 -23.3369 -60.4268 -40.2891c-14.9512 -16.9531 -22.4307 -35.1436 -22.4307 -54.5752
c0 -15.6201 5.0459 -30.668 15.1426 -45.1436c10.0947 -14.4775 24.2832 -27.0498 42.5732 -37.7139l27.7148 -15.999l-10.0029 -24.0039c6.47754 3.81152 12.3799 7.53125 17.7129 11.1475zM491.712 109.593c-13.5137 -19.918 -32.0898 -36.7266 -55.7012 -50.4521
c1.9043 -4.56836 3.85645 -8.76074 5.85645 -12.5693c2 -3.81152 4.38379 -7.47852 7.14355 -10.999c2.76172 -3.52832 4.90527 -6.28809 6.42969 -8.28906c1.52344 -1.99902 3.99512 -4.80762 7.42676 -8.42383c3.42773 -3.62109 5.61719 -6 6.56934 -7.14453
c0.192383 -0.19043 0.575195 -0.623047 1.14355 -1.2832c0.575195 -0.662109 1.00098 -1.1416 1.28125 -1.42578c0.288086 -0.287109 0.666992 -0.767578 1.14355 -1.42773c0.479492 -0.664062 0.801758 -1.19238 1 -1.56836l0.711914 -1.4248
s0.192383 -0.571289 0.569336 -1.7168c0.376953 -1.14062 0.424805 -1.7627 0.143555 -1.85254c-0.287109 -0.0917969 -0.375977 -0.71875 -0.287109 -1.86328c-0.568359 -2.66309 -1.80859 -4.75293 -3.71289 -6.28027
c-1.90332 -1.51953 -4.00293 -2.19141 -6.28711 -1.99609c-9.52441 1.33203 -17.7158 2.85156 -24.5723 4.57129c-29.332 7.62305 -55.8115 19.8086 -79.4297 36.5762c-17.1445 -3.04785 -33.9043 -4.57422 -50.2881 -4.57422c-51.6172 0 -96.5713 12.5752 -134.855 37.7129
c11.0459 -0.760742 19.4277 -1.1377 25.1406 -1.1377c30.667 0 60.0986 4.28906 88.2832 12.8574c28.1924 8.57422 53.3369 20.8564 75.4326 36.8564c23.8086 17.5264 42.0957 37.7158 54.8574 60.5684c12.7705 22.8604 19.1426 47.0508 19.1426 72.5732
c0 14.6699 -2.19043 29.1455 -6.56738 43.4297c24.5693 -13.5234 44 -30.4795 58.2881 -50.8564c14.2803 -20.3779 21.4248 -42.2861 21.4248 -65.7148c0 -22.8594 -6.75879 -44.2344 -20.2871 -64.1455z" />
    <glyph glyph-name="uniF18D" unicode="&#xf18d;" 
d="M160.348 -33.4385c-3.17578 -3.17578 -7.14453 -4.7627 -11.5107 -4.7627c-4.36523 0 -8.33496 1.58691 -11.5098 4.7627c-6.35059 6.35059 -6.35059 16.6699 0 23.0195l202.419 202.419l-202.419 202.419c-6.35059 6.34961 -6.35059 16.6689 0 23.0195
s16.6699 6.35059 23.0205 0l213.929 -213.929c6.34961 -6.34961 6.34961 -16.6699 0 -23.0195z" />
    <glyph glyph-name="uniF161" unicode="&#xf161;" 
d="M387.066 357.286c0 42.8057 -34.8145 77.6191 -77.6191 77.6191v13.0947c50.0186 0.0136719 90.7139 -40.6816 90.7139 -90.7002zM377.519 357.3l-13.1084 -0.0136719c0 30.3037 -24.6592 54.9639 -54.9629 54.9639v13.1074c37.543 0 68.0713 -30.5146 68.0713 -68.0576z
M309.447 401.978c24.6465 -0.0136719 44.6904 -20.0449 44.6904 -44.6914h-13.0947c0 17.4463 -14.1895 31.6094 -31.5957 31.583v13.1084zM327.197 339.708v-320.643c0 -13.7803 -11.2754 -25.0156 -25.0557 -25.0156h-93.707l-58.0098 -58.0361v58.0361h-13.5303
c-13.7676 -0.0136719 -25.0293 11.248 -25.0293 25.0156v320.643c0 13.7676 11.2617 25.0156 25.0293 25.0156h165.26c13.7549 0.0136719 25.043 -11.248 25.043 -25.0156zM190.038 343.638c0 -1.66113 1.37207 -3.01953 3.02051 -3.01953h52.8662
c1.70117 0 3.04688 1.3584 3.04688 3.01953c0 1.68848 -1.3457 3.0332 -3.04688 3.0332h-52.8662c-1.64844 0 -3.02051 -1.34473 -3.02051 -3.0332zM309.764 325.018h-180.518v-284.669l37.9785 -0.223633v-63.1797l63.1797 63.1797l79.3594 0.223633v284.669v0z" />
    <glyph glyph-name="uniF147" unicode="&#xf147;" 
d="M507.597 214.374c3.54395 -3.29883 3.75391 -8.85156 0.447266 -12.3955c-1.71973 -1.85938 -4.06152 -2.79785 -6.42188 -2.79785c-2.14062 0 -4.28906 0.771484 -5.97363 2.3418l-29.1152 27.0361v-292.559h-140.358h-140.358h-140.358v292.55l-29.1152 -27.0361
c-3.54395 -3.29004 -9.11426 -3.08789 -12.3955 0.456055c-3.29785 3.55273 -3.08789 9.10547 0.456055 12.4043l251.593 233.626zM203.361 -46.4551h105.269v140.357c0 29.0283 -23.6064 52.6348 -52.6338 52.6348c-29.0283 0 -52.6348 -23.6064 -52.6348 -52.6348
v-140.357zM448.988 -46.4551v291.305l-192.992 179.211l-192.993 -179.211v-291.305h122.813v140.357c0 38.6953 31.4844 70.1797 70.1797 70.1797c38.6943 0 70.1787 -31.4844 70.1787 -70.1797v-140.357h122.813z" />
    <glyph glyph-name="uniF1A7" unicode="&#xf1a7;" 
d="M139.962 432.086h0.0527344v-107.206c0 -8.80566 -7.10742 -15.9131 -15.9131 -15.9131h-107.206c-8.80566 0 -15.9141 7.10742 -15.9141 15.9131v107.206c0 8.80566 7.1084 15.9141 15.9141 15.9141h107.152c8.80566 0 15.9141 -7.1084 15.9141 -15.9141z
M325.464 432.086v-107.206c0 -8.80566 -7.1084 -15.9131 -15.9141 -15.9131h-107.152c-8.80566 0 -15.9141 7.10742 -15.9141 15.9131v107.206c0 8.80566 7.1084 15.9141 15.9141 15.9141h107.152c8.80566 0 15.9141 -7.1084 15.9141 -15.9141zM510.966 432.086h0.0537109
v-107.206c0 -8.80566 -7.1084 -15.9131 -15.9141 -15.9131h-107.206c-8.80664 0 -15.9141 7.10742 -15.9141 15.9131v107.206c0 8.80566 7.10742 15.9141 15.9141 15.9141h107.153c8.80566 0 15.9131 -7.1084 15.9131 -15.9141zM139.962 245.576h0.0527344v-107.153
c0 -8.80566 -7.10742 -15.9131 -15.9131 -15.9131h-107.206c-8.80566 0 -15.9141 7.10742 -15.9141 15.9131v107.153c0 8.80566 7.1084 15.9141 15.9141 15.9141h107.152c8.80566 0 15.9141 -7.1084 15.9141 -15.9141zM325.464 245.576v-107.153
c0 -8.80566 -7.1084 -15.9131 -15.9141 -15.9131h-107.152c-8.80566 0 -15.9141 7.10742 -15.9141 15.9131v107.153c0 8.80566 7.1084 15.9141 15.9141 15.9141h107.152c8.80566 0 15.9141 -7.1084 15.9141 -15.9141zM510.966 245.576h0.0537109v-107.153
c0 -8.80566 -7.1084 -15.9131 -15.9141 -15.9131h-107.206c-8.80664 0 -15.9141 7.10742 -15.9141 15.9131v107.153c0 8.80566 7.10742 15.9141 15.9141 15.9141h107.153c8.80566 0 15.9131 -7.1084 15.9131 -15.9141zM124.048 75.0332
c8.80566 0 15.9141 -7.16113 15.9668 -15.9141v-107.206c0 -8.80664 -7.10742 -15.9131 -15.9131 -15.9131h-107.206c-8.80566 0 -15.9141 7.10645 -15.9141 15.9131v107.206c0 8.80566 7.1084 15.9141 15.9141 15.9141h107.152zM309.55 75.0332
c8.80566 0 15.9141 -7.16113 15.9141 -15.9141v-107.206c0 -8.80664 -7.1084 -15.9131 -15.9141 -15.9131h-107.152c-8.80566 0 -15.9141 7.10645 -15.9141 15.9131v107.206c0 8.80566 7.1084 15.9141 15.9141 15.9141h107.152zM495.053 75.0332
c8.80566 0 15.9131 -7.16113 15.9668 -15.9141v-107.206c0 -8.80664 -7.1084 -15.9131 -15.9141 -15.9131h-107.206c-8.80664 0 -15.9141 7.10645 -15.9141 15.9131v107.206c0 8.80566 7.10742 15.9141 15.9141 15.9141h107.153z" />
    <glyph glyph-name="uniF126" unicode="&#xf126;" 
d="M160.744 205.494l62.3135 -62.3125l176.62 211.547c5.95312 6.74707 16.2725 7.54102 23.0195 1.98438c6.74805 -5.95312 7.54199 -16.2725 1.98535 -23.0195l-187.733 -225.042c-3.17578 -3.57227 -7.54102 -5.55664 -11.9072 -5.9541h-0.793945
c-4.36621 0 -8.33496 1.58789 -11.5098 4.76367l-75.0146 75.0137c-6.34961 6.35059 -6.34961 16.6699 0 23.0195c6.35059 6.35059 16.6699 6.35059 23.0205 0zM377.451 387.274c7.54102 -4.7627 9.92285 -14.6855 5.15918 -22.2266
c-4.7627 -7.54102 -14.6846 -9.92188 -22.2256 -5.15918c-78.5859 48.8184 -179.002 37.3086 -244.887 -28.1797c-76.999 -76.999 -76.999 -202.816 0 -279.814c76.998 -76.998 202.815 -76.998 279.813 0c65.8857 65.8857 77.3955 166.697 27.7832 245.284
c-4.7627 7.54102 -2.38184 17.4629 5.15918 22.2256s17.4639 2.38184 22.2266 -5.15918c57.5508 -91.2871 44.4531 -208.77 -32.1484 -285.371c-44.8496 -44.8496 -103.988 -67.4727 -162.729 -67.4727c-58.7412 0 -117.88 22.623 -162.729 67.4727
c-89.6992 89.6992 -89.6992 236.155 0 325.854c76.2051 76.2051 193.29 89.6992 284.577 32.5459z" />
    </font>
</defs>
</svg>
