<?xml version="1.0" standalone="no"?>
<!DOCTYPE svg PUBLIC "-//W3C//DTD SVG 1.1//EN" "http://www.w3.org/Graphics/SVG/1.1/DTD/svg11.dtd" >
<svg xmlns="http://www.w3.org/2000/svg">
<metadata>Generated by IcoMoon</metadata>
<defs>
<font id="icomoon" horiz-adv-x="1024">
<font-face units-per-em="1024" ascent="960" descent="-64" />
<missing-glyph horiz-adv-x="1024" />
<glyph unicode="&#x20;" horiz-adv-x="512" d="" />
<glyph unicode="&#xe900;" glyph-name="angle-down" horiz-adv-x="896" d="M402.8 274.8c25-25 65.6-25 90.6 0l320 320c25 25 25 65.6 0 90.6s-65.6 25-90.6 0l-274.8-274.8-274.8 274.6c-25 25-65.6 25-90.6 0s-25-65.6 0-90.6l320-320z" />
<glyph unicode="&#xe901;" glyph-name="angle-left" horiz-adv-x="640" d="M82.8 493.2c-25-25-25-65.6 0-90.6l320-320c25-25 65.6-25 90.6 0s25 65.6 0 90.6l-274.8 274.8 274.6 274.8c25 25 25 65.6 0 90.6s-65.6 25-90.6 0l-320-320z" />
<glyph unicode="&#xe902;" glyph-name="angle-right" horiz-adv-x="640" d="M557.2 493.2c25-25 25-65.6 0-90.6l-320-320c-25-25-65.6-25-90.6 0s-25 65.6 0 90.6l274.8 274.8-274.6 274.8c-25 25-25 65.6 0 90.6s65.6 25 90.6 0l320-320z" />
<glyph unicode="&#xe903;" glyph-name="angle-up" horiz-adv-x="896" d="M402.8 685.2c25 25 65.6 25 90.6 0l320-320c25-25 25-65.6 0-90.6s-65.6-25-90.6 0l-274.8 274.8-274.8-274.6c-25-25-65.6-25-90.6 0s-25 65.6 0 90.6l320 320z" />
<glyph unicode="&#xe904;" glyph-name="arrow-down-long" horiz-adv-x="482" d="M219.643-51.637c11.762-11.761 30.831-11.761 42.593 0l191.667 191.669c11.761 11.761 11.761 30.831 0 42.592-11.764 11.761-30.831 11.761-42.592 0l-170.371-170.373-170.371 170.373c-11.762 11.761-30.831 11.761-42.593 0s-11.762-30.831 0-42.592l191.668-191.669zM210.822 945.235v-975.576h60.235v975.576h-60.235z" />
<glyph unicode="&#xe905;" glyph-name="arrow-down" horiz-adv-x="768" d="M338.8 18.8c25-25 65.6-25 90.6 0l320 320c25 25 25 65.6 0 90.6s-65.6 25-90.6 0l-210.8-211v613.6c0 35.4-28.6 64-64 64s-64-28.6-64-64v-613.4l-210.8 210.6c-25 25-65.6 25-90.6 0s-25-65.6 0-90.6l320-320z" />
<glyph unicode="&#xe906;" glyph-name="arrow-left-long" horiz-adv-x="2240" d="M61.491 481.336c-24.992-24.994-24.992-65.516 0-90.51l407.296-407.293c24.992-24.992 65.517-24.992 90.509 0 24.992 24.998 24.992 65.517 0 90.509l-362.042 362.040 362.042 362.038c24.992 24.994 24.992 65.516 0 90.51s-65.517 24.993-90.509 0l-407.296-407.293zM2179.846 500.081h-2073.101v-128h2073.101v128z" />
<glyph unicode="&#xe907;" glyph-name="arrow-left" horiz-adv-x="896" d="M18.8 493.2c-25-25-25-65.6 0-90.6l320-320c25-25 65.6-25 90.6 0s25 65.6 0 90.6l-211 210.8h613.6c35.4 0 64 28.6 64 64s-28.6 64-64 64h-613.4l210.6 210.8c25 25 25 65.6 0 90.6s-65.6 25-90.6 0l-320-320z" />
<glyph unicode="&#xe908;" glyph-name="arrow-right-long" horiz-adv-x="2176" d="M2118.355 390.828c24.992 24.994 24.992 65.516 0 90.51l-407.296 407.295c-24.992 24.992-65.517 24.992-90.509 0-24.992-24.998-24.992-65.517 0-90.509l362.042-362.042-362.042-362.041c-24.992-24.992-24.992-65.517 0-90.509s65.517-24.992 90.509 0l407.296 407.295zM0 372.083h2073.101v128h-2073.101v-128z" />
<glyph unicode="&#xe909;" glyph-name="arrow-right" horiz-adv-x="896" d="M877.2 402.8c25 25 25 65.6 0 90.6l-320 320c-25 25-65.6 25-90.6 0s-25-65.6 0-90.6l211-210.8h-613.6c-35.4 0-64-28.6-64-64s28.6-64 64-64h613.4l-210.6-210.8c-25-25-25-65.6 0-90.6s65.6-25 90.6 0l320 320z" />
<glyph unicode="&#xe90a;" glyph-name="arrow-up-long" horiz-adv-x="452" d="M243.081 936.416c-11.762 11.761-30.831 11.761-42.593 0l-191.668-191.669c-11.761-11.761-11.761-30.831 0-42.592 11.764-11.761 30.831-11.761 42.592 0l170.373 170.373 170.371-170.373c11.761-11.761 30.831-11.761 42.592 0s11.761 30.831 0 42.592l-191.667 191.669zM251.902-60.455v975.575h-60.235v-975.575h60.235z" />
<glyph unicode="&#xe90b;" glyph-name="arrow-up" horiz-adv-x="768" d="M429.2 877.2c-25 25-65.6 25-90.6 0l-320-320c-25-25-25-65.6 0-90.6s65.6-25 90.6 0l210.8 211v-613.6c0-35.4 28.6-64 64-64s64 28.6 64 64v613.6l210.8-210.8c25-25 65.6-25 90.6 0s25 65.6 0 90.6l-320 320z" />
<glyph unicode="&#xe90c;" glyph-name="bee-jar-flay" d="M1024 285.069l-106.191 212.383h-284.122l-106.192-212.383 62.311-249.175h-44.837v-98.906h461.558v98.906h-44.837l62.31 249.175zM654.061 464.483h243.374l82.421-164.842h-408.217l82.421 164.842zM973.558 2.925v-32.967h-395.622v32.967h280.233v32.969h-234.406l-57.694 230.779h419.342l-57.696-230.779h-36.578v-32.969h82.421zM775.748 448c-36.365 0-65.937-29.572-65.937-65.937s29.572-65.937 65.937-65.937c36.365 0 65.937 29.572 65.937 65.937s-29.572 65.937-65.937 65.937zM775.748 349.094c-18.182 0-32.969 14.787-32.969 32.969s14.787 32.967 32.969 32.967c18.166 0 32.969-14.785 32.969-32.967s-14.803-32.969-32.969-32.969zM924.106 200.736h-296.716v-98.904h296.716v98.904zM891.139 134.8h-230.779v32.969h230.779v-32.969zM390.313 497.452h-284.122l-106.191-212.383 62.31-249.175h-44.837v-98.906h461.558v98.906h-44.837l62.295 249.175-106.176 212.383zM446.063 2.925v-32.967h-395.622v32.967h395.622zM400.221 35.894h-303.953l-57.695 230.779h341.554v32.967h-335.982l82.421 164.842h243.373l82.421-164.842h-39.266v-32.967h44.821l-57.694-230.779zM248.254 448c-36.365 0-65.938-29.572-65.938-65.937s29.574-65.937 65.938-65.937c36.363 0 65.937 29.572 65.937 65.937s-29.574 65.937-65.937 65.937zM248.254 349.094c-18.182 0-32.969 14.787-32.969 32.969s14.787 32.967 32.969 32.967c18.164 0 32.967-14.785 32.967-32.967s-14.803-32.969-32.967-32.969zM99.895 101.832h296.717v98.904h-296.717v-98.904zM132.863 167.769h230.779v-32.969h-230.779v32.969zM577.937 610.171c5.884 17.622 20.521 30.316 38.095 34.239 3.956-8.621 9.214-16.815 16.319-23.902 16.071-16.073 37.171-24.1 58.287-24.1 15.414 0 30.76 4.383 44.212 12.956 27.479-18.529 65.64-29.491 106.027-29.491 83.196 0 148.358 43.454 148.358 98.906 0 35.639-26.985 66.233-68.295 83.609 79.637 61.947 112.259 111.185 99.466 150.138-9.692 29.54-44.573 46.486-95.724 46.486-30.001 0-54.942-10.5-74.227-31.106-24.777 4.764-83.196 12.281-117.022-14.143-15.974-12.479-24.43-31.040-24.43-53.656 0-45.711 31.947-77.014 58.388-95.163-11.968-4.484-22.848-10.154-32.54-16.733-28.189 17.952-64.799 16.946-92.147-2.686l-12.807 3.198c-20.87 5.226-35.475 23.902-35.475 45.447h-32.967c0-35.475 23.342-66.218 57.067-76.273-6.988-12.924-10.45-27.167-10.039-41.49-28.518-6.512-52.271-27.167-61.799-55.767l-0.857-2.538 31.254-10.5 0.859 2.571zM956.265 678.779c0-23.292-22.533-44.178-55.503-55.93 3.825 17.571 6.051 36.347 6.051 55.93 0 19.517-2.21 38.343-6.034 55.932 32.953-11.754 55.486-32.64 55.486-55.932zM873.943 904.827c13.055 14.275 29.655 21.215 50.738 21.215 34.387 0 59.656-9.33 64.404-23.803 3.050-9.28 4.369-45.991-106.785-127.752l0.544-0.742c-13.237 2.522-27.265 3.94-41.887 3.94-0.543 29.061 2.044 93.317 32.985 127.142zM832.749 744.387c2.72 0.115 5.407 0.329 8.143 0.329 8.077 0 15.973-0.526 23.638-1.484 6.016-19.253 9.329-41.21 9.329-64.453 0-22.979-3.379-45.266-9.329-64.453-7.682-0.956-15.577-1.484-23.654-1.484-2.754 0-5.44 0.214-8.143 0.329 5.341 20.194 8.16 42.48 8.16 65.608s-2.819 45.414-8.143 65.608zM741.971 860.106c0 12.61 3.726 21.397 11.736 27.644 17.571 13.748 51.513 13.138 76.421 9.94-19.963-40.568-22.584-91.059-22.221-118.374-17.325 8.424-65.937 36.035-65.937 80.789zM799.566 740.084c5.341-18.463 8.341-39.661 8.341-61.305s-3-42.843-8.341-61.305c-15.166 3.413-28.963 8.655-40.518 15.462 18.545 27.661 18.545 64.092-0.016 91.734 11.571 6.793 25.419 11.984 40.534 15.414zM655.658 713.742c9.644 9.644 22.303 14.456 34.963 14.456 12.676 0 25.336-4.813 34.979-14.456 9.331-9.331 14.474-21.743 14.474-34.963s-5.127-25.632-14.474-34.963c-19.269-19.269-50.639-19.303-69.943 0-9.329 9.331-14.473 21.743-14.473 34.963s5.143 25.632 14.473 34.963zM113.231 644.987c19.814 0 42.331 1.599 67.536 4.748-16.88-41.458-14.309-82.141 10.88-107.313 14.654-14.654 34.534-21.676 56.755-21.676 37.304 0 81.218 19.797 118.076 56.656 31.255 31.255 51.299 69.91 55.503 104.973 18.035 1.944 35.59 9.444 49.387 23.243 28.913 28.913 31.566 74.030 8.456 106.207l3.198 12.808c5.242 20.869 23.918 35.474 45.464 35.474v32.968c-35.474 0-66.217-23.342-76.272-57.068-12.924 6.989-27.167 10.451-41.492 10.039-6.51 28.518-27.167 52.272-55.767 61.799l-2.538 0.857-10.5-31.254 2.573-0.857c17.622-5.885 30.314-20.523 34.238-38.095-8.621-3.956-16.813-9.215-23.902-16.319-13.797-13.797-21.297-31.353-23.243-49.403-14.358-1.796-29.276-6.149-44.046-12.841 5.901 31.551 6.462 76.437-25.945 108.861-15.991 15.99-35.177 23.193-55.206 20.671-42.628-5.242-78.63-51.859-92.773-72.745-27.595 0.511-51.942-9.643-72.646-30.529-35.952-36.298-48.447-73.042-34.32-100.769 13.748-27.034 48.876-40.452 106.587-40.435zM214.938 565.747c-16.467 16.468-15.313 47.161-0.313 78.794 9.726-15.148 21.463-30.001 35.292-43.798 13.847-13.864 28.699-25.584 43.833-35.292-31.634-15.017-62.311-16.188-78.812 0.296zM378.133 798.867c9.329 9.33 21.741 14.473 34.962 14.473s25.634-5.143 34.963-14.473c19.287-19.287 19.287-50.656 0-69.943-18.676-18.676-51.249-18.676-69.925 0-19.287 19.287-19.287 50.656 0 69.943zM334.548 740.217c3.774-12.644 10.287-24.644 20.259-34.618 9.94-9.906 21.874-16.384 34.451-20.193-2.061-16.715-9.115-34.766-20.176-52.255-16.88 9.265-33.677 21.924-49.254 37.486-15.561 15.577-28.221 32.391-37.486 49.254 17.491 11.077 35.623 18.313 52.206 20.326zM296.534 647.344c16.37-16.368 34.123-30.133 52.174-40.633-1.847-1.994-3.577-4.055-5.522-6-5.736-5.72-11.688-10.93-17.787-15.676-17.769 9.345-35.935 22.731-52.188 39.002-16.452 16.45-29.622 34.336-38.969 52.172 4.748 6.083 9.956 12.049 15.66 17.753 1.946 1.946 3.99 3.694 6 5.539 10.5-18.033 24.265-35.77 40.633-52.156zM210.421 856.743c10.023 1.269 18.924-2.357 27.842-11.259 31.37-31.386 16.781-85.273 10.517-103.653-19.072 19.747-56.589 53.804-99.251 68.178 15.33 19.814 38.853 44.046 60.892 46.733zM64.388 762.964c14.704 14.853 31.155 21.611 50.161 20.836 45.282-2.011 92.098-45.628 112.044-66.546-10.204-10.22-19.023-20.985-26.558-31.997l-0.065 0.429c-134.644-20.721-159.551 6-163.986 14.688-6.94 13.632 4.203 38.193 28.402 62.59z" />
<glyph unicode="&#xe90d;" glyph-name="bee-jar" horiz-adv-x="853" d="M721.448 497.795h-589.565c-10.999 0-19.918-8.917-19.918-19.917v-390.389c0-38.437 31.273-69.712 69.712-69.712h489.976c38.44 0 69.712 31.275 69.712 69.712v390.389c0 10.999-8.92 19.917-19.917 19.917zM701.528 404.181h-403.22c-10.997 0-19.917-8.917-19.917-19.917s8.92-19.917 19.917-19.917h403.22v-276.858c0-16.472-13.4-29.875-29.875-29.875h-489.976c-16.474 0-29.877 13.403-29.877 29.875v370.469h549.728v-53.777zM605.375 241.030c4.924 9.56 7.726 20.383 7.726 31.858 0 38.5-31.323 69.82-69.823 69.82s-69.82-31.32-69.82-69.82c0-6.465 0.902-12.72 2.557-18.668-29.036-6.949-50.697-33.104-50.697-64.239 0-36.429 29.639-66.065 66.065-66.065 11.913 0 23.086 3.186 32.745 8.724 12.493-24.53 37.976-41.381 67.339-41.381 41.654 0 75.54 33.886 75.54 75.537 0 36.901-26.604 67.686-61.633 74.234zM491.383 163.755c-14.464 0-26.229 11.765-26.229 26.226 0 14.464 11.765 26.231 26.229 26.231s26.229-11.767 26.229-26.231c0-14.461-11.765-26.226-26.229-26.226zM513.294 272.887c0 16.535 13.451 29.986 29.983 29.986 16.535 0 29.986-13.451 29.986-29.986 0-16.532-13.451-29.983-29.986-29.983-16.532 0-29.983 13.451-29.983 29.983zM591.468 131.095c-19.686 0-35.701 16.017-35.701 35.703 0 19.684 16.014 35.701 35.701 35.701s35.703-16.017 35.703-35.701c0-19.686-16.017-35.703-35.703-35.703zM841.082 696.532l-83.644 88.695c11.034 12.831 17.385 29.379 17.385 46.781v55.301c0 38.919-32.176 70.582-71.726 70.582h-552.848c-39.551 0-71.726-31.663-71.726-70.582v-55.301c0-17.4 6.35-33.946 17.384-46.779l-83.642-88.695c-4.28-4.539-6.186-10.823-5.149-16.978 1.038-6.151 4.898-11.465 10.431-14.349l18.014-9.39c9.108-4.75 16.681-10.618 24.746-16.865 4.336-3.362 8.716-6.744 13.355-9.958l-29.881-71.689c-7.515-13.815-11.478-29.389-11.478-45.127v-479.61c0-52.087 42.375-94.461 94.462-94.461h599.817c52.085 0 94.461 42.374 94.461 94.461v468.571c0 15.002-3.624 29.935-10.493 43.27l-33.050 83.126c5.481 3.664 10.567 7.583 15.593 11.477 8.021 6.207 15.599 12.066 24.687 16.802l18.017 9.39c5.532 2.884 9.398 8.195 10.433 14.348 1.038 6.157-0.868 12.44-5.148 16.98zM781.21 501.14v-468.571c0-30.123-24.505-54.628-54.628-54.628h-599.817c-30.122 0-54.626 24.505-54.626 54.628v479.61c0 9.338 2.414 18.577 6.979 26.718 0.377 0.671 0.715 1.368 1.014 2.079l29.799 71.487c0.131-0.028 0.269-0.048 0.4-0.077 1.177-0.262 2.406-0.484 3.629-0.711 0.843-0.156 1.673-0.336 2.528-0.475 0.781-0.125 1.611-0.213 2.412-0.321 5.493-0.759 11.22-1.172 17.331-1.172 11.275 0 20.864 1.323 29.303 3.524 0.486 0.128 1.002 0.233 1.48 0.364 4.557 1.266 8.738 2.813 12.68 4.543 12.765 5.601 22.732 13.269 32.494 20.827 17.908 13.864 34.824 26.962 69.248 26.962 34.413 0 51.363-13.107 69.289-26.974 18.551-14.379 37.734-29.249 75.918-29.249 7.157 0 13.648 0.523 19.593 1.471 16.452 2.614 28.712 8.468 39.367 15.394 6.025 3.92 11.548 8.172 17.001 12.393 8.954 6.935 17.661 13.673 28.43 18.682 10.772 5.006 23.606 8.28 40.818 8.28 24.71 0 40.394-6.758 53.911-15.696 5.328-3.521 10.325-7.37 15.394-11.292 4.372-3.385 8.789-6.793 13.474-10.030 0.287-0.199 0.566-0.401 0.853-0.597 0.427-0.293 0.87-0.572 1.3-0.856 9.7-6.468 20.665-12.1 34.944-15.201 0.538-0.117 1.115-0.202 1.661-0.31 1.348-0.27 2.694-0.546 4.105-0.768 3.428-0.546 7.080-0.919 10.894-1.163 2.799-0.179 5.666-0.304 8.693-0.304 2.213 0 4.383 0.057 6.522 0.162 1.141 0.054 2.227 0.151 3.334 0.233 0.916 0.068 1.846 0.122 2.748 0.208 1.556 0.151 3.058 0.344 4.545 0.549 0.387 0.054 0.779 0.097 1.163 0.151 1.866 0.276 3.675 0.594 5.439 0.947l33.081-83.217c0.27-0.677 0.577-1.337 0.919-1.983 4.176-7.859 6.38-16.72 6.38-25.617zM768.694 670.501c-8.832-6.844-16.048-12.41-24.713-16.091-0.617-0.262-1.24-0.512-1.869-0.754-0.395-0.151-0.799-0.299-1.203-0.444-0.634-0.225-1.271-0.444-1.917-0.649-0.407-0.128-0.816-0.25-1.232-0.373-0.663-0.193-1.331-0.375-2.008-0.546-0.43-0.111-0.868-0.213-1.308-0.313-0.674-0.154-1.354-0.302-2.042-0.435-0.492-0.097-0.996-0.182-1.502-0.267-0.657-0.111-1.323-0.222-1.997-0.316-0.6-0.085-1.22-0.151-1.838-0.222-0.617-0.068-1.229-0.142-1.86-0.199-0.774-0.068-1.582-0.117-2.386-0.165-0.515-0.031-1.018-0.071-1.542-0.094-1.357-0.057-2.751-0.091-4.198-0.091-19.931 0-30.76 5.484-42.834 14.285-0.009 0.003-0.011 0.009-0.017 0.011-0.125 0.091-0.253 0.191-0.378 0.282-2.668 1.957-5.402 4.068-8.314 6.32-5.464 4.233-11.298 8.741-17.829 13.073-17.755 11.777-40.715 22.246-75.853 22.246h-0.003c-31.525 0-53.251-8.429-70.201-18.669-8.88-5.364-16.449-11.224-23.433-16.63-15.258-11.81-25.66-19.863-47.127-20.824-1.431-0.063-2.913-0.094-4.446-0.094-24.556 0-35.282 8.314-51.533 20.91-20.341 15.731-45.65 35.31-93.675 35.31-48.040 0-73.319-19.573-93.635-35.301-14.241-11.022-24.25-18.77-42.972-20.537-2.675-0.253-5.527-0.381-8.594-0.381-1.482 0-2.908 0.034-4.292 0.094-0.765 0.034-1.498 0.094-2.243 0.148-0.592 0.040-1.201 0.068-1.775 0.119-0.946 0.085-1.862 0.202-2.776 0.321-0.341 0.043-0.697 0.077-1.032 0.122-0.986 0.142-1.946 0.313-2.9 0.495-0.247 0.046-0.504 0.082-0.747 0.131-0.914 0.185-1.807 0.398-2.693 0.62-0.277 0.071-0.564 0.128-0.837 0.199-0.739 0.196-1.456 0.421-2.177 0.643-0.412 0.125-0.837 0.239-1.241 0.373-0.412 0.139-0.811 0.299-1.217 0.444-10.019 3.601-17.83 9.623-27.642 17.229-7.366 5.707-15.57 12.065-25.445 17.781l75.831 80.412h448.073c10.997 0 19.917 8.917 19.917 19.918s-8.92 19.918-19.917 19.918h-454.029c-0.113 0-0.225-0.016-0.338-0.018-6.527 5.979-10.395 14.484-10.395 23.517v55.301c0 17.241 14.008 30.747 31.89 30.747h552.848c17.883 0 31.889-13.506 31.889-30.747v-55.301c0-11.484-6.232-22.135-16.262-27.793-5.333-3.010-8.988-8.306-9.904-14.361-0.919-6.055 0.998-12.198 5.2-16.651l80.108-84.943c-9.847-5.701-18.048-12.046-25.435-17.76zM673.863 802.674c-0.913 0.916-1.929 1.753-3.024 2.47-1.075 0.717-2.23 1.334-3.425 1.832-1.215 0.498-2.449 0.896-3.726 1.135-2.569 0.518-5.217 0.518-7.788 0-1.274-0.239-2.532-0.637-3.723-1.135-1.215-0.498-2.369-1.115-3.445-1.832-1.095-0.717-2.113-1.554-3.029-2.47-3.703-3.705-5.834-8.843-5.834-14.082 0-1.295 0.137-2.609 0.398-3.884 0.259-1.275 0.634-2.53 1.132-3.725 0.498-1.215 1.115-2.37 1.832-3.446 0.717-1.095 1.553-2.111 2.472-3.028 0.916-0.916 1.931-1.753 3.029-2.47 1.075-0.717 2.227-1.334 3.442-1.832 1.195-0.498 2.452-0.876 3.726-1.135s2.588-0.398 3.883-0.398c1.314 0 2.611 0.139 3.905 0.398 1.274 0.259 2.509 0.637 3.723 1.135 1.195 0.498 2.35 1.116 3.425 1.832 1.098 0.717 2.113 1.554 3.029 2.47s1.755 1.932 2.489 3.028c0.717 1.075 1.337 2.231 1.835 3.446 0.475 1.195 0.873 2.45 1.132 3.725 0.262 1.275 0.381 2.589 0.381 3.884 0 5.238-2.133 10.377-5.84 14.082zM241.148 388.147c-0.237 1.274-0.635 2.529-1.133 3.743-0.498 1.195-1.116 2.35-1.832 3.428-0.717 1.095-1.554 2.111-2.47 3.026s-1.932 1.752-3.028 2.469c-1.075 0.717-2.229 1.334-3.426 1.832-1.213 0.498-2.47 0.896-3.725 1.138-2.589 0.518-5.218 0.518-7.788 0-1.275-0.242-2.53-0.64-3.723-1.138-1.215-0.498-2.37-1.115-3.446-1.832-1.096-0.717-2.111-1.553-3.028-2.469s-1.755-1.931-2.47-3.026c-0.717-1.078-1.334-2.233-1.832-3.428-0.498-1.215-0.896-2.469-1.135-3.743-0.259-1.274-0.399-2.591-0.399-3.886s0.139-2.608 0.399-3.883c0.239-1.274 0.637-2.529 1.135-3.746 0.498-1.195 1.115-2.35 1.832-3.425 0.715-1.095 1.554-2.111 2.47-3.026s1.932-1.755 3.028-2.472c1.075-0.717 2.231-1.334 3.446-1.832 1.195-0.498 2.448-0.896 3.723-1.135 1.277-0.259 2.591-0.398 3.884-0.398 1.295 0 2.611 0.139 3.904 0.398 1.255 0.239 2.512 0.637 3.725 1.135 1.197 0.498 2.35 1.115 3.426 1.832 1.097 0.717 2.113 1.556 3.028 2.472 0.916 0.916 1.753 1.931 2.47 3.026 0.715 1.075 1.334 2.23 1.832 3.425 0.498 1.217 0.896 2.472 1.133 3.746 0.261 1.274 0.399 2.588 0.399 3.883s-0.138 2.611-0.399 3.886z" />
<glyph unicode="&#xe90e;" glyph-name="bee-strong" d="M1012.714 493.188c-1.11 1.178-2.509 1.919-3.872 2.727v69.98c0 37.152-30.216 67.368-67.368 67.368h-33.684c-27.858 0-50.526-22.671-50.526-50.526v-33.684c0-21.962 14.080-40.691 33.684-47.646v-5.457c-4.43-2.611-7.712-6.99-8.321-12.415l-15.511-139.604-138.003-30.669h-132.902v8.79c40.591 27.236 67.368 73.518 67.368 125.947v18.542c38.384 7.831 67.368 41.836 67.368 82.51 0 18.324-9.903 34.239-24.522 43.1 4.918 13.153 7.68 27.031 7.68 41.111 0 74.29-60.446 134.737-134.737 134.737h-134.737c-74.291 0-134.737-60.446-134.737-134.737 0-14.080 2.762-27.958 7.68-41.111-14.619-8.86-24.522-24.775-24.522-43.1 0-40.658 28.985-74.679 67.368-82.51v-18.542c0-52.429 26.778-98.73 67.368-125.947v-25.632c0-46.433 37.778-84.211 84.211-84.211 40.655 0 74.677 28.985 82.51 67.368h136.437c1.229 0 2.458 0.135 3.654 0.404l151.579 33.684c7.041 1.566 12.277 7.411 13.088 14.584l15.19 136.591h67.975l-11.116-166.99c-2.239-34.207-24.775-63.342-57.414-74.224l-40.254-13.474c-8.806-2.945-13.59-12.495-10.628-21.321 2.358-7.041 8.928-11.504 15.969-11.504 1.768 0 3.568 0.286 5.338 0.876l40.235 13.458c45.676 15.225 77.22 56.034 80.354 103.949l12.293 184.926c0.337 4.681-1.312 9.246-4.498 12.649zM663.579 501.407v64.488h16.842c9.297 0 16.842-7.561 16.842-16.842 0-21.962-14.080-40.691-33.684-47.646zM326.737 549.053c0 9.281 7.545 16.842 16.842 16.842h16.842v-64.488c-19.604 6.955-33.684 25.684-33.684 47.646zM394.105 448v119.175c27.672 4.209 52.782 18.712 70.298 40.809 33.601-27.268 75.186-42.089 119.043-42.089 9.313 0 16.842 7.545 16.842 16.842s-7.529 16.842-16.842 16.842c-41.585 0-80.659 16.185-110.064 45.592-3.554 3.554-8.421 5.338-13.576 4.851-5.018-0.488-9.55-3.218-12.345-7.411l-5.659-8.488c-14.417-21.625-38.551-34.544-64.539-34.544h-26.492c-4.665 10.628-7.192 22.097-7.192 33.684 0 55.73 45.323 101.053 101.053 101.053h134.737c55.73 0 101.053-45.323 101.053-101.053 0-11.587-2.525-23.056-7.192-33.684h-26.492c-9.313 0-16.842-7.545-16.842-16.842v-134.737c0-65.011-52.9-117.895-117.895-117.895s-117.895 52.884-117.895 117.895zM512 245.895c-27.858 0-50.526 22.668-50.526 50.526v8.841c15.832-5.624 32.792-8.841 50.526-8.841s34.695 3.218 50.526 8.841v-8.841c0-27.858-22.671-50.526-50.526-50.526zM924.632 498.526v16.842c0 9.297-7.529 16.842-16.842 16.842-9.297 0-16.842 7.561-16.842 16.842v33.684c0 9.281 7.545 16.842 16.842 16.842h33.684c18.578 0 33.684-15.107 33.684-33.684v-67.368h-50.526zM809.836 188.952l-84.211-28.128c-6.888-2.307-11.52-8.739-11.52-15.982v-185.263c0-9.297 7.529-16.842 16.842-16.842s16.842 7.545 16.842 16.842v173.137l72.691 24.269c8.825 2.948 13.592 12.498 10.644 21.323-2.929 8.809-12.498 13.573-21.288 10.644zM374.956 313.263h-74.375l-143.712 30.771-15.495 139.504c-0.606 5.438-3.907 9.801-8.32 12.412v5.457c19.604 6.955 33.684 25.684 33.684 47.646v33.684c0 27.858-22.669 50.526-50.526 50.526h-33.684c-37.154 0-67.369-30.213-67.369-67.368v-69.98c-1.364-0.808-2.779-1.549-3.874-2.727-3.166-3.403-4.817-7.985-4.514-12.633l12.328-184.942c3.2-47.982 34.729-88.792 80.354-104.001l176.759-58.912v-173.121c0-9.297 7.526-16.842 16.842-16.842 9.313 0 16.842 7.545 16.842 16.842v185.263c0 7.26-4.632 13.676-11.52 15.982l-188.262 62.755c-32.59 10.862-55.091 40.017-57.381 74.289l-11.149 166.974h67.958l15.175-136.591c0.808-7.208 6.131-13.086 13.221-14.616l157.34-33.684c1.161-0.253 2.339-0.372 3.535-0.372h76.142c9.316 0 16.842 7.545 16.842 16.842s-7.526 16.842-16.842 16.842zM48.844 498.526v67.368c0 18.578 15.107 33.684 33.684 33.684h33.684c9.297 0 16.842-7.561 16.842-16.842v-33.684c0-9.281-7.545-16.842-16.842-16.842-9.314 0-16.842-7.545-16.842-16.842v-16.842h-50.526zM461.474 464.842c9.302 0 16.842 7.54 16.842 16.842s-7.54 16.842-16.842 16.842c-9.302 0-16.842-7.54-16.842-16.842s7.54-16.842 16.842-16.842zM562.526 464.842c9.302 0 16.842 7.54 16.842 16.842s-7.54 16.842-16.842 16.842c-9.302 0-16.842-7.54-16.842-16.842s7.54-16.842 16.842-16.842zM445.559 518.195c9.666 6.451 22.164 6.451 31.846 0 2.865-1.919 6.114-2.829 9.316-2.829 5.438 0 10.795 2.627 14.029 7.494 5.171 7.731 3.083 18.208-4.665 23.361-21.019 14.013-48.187 14.013-69.206 0-7.747-5.152-9.836-15.613-4.665-23.361 5.136-7.729 15.562-9.836 23.345-4.665zM546.611 518.195c9.666 6.451 22.164 6.451 31.846 0 2.865-1.919 6.114-2.829 9.316-2.829 5.438 0 10.795 2.627 14.029 7.494 5.171 7.731 3.083 18.208-4.665 23.361-21.019 14.013-48.187 14.013-69.206 0-7.747-5.152-9.836-15.613-4.665-23.361 5.136-7.729 15.578-9.836 23.345-4.665zM449.571 426.218c-6.586-6.586-6.586-17.246 0-23.813 17.211-17.214 39.815-25.821 62.434-25.821 22.617 0 45.22 8.607 62.432 25.821 6.586 6.567 6.586 17.227 0 23.813-6.583 6.586-17.227 6.586-23.813 0-21.288-21.288-55.951-21.288-77.239 0-6.583 6.586-17.227 6.586-23.813 0zM714.108 835.367h33.684v-134.737c0-9.297 7.529-16.843 16.842-16.843h101.053c9.313 0 16.842 7.546 16.842 16.843v134.737h33.684c7.090 0 13.422 4.446 15.832 11.116s0.388 14.131-5.053 18.661l-101.053 84.211c-6.249 5.221-15.325 5.221-21.574 0l-101.053-84.211c-5.441-4.547-7.462-11.992-5.053-18.661s8.758-11.116 15.848-11.116zM815.161 914.491l54.536-45.44h-4.010c-9.313 0-16.842-7.545-16.842-16.842v-134.737h-67.368v134.737c0 9.297-7.529 16.842-16.842 16.842h-4.007l54.533 45.44zM107.793 835.367h33.684v-67.368c0-9.297 7.528-16.842 16.842-16.842s16.842 7.545 16.842 16.842v84.211c0 9.297-7.529 16.842-16.842 16.842h-4.008l54.535 45.44 54.535-45.44h-4.008c-9.314 0-16.842-7.545-16.842-16.842v-134.737h-84.211c-9.314 0-16.842-7.545-16.842-16.842s7.528-16.843 16.842-16.843h101.053c9.314 0 16.842 7.546 16.842 16.843v134.737h33.684c7.090 0 13.422 4.446 15.832 11.116s0.388 14.131-5.053 18.661l-101.052 84.211c-6.249 5.221-15.326 5.221-21.575 0l-101.053-84.211c-5.44-4.547-7.461-11.992-5.053-18.661s8.758-11.116 15.849-11.116z" />
<glyph unicode="&#xe90f;" glyph-name="bee" d="M1017.766 645.655c-21.071 43.843-92.032 54.902-151.229 43.156-56.965-11.295-189.842-62.152-243.845-83.366-5.117 5.263-11.308 9.664-18.583 13.207 34.501 42.043 35.5 100.687 5.583 143.579 12.344 29.79-10.445 62.788-43.059 61.358 25.608 65.528 74.243 106.266 145.49 106.266 8.284 0 14.996 6.712 14.996 14.996s-6.712 14.996-14.996 14.996c-93.33 0-156.667-61.612-181.105-148.174-12.572 2.006-25.469 2.004-38.039-0.002-24.333 86.196-87.337 148.176-181.105 148.176-8.282 0-14.996-6.712-14.996-14.996s6.715-14.996 14.996-14.996c70.676 0 119.642-40.128 145.452-106.266-32.607 1.408-55.36-31.598-43.016-61.364-29.921-42.906-28.897-101.545 5.586-143.57-7.334-3.571-13.563-8.013-18.711-13.335-24.223 9.536-86.019 33.574-143.849 53.614-7.821 2.706-16.369-1.436-19.081-9.262s1.434-16.369 9.26-19.080c54.427-18.862 112.477-41.324 138.763-51.64-8.059-27.848-2.982-67.702 18.506-99.612-8.584-6.776-18.662-13.606-29.087-19.602-72.968-41.997-142.891-38.134-213.869 3.328-44.328 27.564-151.382 122.14-128.568 169.597 10.83 22.533 58.060 38.687 118.366 26.729 7.892-1.564 17.998-4.114 30.042-7.57 7.954-2.291 16.266 2.312 18.554 10.273 2.288 7.959-2.312 16.266-10.274 18.552-12.848 3.694-23.778 6.438-32.49 8.166-59.204 11.74-130.158 0.686-151.23-43.156-21.47-44.667 12.622-105.224 101.322-179.988 7.754-6.536 15.462-12.467 23.112-17.866-45.822-47.629-60.934-87.391-44.874-118.328 20.674-39.818 84.602-44.874 128.886-36.091 27.604 5.471 76.358 22.042 119.553 37.77-24.479-132.954 26.153-285.993 131.185-325.005l33.372-62.108c5.627-10.473 20.744-10.57 26.419 0l33.352 62.070c96.189 35.651 139.328 161.8 137.324 263.985-0.008 0.202-0.067 2.537-0.061 2.335-0.522 20.808-2.66 40.374-6.034 58.642 30.472-11.082 56.558-19.983 77.752-26.524 7.913-2.445 16.31 1.994 18.752 9.907 2.445 7.913-1.992 16.307-9.905 18.752-24.888 7.683-56.786 18.729-94.884 32.863-5.783 19.794-13.166 38.060-21.422 54.193 70.492-30.876 142.743-25.114 207.355 11.136 36.439-36.726 52.756-67.935 44.925-86.449-6.956-16.433-35.612-26.529-71.268-25.167-8.259 0.274-15.242-6.129-15.562-14.405s6.129-15.245 14.408-15.562c2.706-0.105 5.376-0.156 8.010-0.156 46.254 0 80.364 16.026 92.032 43.607 12.892 30.472-2.816 68.964-46.664 114.56 7.798 5.486 15.511 11.43 23.127 17.848 88.707 74.76 122.796 135.314 101.325 179.981zM555.118 784.325c2.104 5.526 7.416 9.32 13.496 9.32 13.484 0 20.531-22.080 5.11-27.958-11.712-4.46-23.032 7.142-18.606 18.638zM469.732 780.867c1.674-14.478-16.74-22.020-25.743-10.542-1.912 2.452-3.062 5.522-3.062 8.866-0.003 17.96 26.708 19.716 28.805 1.676zM435.328 739.511c29.957-15.192 66.913 7.962 64.387 42.874 8.105 1.116 16.463 1.114 24.568 0.002-2.611-35.38 34.844-57.854 64.394-42.874 34.237-57.803-5.793-131.321-72.407-134.431-70.82-3.372-116.925 73.672-80.942 134.429zM444.577 595.914c40.829-28.178 94.789-27.651 134.853 0 22.446-5.891 35.592-19.377 31.104-56.333-11.484-95.511-141.678-121.293-186.883-33.257-7.296 14.254-10.924 29.76-10.924 45.179 0 26.834 9.961 38.666 31.849 44.411zM424.973 455.962c48.676-44.372 124.232-45.43 174.065 0.008 13.755-14.5 25.28-31.675 34.417-49.541-112.947-44.316-223.844-7.063-242.898 0.018 9.242 18.048 20.557 34.931 34.417 49.516zM208.843 322.803c-42.894-8.502-86.154 0.689-96.436 20.493-9.536 18.368 6.51 50.181 44.142 88.097 67.668-38.042 139.781-40.594 207.355-11.164-8.719-17.037-15.864-35.244-21.376-54.060-63.616-23.652-109.753-38.62-133.685-43.366zM511.997-17.18l-8.115 15.101c5.348-0.338 11.144-0.325 16.228-0.005l-8.113-15.096zM413.855 82.13c63.306-11.136 132.47-12.224 195.994-0.412-57.746-72.983-139.571-71.196-195.994 0.412zM662.84 215.626c-53.038-13.732-111.227-19.482-173.005-17.093-8.274 0.315-15.247-6.124-15.567-14.403-0.32-8.276 6.126-15.245 14.403-15.565 9.505-0.371 18.926-0.556 28.27-0.556 49.196 0 96.090 5.128 139.932 15.276-0.568-1.664-6.415-31.252-24.054-65.764-114.888-29.788-227.896-3.438-241.631-0.005l-0.067 0.133c-17.695 34.135-23.15 63.222-24.028 65.807 16.55-3.569 47.754-8.84 52.383-8.84 7.388 0 13.824 5.46 14.843 12.987 1.111 8.207-4.641 15.762-12.849 16.873-31.857 4.308-53.878 9.528-60.301 11.139-2.906 21.676-3.858 44.068-2.542 67.313 20.308-6.254 80.579-22.543 157.586-22.543 45.494 0 96.824 5.719 149.166 22.531 1.288-22.774 0.358-45.522-2.54-67.29zM662.3 313.452c-147.287-49.848-292.47-2.732-300.6-0.008 0.919 4.183 2.33 24.456 16.709 65.51 11.917-4.657 66.14-24.177 137.162-24.177 39.598 0 84.411 6.098 130.010 24.202 6.218-16.74 9.073-28.308 9.039-28.191 5.458-20.339 7.427-35.955 7.68-37.338zM619.205 479.314c21.857 32.445 26.409 72.604 18.481 99.791 44.355 17.357 179.548 69.353 234.688 80.287 60.301 11.958 107.533-4.201 118.364-26.729 14.162-29.466-19.96-81.974-93.622-144.061-95.314-80.338-198.198-72.573-277.911-9.288z" />
<glyph unicode="&#xe910;" glyph-name="bees-seal-cells" d="M1023.997 811.637v115.393h-49.454c-40.422 0-75.991-20.936-96.614-52.489-23.729 50.396-74.857 85.458-134.172 85.458h-49.454v-115.393c0-30.482 9.265-58.832 25.091-82.424h-224.735c21.443 20.968 34.798 50.147 34.798 82.424v115.393h-49.454c-63.613 0-115.395-51.764-115.395-115.393v-82.424c-116.552 0-212.031 18.199-340.545 64.949l-22.119 8.049v-171.906h248.374c-50.163-31.555-86.609-83.382-97.049-145.628l0.813-0.128c-22.127-14.81-36.744-39.997-36.744-68.547 0-11.543 2.455-22.812 7.003-33.155l-28.317 28.324-23.311-23.309 24.631-24.632c-17.853-15.132-29.46-37.435-29.46-62.623 0-9.69 1.843-19.205 5.127-28.219-11.808-6.118-23.48-14.377-34.225-25.121-38.226-38.234-48.167-88.197-22.618-113.769 9.329-9.329 22.385-14.19 37.292-14.19 4.942 0 10.15 0.676 15.446 1.764 4.83-40.932 29.524-76.718 67.074-95.514l14.328-7.14 14.328 7.173c9.281 4.636 17.636 10.473 25.25 17.001 18.827-61.128 75.815-104.648 141.753-104.648h197.819c39.89 0 77.706 16.251 105.234 43.914 10.038-30.7 31.739-56.658 61.77-71.677l14.328-7.155 14.326 7.171c37.565 18.78 62.246 54.566 67.075 95.514 5.289-1.088 10.481-1.764 15.447-1.764 14.884 0 27.937 4.861 37.284 14.2 25.556 25.564 15.616 75.525-22.61 113.759-10.755 10.744-22.426 18.988-34.225 25.106 3.274 8.983 5.125 18.511 5.125 28.204 0 25.185-11.604 47.491-29.458 62.623l24.63 24.63-23.311 23.311-21.99-21.99c0.428 3.412 0.676 6.874 0.676 10.335 0 27.054-13.289 50.903-33.485 65.938 20.196 15.037 33.485 38.886 33.485 65.94 0 28.549-14.625 53.737-36.744 68.531l0.804 0.128c-10.447 62.262-46.876 114.089-97.039 145.626h198.92v-49.454c0-81.795 66.55-148.362 148.362-148.362h49.454v115.392c0 50.051-24.975 94.298-63.040 121.183 46.113 15.132 79.524 58.517 79.524 109.621zM727.273 927.031h16.484c63.613 0 115.395-51.764 115.395-115.393v-82.424h-16.484c-63.613 0-115.395 51.764-115.395 115.393v82.424zM397.578 844.607c0 45.446 36.969 82.424 82.424 82.424h16.484v-82.424c0-45.446-36.979-82.424-82.424-82.424h-16.484v82.424zM100.852 333.578c0 27.264 22.184 49.454 49.454 49.454 27.263 0 49.454-22.19 49.454-49.454 0-6.131-1.521-12.032-3.695-17.692-17.773 2.609-33.976-0.95-45.76-11.356-11.784 10.424-28.011 13.998-45.776 11.382-2.165 5.65-3.678 11.535-3.678 17.667zM480.003 317.094c0-27.261-22.193-49.454-49.454-49.454-27.272 0-49.454 22.193-49.454 49.454 0 27.264 22.182 49.454 49.454 49.454 27.261 0 49.454-22.19 49.454-49.454zM624.87 71.304c-11.082-2.767-20.178-1.626-24.911 3.1-10.511 10.519-3.067 41.462 22.618 67.146 18.199 18.199 39.007 27.213 53.343 27.213 5.901 0 10.721-1.528 13.796-4.595 10.504-10.519 3.067-41.477-22.61-67.146-12.831-12.838-28.204-22.2-42.235-25.718zM633.492 189.965c-11.809-6.116-23.48-14.374-34.225-25.121-9.185-9.183-16.63-19.059-22.451-29.097h-348.586c1.626 5.947 2.753 12.065 3.477 18.296 5.288-1.088 10.48-1.764 15.446-1.764 14.882 0 27.938 4.861 37.285 14.19 16.056 16.074 18.053 41.807 7.846 68.186h337.746c-1.088-5.312-1.667-10.834-1.667-16.468 0-9.692 1.843-19.205 5.128-28.221zM238.518 256.942c25.677-25.684 33.132-56.625 22.618-67.146-4.733-4.723-13.836-5.868-24.912-3.098-14.030 3.492-29.412 12.877-42.234 25.7-25.685 25.684-33.114 56.643-22.618 67.146 3.083 3.067 7.896 4.598 13.796 4.598 14.328 0.015 35.167-9.016 53.35-27.2zM365.036 267.64h-92.147c-3.412 4.283-6.996 8.54-11.059 12.613-10.755 10.747-22.426 18.988-34.226 25.106 3.276 8.998 5.127 18.529 5.127 28.219 0 11.738-2.544 22.853-6.995 32.97h139.284c-10.45-13.811-16.896-30.828-16.896-49.454s6.446-35.643 16.911-49.454zM39.477 189.796c-10.512 10.522-3.067 41.462 22.618 67.146 18.199 18.199 39.006 27.215 53.342 27.215 5.9 0 10.722-1.528 13.796-4.595 10.504-10.522 3.067-41.48-22.61-67.146-12.83-12.823-28.228-22.2-42.234-25.702-11.1-2.785-20.195-1.641-24.912 3.082zM150.307 88.256c-29.919 15.132-48.585 45.051-49.326 78.464 10.174 5.932 20.010 13.432 28.953 22.385 8.202 8.21 14.835 16.998 20.356 25.935 5.522-8.937 12.146-17.741 20.356-25.935 8.935-8.934 18.779-16.453 28.945-22.385-0.708-33.413-19.366-63.332-49.285-78.464zM331.638 3.884c-57.398 0-106.079 42.396-114.161 98.908h346.527c-3.922-20.291-0.033-39.004 12.662-51.699 8.586-8.589 20.411-13.184 33.812-13.908-21.361-20.984-50.412-33.3-81.021-33.3h-197.819zM710.789-27.139c-29.919 15.135-48.586 45.053-49.326 78.464 10.173 5.934 20.009 13.435 28.954 22.385 8.202 8.21 14.833 17.001 20.355 25.935 5.522-8.934 12.147-17.741 20.357-25.935 8.934-8.934 18.78-16.451 28.946-22.385-0.709-33.411-19.366-63.329-49.285-78.464zM821.617 74.404c-4.731-4.726-13.819-5.868-24.911-3.1-14.029 3.494-29.412 12.879-42.235 25.702-25.684 25.684-33.114 56.643-22.618 67.146 3.082 3.067 7.898 4.595 13.796 4.595 14.344 0 35.185-9.032 53.35-27.213 25.661-25.669 33.114-56.612 22.618-67.131zM710.789 189.153c-11.784 10.422-28.012 13.998-45.76 11.382-2.181 5.635-3.694 11.517-3.694 17.651 0 27.261 22.182 49.454 49.454 49.454 27.261 0 49.454-22.193 49.454-49.454 0-6.134-1.523-12.035-3.694-17.692-17.774 2.624-33.976-0.934-45.76-11.341zM710.789 317.094c0-5.819-1.37-11.423-3.348-16.814-6.674-0.282-13.074-1.434-19.254-3.213l-31.683 31.683-23.311-23.311 24.632-24.63c-4.654-3.937-8.87-8.307-12.564-13.169h-149.202c10.465 13.811 16.911 30.828 16.911 49.454s-6.446 35.643-16.911 49.454h165.276c27.261 0 49.454-22.19 49.454-49.454zM661.335 399.519h-454.748l21.314 21.315-23.311 23.309-31.682-31.68c-2.737 0.788-5.457 1.592-8.315 2.109-8.999 9.198-14.287 21.443-14.287 34.401 0 27.261 22.184 49.454 49.454 49.454h461.574c27.261 0 49.454-22.193 49.454-49.454 0-27.264-22.193-49.454-49.454-49.454zM671.212 530.391c-3.284 0.41-6.497 1.006-9.876 1.006h-461.574c-3.381 0-6.592-0.596-9.876-1.006 21.395 78.003 92.1 132.884 174.724 132.884h131.878c82.616 0 153.321-54.881 174.725-132.884zM496.486 696.243h-461.573v92.035c121.543-42.347 215.783-59.065 329.695-59.065h385.019c17.257-13.949 37.716-24.051 60.070-29.146v-3.825h-313.211zM974.543 580.851v-82.424h-16.484c-63.613 0-115.392 51.763-115.392 115.392v82.424h16.484c63.613 0 115.392-51.763 115.392-115.392zM908.605 729.213h-16.484v82.424c0 45.446 36.969 82.424 82.422 82.424h16.486v-82.424c0-45.446-36.979-82.424-82.424-82.424z" />
<glyph unicode="&#xe911;" glyph-name="calendar-days" d="M928 864h-128v32c0 17.673-14.327 32-32 32s-32-14.327-32-32v0-32h-448v32c0 17.673-14.327 32-32 32s-32-14.327-32-32v0-32h-128c-52.928 0-96-43.072-96-96v-704c0-52.928 43.072-96 96-96h832c52.928 0 96 43.072 96 96v704c0 52.928-43.072 96-96 96zM96 800h128v-32c0-17.673 14.327-32 32-32s32 14.327 32 32v0 32h448v-32c0-17.673 14.327-32 32-32s32 14.327 32 32v0 32h128c17.673 0 32-14.327 32-32v0-96h-896v96c0 17.673 14.327 32 32 32v0zM960 64c0-17.673-14.327-32-32-32v0h-832c-17.673 0-32 14.327-32 32v0 544h896zM256 416h32c17.6 0 32 14.4 32 32s-14.4 32-32 32h-32c-17.6 0-32-14.4-32-32s14.4-32 32-32zM416 416h32c17.6 0 32 14.4 32 32s-14.4 32-32 32h-32c-17.6 0-32-14.4-32-32s14.4-32 32-32zM576 416h32c17.6 0 32 14.4 32 32s-14.4 32-32 32h-32c-17.6 0-32-14.4-32-32s14.4-32 32-32zM736 416h32c17.6 0 32 14.4 32 32s-14.4 32-32 32h-32c-17.6 0-32-14.4-32-32s14.4-32 32-32zM256 288h32c17.6 0 32 14.4 32 32s-14.4 32-32 32h-32c-17.6 0-32-14.4-32-32s14.4-32 32-32zM416 288h32c17.6 0 32 14.4 32 32s-14.4 32-32 32h-32c-17.6 0-32-14.4-32-32s14.4-32 32-32zM576 288h32c17.6 0 32 14.4 32 32s-14.4 32-32 32h-32c-17.6 0-32-14.4-32-32s14.4-32 32-32zM736 288h32c17.6 0 32 14.4 32 32s-14.4 32-32 32h-32c-17.6 0-32-14.4-32-32s14.4-32 32-32zM256 160h32c17.6 0 32 14.4 32 32s-14.4 32-32 32h-32c-17.6 0-32-14.4-32-32s14.4-32 32-32zM416 160h32c17.6 0 32 14.4 32 32s-14.4 32-32 32h-32c-17.6 0-32-14.4-32-32s14.4-32 32-32zM576 160h32c17.6 0 32 14.4 32 32s-14.4 32-32 32h-32c-17.6 0-32-14.4-32-32s14.4-32 32-32z" />
<glyph unicode="&#xe912;" glyph-name="check-circle" d="M512 960c-282.4 0-512-229.6-512-512s229.6-512 512-512 512 229.6 512 512-229.6 512-512 512zM512 0c-247 0-448 201-448 448s201 448 448 448 448-201 448-448-201-448-448-448zM759.6 620.6c12.4-12.4 12.4-32.8 0-45.2l-300-300c-6.2-6.2-14.4-9.4-22.6-9.4s-16.4 3.2-22.6 9.4l-150 150c-12.4 12.4-12.4 32.8 0 45.2s32.8 12.4 45.2 0l127.4-127.4 277.4 277.4c12.4 12.6 32.8 12.6 45.2 0z" />
<glyph unicode="&#xe913;" glyph-name="check" horiz-adv-x="896" d="M877.2 749.2c25-25 25-65.6 0-90.6l-512-512c-25-25-65.6-25-90.6 0l-256 256c-25 25-25 65.6 0 90.6s65.6 25 90.6 0l210.8-210.6 466.8 466.6c25 25 65.6 25 90.6 0z" />
<glyph unicode="&#xe914;" glyph-name="clock" d="M928 448c0-229.75-186.25-416-416-416s-416 186.25-416 416v0c0 229.75 186.25 416 416 416s416-186.25 416-416v0zM0 448c0-282.77 229.23-512 512-512s512 229.23 512 512v0c0 282.77-229.23 512-512 512s-512-229.23-512-512v0zM464 720v-272c0-16 8-31 21.4-40l192-128c22-14.8 51.8-8.8 66.6 13.4s8.8 51.8-13.4 66.6l-170.6 113.6v246.4c0 26.6-21.4 48-48 48s-48-21.4-48-48z" />
<glyph unicode="&#xe915;" glyph-name="close" d="M512 864c229.75 0 416-186.25 416-416s-186.25-416-416-416v0c-229.75 0-416 186.25-416 416s186.25 416 416 416v0zM512-64c282.77 0 512 229.23 512 512s-229.23 512-512 512v0c-282.77 0-512-229.23-512-512s229.23-512 512-512v0zM350 610c-18.8-18.8-18.8-49.2 0-67.8l94-94-94-94c-18.8-18.8-18.8-49.2 0-67.8s49.2-18.8 67.8 0l94 94 94-94c18.8-18.8 49.2-18.8 67.8 0s18.8 49.2 0 67.8l-94 94 94 94c18.8 18.8 18.8 49.2 0 67.8s-49.2 18.8-67.8 0l-94-94-94 94c-18.8 18.8-49.2 18.8-67.8 0z" />
<glyph unicode="&#xe916;" glyph-name="comments" horiz-adv-x="1280" d="M176.4 341.8c19.6 36.6 13.6 81.6-15 111.6-42.6 44.8-65.4 98.6-65.4 154.6 0 127 127.6 256 320 256s320-129 320-256-127.6-256-320-256c-26.2 0-51.6 2.6-75.6 7.2-20.8 4-42.4 1.2-61.4-8.4-8.2-4.2-16.6-8.2-25.2-12-32-14.4-65.8-27-99.8-36 5.6 9.2 10.8 18.2 15.8 27.2 2.2 3.8 4.4 7.8 6.4 11.8zM0 608c0-83.6 34.4-160.2 91.8-220.6-1.8-3.4-3.8-7-5.6-10.2-20.6-36.8-44.6-73-73.2-104.2-13.2-14-16.6-34.4-9.2-51.8 7.8-17.8 25-29.2 44.2-29.2 86 0 173 26.6 245.4 59.4 9.6 4.4 19.2 9 28.4 13.6 30.2-6 61.8-9 94.2-9 229.8 0 416 157.6 416 352s-186.2 352-416 352-416-157.6-416-352zM864 0c32.4 0 63.8 3.2 94.2 9 9.2-4.6 18.8-9.2 28.4-13.6 72.4-32.8 159.4-59.4 245.4-59.4 19.2 0 36.4 11.4 44 29s4 38-9.2 51.8c-28.4 31.2-52.4 67.4-73.2 104.2-1.8 3.4-3.8 6.8-5.6 10.2 57.6 60.6 92 137.2 92 220.8 0 188.8-175.8 343-396.4 351.6 8.2-30.4 12.4-62.4 12.4-95.6v-1.2c174.4-13.4 288-135 288-254.8 0-56-22.8-109.8-65.4-154.4-28.6-30-34.6-75.2-15-111.6 2.2-4 4.4-8 6.4-11.8 5-9 10.4-18 15.8-27.2-34 9-67.8 21.4-99.8 36-8.6 3.8-17 7.8-25.2 12-19 9.6-40.6 12.4-61.4 8.4-24.2-4.8-49.4-7.2-75.6-7.2-123.4 0-220 53-273.6 124.6-32-10.8-65.6-18.8-100-23.6 67.8-116.8 209.8-197.2 373.8-197.2z" />
<glyph unicode="&#xe917;" glyph-name="creamed-honey" horiz-adv-x="965" d="M157.307 78.772c-16.797 0-13.798 19.797-13.798 31.194 0 18.596 27.595 18.596 27.595 0 0-11.397 2.999-31.194-13.798-31.194zM856.771-64h-835.038c-18.596 0-18.596 28.195 0 28.195h52.79c-1.8 8.998-0.6 421.717-0.6 485.904 0 19.197 15.597 34.794 34.793 34.794h37.193v75.584c0 25.195 20.396 46.191 46.191 46.191h91.783v98.981c0 23.995-35.994 23.995-35.994 0v-31.194c0-29.395-23.995-53.39-53.99-53.39-29.393 0-53.389 23.995-53.389 53.39v104.379c-46.191 4.2-82.784 43.192-82.784 90.582 0 49.79 40.792 90.582 91.183 90.582h269.347c11.997 0 14.397-9.598 14.397-18.596h460.709c7.798 0 13.798-5.999 13.798-13.797v-105.579c0-7.798-5.999-13.797-13.798-13.797h-473.307c-19.795-29.395-41.392-12.598-41.392-27.595v-173.966h394.723c25.795 0 46.191-20.996 46.191-46.191v-75.584h37.193c19.196 0 34.793-15.597 34.793-34.794 0-64.187 0.6-476.906-1.2-485.904h53.39c18.596 0 18.596-28.195 0-28.195h-86.983zM173.504 484.893h617.879v75.584c0 10.199-7.798 17.998-17.996 17.998h-581.287c-10.198 0-18.596-7.798-18.596-17.998v-75.584zM108.716 457.298c-3.599 0-6.599-3.599-6.599-7.199v-58.188h761.251v58.188c0 3.6-2.999 7.199-6.597 7.199h-748.055zM102.117 364.316v-314.339h761.251v314.339h-761.251zM102.117 22.383v-51.591c0-3.599 2.999-6.597 6.599-6.597h748.055c3.599 0 6.597 2.999 6.597 6.597v51.591h-761.251zM312.076 606.669h38.992v173.966c0 19.797 15.597 35.993 35.394 35.993 10.797 0 17.996 22.796 17.996 32.994v82.184h-255.549c-80.385 0-88.783-125.375 5.398-125.375 7.798 0 14.397-6.599 14.397-14.397v-117.577c0-33.595 50.991-33.595 50.991 0v31.194c0 25.795 20.995 46.191 46.191 46.191 25.795 0 46.19-20.397 46.19-46.191v-98.981zM515.436 86.57c-66.586 0-121.176 53.99-121.176 120.576 0 66.588 54.589 121.177 121.176 121.177s120.577-54.589 120.577-121.177c0-66.586-53.99-120.576-120.577-120.576zM515.436 300.129c-51.589 0-92.982-41.991-92.982-92.982 0-50.989 41.393-92.981 92.982-92.981 50.991 0 92.982 41.991 92.982 92.981s-41.991 92.982-92.982 92.982zM759.589 71.573c-34.193 0-62.388 27.595-62.388 62.388 0 34.193 28.195 61.788 62.388 61.788s62.388-27.595 62.388-61.788c0-34.793-28.194-62.388-62.388-62.388zM759.589 168.154c-44.992 0-44.992-68.985 0-68.985s44.992 68.985 0 68.985zM430.852 835.824h448.712v77.985h-446.912c0-16.197 0.6-64.787-1.801-77.985zM157.307 143.559c-7.798 0-13.798 5.999-13.798 13.798v163.768c0 18.596 27.595 18.596 27.595 0v-163.768c0-7.798-5.999-13.798-13.798-13.798z" />
<glyph unicode="&#xe918;" glyph-name="debit-cards" d="M853.333 779.195v95.471c-0.060 47.104-38.229 85.274-85.333 85.333h-682.667c-47.104-0.060-85.274-38.229-85.333-85.333v-375.467c0.132-43.584 33.169-80.034 76.527-84.454l64.154-166.533c16.947-43.972 66.33-65.877 110.306-48.952l400.618 154.326c-27.682-72.308-19.806-153.42 21.257-219.056l9.806-15.679v-165.786c0-9.43 7.636-17.067 17.066-17.067h307.2c9.43 0 17.067 7.638 17.067 17.067v563.349c-0.162 59.020-23.659 115.572-65.387 157.311l-105.28 105.468zM853.333 677.129l51.798-134.46c10.149-26.393-3.005-56.008-29.393-66.168l-29.607-11.434c4.728 10.761 7.177 22.39 7.202 34.133v177.929zM34.133 499.2v375.467c0 28.271 22.929 51.2 51.2 51.2h682.667c28.271 0 51.2-22.929 51.2-51.2v-108.476h-0.149l0.149-0.388v-266.603c-0.132-2.978-0.521-5.93-1.16-8.84l-156.331 156.347c-35.141 34.33-91.162 34.594-126.618 0.623-35.464-33.992-37.594-89.972-4.795-126.537l66.645-72.793h-511.608c-28.271 0-51.2 22.929-51.2 51.2zM252.774 413.867l-121.361-46.725-17.954 46.725h139.315zM238.712 231.121c-26.386-10.171-56.017 2.983-66.186 29.367l-28.791 74.872 203.725 78.61h280.763l22.183-24.184-411.695-158.664zM989.867-29.867h-273.067v136.534h273.067v-136.534zM989.867 140.8h-280.662l-7.402 11.827c-41.612 66.5-43.268 150.494-4.323 218.573 3.686 6.442 2.782 14.532-2.235 20.002l-139.856 152.576c-20.856 22.828-19.683 58.116 2.645 79.498 22.336 21.384 57.642 21.034 79.538-0.777l271.963-271.898 24.131 24.133-63.146 63.147 17.51 6.826c43.937 16.952 65.834 66.292 48.93 110.256l-57.767 149.998 55.287-55.403c35.328-35.319 55.249-83.182 55.387-133.14v-375.616zM194.561 721.069c24.507 0 44.373 19.866 44.373 44.374v81.919c0 24.508-19.866 44.373-44.373 44.373h-81.92c-24.508 0-44.373-19.866-44.373-44.373v-81.919c0-24.509 19.866-44.374 44.373-44.374h81.92zM102.401 765.443v23.893h34.133v34.133h-34.133v23.893c0 5.653 4.587 10.24 10.24 10.24h81.92c5.652 0 10.24-4.587 10.24-10.24v-23.893h-34.134v-34.133h34.134v-23.893c0-5.654-4.588-10.24-10.24-10.24h-81.92c-5.653 0-10.24 4.586-10.24 10.24zM85.332 669.864h68.266v-34.133h-68.266v34.133zM85.332 567.464h68.266v-34.133h-68.266v34.133zM392.533 567.464h68.266v-34.133h-68.266v34.133zM187.733 669.864h68.266v-34.133h-68.266v34.133zM290.133 669.864h68.266v-34.133h-68.266v34.133zM392.533 669.864h68.266v-34.133h-68.266v34.133zM716.8 874.664h34.133v-51.2h-34.133v51.2zM648.533 874.664h34.133v-51.2h-34.133v51.2zM580.267 874.664h34.134v-51.2h-34.134v51.2zM512 874.664h34.133v-51.2h-34.133v51.2zM750.933 72.536h34.133v-34.133h-34.133v34.133z" />
<glyph unicode="&#xe919;" glyph-name="dobble-angles-down" horiz-adv-x="896" d="M493.2 18.8c-25-25-65.6-25-90.6 0l-320 320c-25 25-25 65.6 0 90.6s65.6 25 90.6 0l274.8-274.8 274.8 274.6c25 25 65.6 25 90.6 0s25-65.6 0-90.6l-320-320zM813.2 722.8l-320-320c-25-25-65.6-25-90.6 0l-320 320c-25 25-25 65.6 0 90.6s65.6 25 90.6 0l274.8-274.8 274.8 274.6c25 25 65.6 25 90.6 0s25-65.6 0-90.6z" />
<glyph unicode="&#xe91a;" glyph-name="dobble-angles-left" d="M82.8 493.2c-25-25-25-65.6 0-90.6l320-320c25-25 65.6-25 90.6 0s25 65.6 0 90.6l-274.8 274.8 274.6 274.8c25 25 25 65.6 0 90.6s-65.6 25-90.6 0l-320-320zM786.8 813.2l-320-320c-25-25-25-65.6 0-90.6l320-320c25-25 65.6-25 90.6 0s25 65.6 0 90.6l-274.8 274.8 274.6 274.8c25 25 25 65.6 0 90.6s-65.6 25-90.6 0z" />
<glyph unicode="&#xe91b;" glyph-name="dobble-angles-right" d="M941.2 402.8c25 25 25 65.6 0 90.6l-320 320c-25 25-65.6 25-90.6 0s-25-65.6 0-90.6l274.8-274.8-274.6-274.8c-25-25-25-65.6 0-90.6s65.6-25 90.6 0l320 320zM237.2 82.8l320 320c25 25 25 65.6 0 90.6l-320 320c-25 25-65.6 25-90.6 0s-25-65.6 0-90.6l274.8-274.8-274.6-274.8c-25-25-25-65.6 0-90.6s65.6-25 90.6 0z" />
<glyph unicode="&#xe91c;" glyph-name="dobble-angles-up" horiz-adv-x="896" d="M493.2 877.2c-25 25-65.6 25-90.6 0l-320-320c-25-25-25-65.6 0-90.6s65.6-25 90.6 0l274.8 274.8 274.8-274.6c25-25 65.6-25 90.6 0s25 65.6 0 90.6l-320 320zM813.2 173.2l-320 320c-25 25-65.6 25-90.6 0l-320-320c-25-25-25-65.6 0-90.6s65.6-25 90.6 0l274.8 274.8 274.8-274.6c25-25 65.6-25 90.6 0s25 65.6 0 90.6z" />
<glyph unicode="&#xe91d;" glyph-name="envelope" d="M128 736c-17.6 0-32-14.4-32-32v-44.2l345-283.2c41.4-34 100.8-34 142.2 0l344.8 283.2v44.2c0 17.6-14.4 32-32 32h-768zM96 535.6v-343.6c0-17.6 14.4-32 32-32h768c17.6 0 32 14.4 32 32v343.6l-284-233.2c-76.8-63-187.4-63-264 0l-284 233.2zM0 704c0 70.6 57.4 128 128 128h768c70.6 0 128-57.4 128-128v-512c0-70.6-57.4-128-128-128h-768c-70.6 0-128 57.4-128 128v512z" />
<glyph unicode="&#xe91e;" glyph-name="eye" horiz-adv-x="1152" d="M576 800c-130.4 0-237.6-59.2-319.8-135.4-77-71.6-130.2-156.6-157.4-216.6 27.2-60 80.4-145 157.2-216.6 82.4-76.2 189.6-135.4 320-135.4s237.6 59.2 319.8 135.4c77 71.6 130.2 156.6 157.4 216.6-27.2 60-80.4 145-157.2 216.6-82.4 76.2-189.6 135.4-320 135.4zM190.8 734.8c94.2 87.6 223.6 161.2 385.2 161.2s291-73.6 385.2-161.2c93.6-87 156.2-190.8 186-262.2 6.6-15.8 6.6-33.4 0-49.2-29.8-71.4-92.4-175.4-186-262.2-94.2-87.6-223.6-161.2-385.2-161.2s-291 73.6-385.2 161.2c-93.6 86.8-156.2 190.8-185.8 262.2-6.6 15.8-6.6 33.4 0 49.2 29.6 71.4 92.2 175.4 185.8 262.2zM576 288c88.4 0 160 71.6 160 160s-71.6 160-160 160c-1.4 0-2.6 0-4 0 2.6-10.2 4-21 4-32 0-70.6-57.4-128-128-128-11 0-21.8 1.4-32 4 0-1.4 0-2.6 0-4 0-88.4 71.6-160 160-160zM576 704c141.385 0 256-114.615 256-256s-114.615-256-256-256v0c-141.385 0-256 114.615-256 256s114.615 256 256 256v0z" />
<glyph unicode="&#xe91f;" glyph-name="face-grin" d="M928 448c0 229.75-186.25 416-416 416s-416-186.25-416-416v0c0-229.75 186.25-416 416-416s416 186.25 416 416v0zM0 448c0 282.77 229.23 512 512 512s512-229.23 512-512v0c0-282.77-229.23-512-512-512s-512 229.23-512 512v0zM699 343.2c37.4 8.8 71.8-24 51-56.2-49.2-76.2-137.4-127-238.2-127s-189 50.8-238.2 127c-20.8 32.2 13.6 65 51 56.2 57.8-13.6 121-21 187.2-21s129.4 7.4 187.2 21zM288.8 544c0 35.346 28.654 64 64 64s64-28.654 64-64v0c0-35.346-28.654-64-64-64s-64 28.654-64 64v0zM672.8 608c35.346 0 64-28.654 64-64s-28.654-64-64-64v0c-35.346 0-64 28.654-64 64s28.654 64 64 64v0z" />
<glyph unicode="&#xe920;" glyph-name="facebook" d="M1008 448c0 274-222 496-496 496s-496-222-496-496c0-247.56 181.38-452.76 418.5-490v346.62h-126v143.38h126v109.28c0 124.3 74 192.96 187.34 192.96 54.28 0 111.040-9.68 111.040-9.68v-122h-62.56c-61.6 0-80.82-38.24-80.82-77.46v-93.1h137.56l-22-143.38h-115.56v-346.62c237.12 37.24 418.5 242.44 418.5 490z" />
<glyph unicode="&#xe921;" glyph-name="flower-bee" d="M554.696 660.088c36.593 0 65.26 21.501 65.26 48.943s-28.667 48.944-65.26 48.944c-36.593 0-65.257-21.503-65.257-48.944s28.664-48.943 65.257-48.943zM554.696 725.346c19.919 0 32.63-9.658 32.63-16.314s-12.71-16.316-32.63-16.316c-19.919 0-32.63 9.659-32.63 16.316s12.71 16.314 32.63 16.314zM1024 496.942h-48.225c-77.724 0-153.603-24.781-216.251-70.185l-34.668 121.347-23.020-28.746c-35.86-44.815-61.604-97.103-75.407-152.655l-28.762 28.746-16.379-40.965c-17.654-44.114-26.593-90.578-26.593-138.102 0-20.426 1.697-40.983 5.056-61.133l7.342-44.032c-16.315-25.743-31.291-52.452-44.882-80.023 0.768 156.685 16.364 313.892 46.4 467.707 20.49 5.35 36.544 22.042 40.166 43.82l6.152 36.954c17.946 11.745 30.963 28.47 35.694 47.77 54.492-0.246 99.845 36.070 99.845 81.588s-45.484 82.862-99.845 81.556c-9.085 37.197-48.65 65.275-95.928 65.275-47.281 0-86.843-28.077-95.931-65.275-54.799 1.175-99.845-36.039-99.845-81.556s44.931-81.703 99.845-81.558c4.716-19.3 17.751-36.022 35.681-47.767l6.167-36.938c3.328-19.968 17.032-35.809 35.059-42.432-16.102-83.32-27.996-167.585-35.679-252.239-26.007 80.3-74.281 152.312-141.089 207.667v90.122c0 37.67-21.422 70.38-52.695 86.743 12.936 29.074 20.083 60.675 20.083 92.716v3.002c18.939 6.754 32.627 24.7 32.627 45.942v16.315c17.997 0 32.63 14.634 32.63 32.629v32.629c0 18.354-7.667 34.897-19.919 46.758l17.178 25.761-27.146 18.093-18.565-27.816c-5.384 1.436-10.964 2.463-16.804 2.463v32.629h-32.63v-41.7c-11.046-6.444-19.953-15.923-25.664-27.425-34.472 43.168-86.434 69.125-143.355 69.125-23.265 0-43.446-16.543-47.997-39.351l-5.27-26.315c-3.654 0.114-7.292 0.408-10.963 0.408-33.315 0-60.413-27.099-60.413-60.413 0-4.421 0.489-8.842 1.436-13.101l22.384-100.677c4.454-20.101 17.342-36.513 34.734-45.844-16.559-31.731-25.924-67.853-25.924-106.255v-16.315c0-26.985 21.959-48.945 48.944-48.945h16.315c23.216 0 45.909 3.474 67.754 10.263 9.838-43.169 48.454-75.52 94.575-75.52h76.613c97.057-79.795 152.607-197.228 152.607-323.128v-59.84c-10.57 10.798-21.453 21.256-32.627 31.421v83.922c0 71.375-31.962 137.874-87.693 182.461l-20.931 16.74-17.423-87.137c-69.404 31.357-150.992 32.955-221.308 4.797l-49.091-19.61 6.069-15.158c20.165-50.427 59.108-90.414 108.345-111.982l-56.073-34.588 37.605-9.364c41.651-10.376 84.428-16.184 127.369-17.277l-32.728-65.436h42.712c51.587 0 102.651 15.841 145.459 44.539 17.505-16.169 34.442-32.94 50.314-50.772v-26.396h-130.516v-32.63h293.663v32.63h-121.119l13.54 28.762c14.016 29.791 29.824 58.504 47.135 86.157l58.568-10.898c21.878-4.078 44.278-6.134 66.58-6.134 56.236 0 112.571 13.297 162.885 38.454l53.609 26.806-87.821 43.901c49.318 16.837 93.089 47.411 126.077 88.653l15.892 19.84-67.558 33.787 103.629 172.739zM104.234 679.616l84.901-84.9c-8.745-9.398-15.401-20.214-19.79-31.962l-84.624 84.623c5.481 11.42 12.007 22.188 19.512 32.238zM219.284 610.719l-93.336 93.32c8.891 8.467 18.582 16.086 28.975 22.775l91.639-91.64-16.722-25.091c-3.459 0.407-7.032 0.456-10.556 0.635zM293.663 726.994v-1.648c0-26.072-5.45-51.831-15.434-75.7l-93.058 93.059c18.843 7.864 39.22 12.823 60.641 14.455 11.748-15.107 28.421-26.201 47.851-30.166zM269.402 610.606c28.093-3.622 50.657-25.157 55.78-52.762-16.215 19.576-37.409 34.898-61.637 43.983l5.857 8.778zM326.292 774.29c0-8.989-7.327-16.314-16.315-16.314-26.985 0-48.945 21.959-48.945 48.944 0 6.689 4.063 12.415 9.823 14.928 11.5-18.664 31.959-31.242 55.437-31.242v-16.315zM326.292 888.492c17.994 0 32.627-14.634 32.627-32.629l0.018-32.629h-32.645c-17.997 0-32.63 14.634-32.63 32.629s14.633 32.629 32.63 32.629zM108.639 908.004c1.517 7.603 8.255 13.117 16.005 13.117 53.12 0 101.036-27.359 128.559-71.898-5.221-2.986-9.789-6.868-13.574-11.485-41.504 25.483-87.479 41.667-135.492 47.785l4.503 22.481zM55.665 721.365l-22.367 100.694c-0.44 1.958-0.669 3.981-0.669 6.020 0 15.32 12.464 27.784 27.784 27.784 59.988 0 117.824-17.277 168.056-49.661 0.049-6.069 0.865-11.926 2.186-17.603-12.301-1.615-24.178-4.405-35.761-7.864-37.507 27.359-83.123 42.5-129.636 42.5v-32.629c32.482 0 64.475-8.663 92.569-24.602-32.662-16.461-60.641-40.428-81.85-69.761-10.148 4.698-17.783 13.77-20.312 25.125zM81.573 529.572c-8.989 0-16.315 7.324-16.315 16.315v16.315c0 17.879 2.545 35.108 6.966 51.535l77.135-77.133c-16.674-4.536-33.885-7.032-51.472-7.032h-16.315zM260.216 464.312c-35.532 0-64.442 28.91-64.442 64.443 0 17.213 6.705 33.395 18.876 45.568l4.014 4.012c59.923-3.425 107.628-53.251 107.628-114.022h-66.076zM303.859 40.364l32.515 65.029h-37.734c-31.88 0-63.726 2.742-95.099 8.189l46.839 28.895-47.655 15.872c-43.217 14.408-78.636 44.979-99.225 85.082l18.077 7.227c65.144 26.071 141.367 23.199 204.486-8.387l28.355-14.177 14.83 74.135c35.192-37.1 54.932-86.126 54.932-138.153v-55.941c-66.629 54.131-141.955 97.38-222.825 126.797l-11.159-30.671c81.605-29.678 157.353-74.020 223.608-129.833-33.037-20.375-71.132-32.287-109.944-34.063zM470.643 661.215c-4.521-0.753-9.17-1.126-13.834-1.126-35.991 0-65.26 21.96-65.26 48.943 0 26.984 29.268 48.944 65.26 48.944 4.664 0 9.313-0.375 13.834-1.126l19.315-3.181-0.343 19.561-0.146 2.202c0.799 26.462 29.757 47.802 65.226 47.802 35.517 0 64.492-21.389 65.242-47.883l-0.489-21.682 19.315 3.181c4.503 0.751 9.152 1.126 13.819 1.126 35.991 0 65.26-21.959 65.26-48.944 0-26.983-29.268-48.943-65.26-48.943-4.667 0-9.316 0.374-13.834 1.126l-19.318 3.18 0.343-19.561 0.148-2.202c-0.801-26.463-29.76-47.803-65.226-47.803-35.517 0-64.492 21.389-65.242 47.885l0.489 21.681-19.3-3.18zM529.964 565.153c7.944-1.746 16.133-2.952 24.732-2.952 8.596 0 16.788 1.206 24.732 2.952l-2.839-17.032c-1.795-10.752-10.995-18.55-21.893-18.55s-20.101 7.798-21.896 18.55l-2.836 17.032zM936.783 279.501c-36.677-40.443-85.88-67.41-140.063-76.449l-49.48-8.238 113.516-56.76c-62.892-30.149-135.639-39.805-204.111-27.064l-45.11 8.387c64.346 93.563 147.5 172.948 245.356 233.167l-17.098 27.784c-97.234-59.827-180.636-137.81-246.236-229.53l-1.649 9.838c-3.034 18.353-4.582 37.13-4.582 55.762 0 41.554 7.503 82.225 22.3 120.973l37.524-37.524 5.204 31.276c8.727 52.37 28.91 102.374 58.813 146.081l30.492-106.714 19.251 16.036c57.769 48.146 130.371 75.52 205.384 77.658l-92.047-153.405 62.536-31.276z" />
<glyph unicode="&#xe922;" glyph-name="forest-honey" horiz-adv-x="1084" d="M927.206 540.764c0-32.547 26.482-59.031 59.031-59.031 32.547 0 59.031 26.484 59.031 59.031s-26.484 59.031-59.031 59.031c-32.548 0-59.031-26.484-59.031-59.031zM986.237 566.063c13.952 0 25.299-11.347 25.299-25.299s-11.347-25.299-25.299-25.299c-13.954 0-25.299 11.347-25.299 25.299s11.345 25.299 25.299 25.299zM303.16 734.72c-9.323 0-16.866-7.55-16.866-16.866v-168.659c0-9.314 7.543-16.866 16.866-16.866s16.866 7.552 16.866 16.866v168.659c0 9.315-7.543 16.866-16.866 16.866zM353.748 380.539c9.323 0 16.866 7.552 16.866 16.866v202.391c0 9.314-7.543 16.866-16.866 16.866s-16.866-7.552-16.866-16.866v-202.391c0-9.314 7.543-16.866 16.866-16.866zM370.614 346.806c0 9.315-7.543 16.866-16.866 16.866s-16.866-7.55-16.866-16.866v-50.598c0-9.314 7.543-16.866 16.866-16.866s16.866 7.552 16.866 16.866v50.598zM387.483 178.147c-9.323 0-16.866-7.552-16.866-16.866v-50.598c0-9.314 7.543-16.866 16.866-16.866s16.866 7.552 16.866 16.866v50.598c0 9.314-7.543 16.866-16.866 16.866zM775.4 313.074c0 83.697-68.088 151.793-151.793 151.793h-48.452l293.070 170.957c5.186 3.024 8.365 8.571 8.365 14.568v67.464c0 5.641-2.818 10.904-7.51 14.032-4.692 3.138-10.626 3.724-15.845 1.531l-100.951-42.064c19.555 33.256 26.589 73.894 16.39 114.152l-24.856 98.101c-1.105 4.339-3.888 8.062-7.725 10.343-3.854 2.29-8.433 2.973-12.78 1.859-81.116-20.555-130.415-103.287-109.86-184.42l22.432-88.534-164.070-68.361v312.019c0 44.29-67.878 67.463-134.927 67.463-67.051 0-134.927-23.174-134.927-67.463v-526.881c-16.77 24.505-40.382 43.531-68.552 54.838l-93.901 37.716c-4.166 1.67-8.796 1.616-12.911-0.13-4.119-1.763-7.362-5.081-9.027-9.231-15.12-37.627-14.673-78.886 1.252-116.167 15.909-37.299 45.411-66.153 83.027-81.256l93.9-37.716c1.998-0.806 4.094-1.194 6.212-1.202v-196.998c0-44.29 67.876-67.464 134.927-67.464 67.049 0 134.927 23.174 134.927 67.464v395.095l35.611 20.775c10.988-72.966 73.928-129.15 149.914-129.15h101.195c9.321 0 16.866 7.552 16.866 16.866zM715.564 877.812l20.408-80.581c14.594-57.546-16.011-116.143-69.391-138.132l-20.408 80.581c-14.594 57.546 16.011 116.142 69.391 138.131zM191.566 245.716l-77.132 30.991c-29.267 11.743-52.213 34.191-64.596 63.196-10.145 23.769-12.207 49.604-6.143 74.257l77.132-30.991c29.267-11.743 52.212-34.191 64.596-63.196 10.145-23.764 12.207-49.599 6.144-74.257zM336.887 920.246c62.77 0 101.195-21.841 101.195-33.732s-38.426-33.732-101.195-33.732c-62.771 0-101.195 21.841-101.195 33.732s38.424 33.732 101.195 33.732zM454.948 498.599c-9.323 0-16.866-7.552-16.866-16.866v-472.245c0-11.89-38.426-33.732-101.195-33.732-19.459 0-36.238 2.239-50.598 5.49v196.9c0 9.314-7.544 16.866-16.866 16.866s-16.866-7.552-16.866-16.866v-185.213c-10.857 5.781-16.866 11.916-16.866 16.554v830.94c25.998-14.125 63.714-21.378 101.195-21.378 11.338 0 22.676 0.717 33.732 2.032v-103.228c0-9.314 7.543-16.866 16.866-16.866 9.321 0 16.866 7.552 16.866 16.866v109.624c12.463 3.344 23.95 7.636 33.732 12.949v-291.232c0-5.641 2.816-10.904 7.508-14.032 4.694-3.129 10.626-3.715 15.846-1.531l381.426 158.923v-32.479l-371.049-216.445v38.1c0 9.314-7.544 16.866-16.866 16.866zM657.339 329.94c-59.377 0-108.658 44.058-116.859 101.195h83.128c59.375 0 108.658-44.058 116.859-101.195h-83.128zM1071.194 103.329c-8.615 22.731-25.317 47.194-47.006 68.888-14.125 14.125-28.841 25.565-43.287 34.247 3.53 9.836 5.322 20.125 5.322 30.712 0 37.215-22.082 69.293-53.781 84.055l38.597 28.946c7.463 5.582 8.977 16.158 3.378 23.612-5.582 7.456-16.158 8.986-23.603 3.369l-57.353-43.003-57.353 43.003c-7.445 5.591-18.004 4.069-23.603-3.369-5.599-7.454-4.085-18.025 3.378-23.612l38.597-28.946c-31.699-14.765-53.781-46.84-53.781-84.055 0-10.862 1.906-21.378 5.603-31.408-14.074-8.597-28.389-19.801-42.135-33.551-21.694-21.694-38.391-46.157-47.006-68.888-10.291-27.128-8.251-49.766 5.731-63.749 8.087-8.088 19.155-11.958 32.066-11.958 15.904 0 34.617 6.060 53.936 17.11 21.281-57.040 71.806-97.274 74.151-99.12 3.066-2.394 6.737-3.593 10.41-3.593s7.346 1.194 10.41 3.593c2.349 1.846 53.275 42.388 74.409 99.795 19.742-11.493 38.888-17.789 55.118-17.789 12.898 0 23.983 3.872 32.066 11.958 13.985 13.987 16.030 36.625 5.734 63.753zM834.43 237.176c0 32.547 26.484 59.031 59.031 59.031s59.031-26.484 59.031-59.031c0-5.587-1.071-10.975-2.635-16.245-22.549 7.201-42.427 5.819-55.678-5.245-13.505 11.261-33.896 12.439-56.974 4.781-1.652 5.405-2.774 10.942-2.774 16.709zM746.74 63.429c-3.128 3.12-3.723 12.969 1.944 27.934 6.868 18.101 21.213 38.879 39.332 57.007 31.113 31.104 61.551 43.695 76.604 43.695 3.888 0 6.755-0.839 8.337-2.42 7.691-7.7-2.126-45.786-41.276-84.941-39.15-39.133-77.262-48.949-84.941-41.275zM893.445-18.67c-15.711 14.741-44.556 45.997-55.62 83.582 5.957 4.921 11.89 10.129 17.705 15.943 16.664 16.664 29.634 34.153 38.648 51.040 9.014-16.887 21.984-34.376 38.648-51.040 5.451-5.451 11.005-10.373 16.583-15.036-10.836-37.843-40.132-69.579-55.965-84.489zM1041.616 63.429c-7.725-7.683-45.804 2.141-84.941 41.275-39.15 39.15-48.967 77.237-41.276 84.941 1.581 1.572 4.448 2.42 8.337 2.42 15.053 0 45.491-12.598 76.604-43.695 18.119-18.128 32.464-38.906 39.332-57.007 5.667-14.965 5.072-24.814 1.944-27.934zM893.469 888.572c9.323 0 16.866 7.552 16.866 16.866v23.865c0 9.314-7.543 16.866-16.866 16.866s-16.866-7.552-16.866-16.866v-23.865c0-9.314 7.543-16.866 16.866-16.866zM893.469 793.127c9.323 0 16.866 7.552 16.866 16.866v23.865c0 9.314-7.543 16.866-16.866 16.866s-16.866-7.552-16.866-16.866v-23.865c0-9.314 7.543-16.866 16.866-16.866zM833.807 852.783h23.865c9.323 0 16.866 7.552 16.866 16.866s-7.543 16.866-16.866 16.866h-23.865c-9.323 0-16.866-7.552-16.866-16.866s7.543-16.866 16.866-16.866zM929.263 852.783h23.865c9.321 0 16.866 7.552 16.866 16.866s-7.544 16.866-16.866 16.866h-23.865c-9.323 0-16.866-7.552-16.866-16.866s7.543-16.866 16.866-16.866z" />
<glyph unicode="&#xe923;" glyph-name="heart" d="M451.6 23.6l-5 4.6-350.4 325.4c-61.4 57-96.2 137-96.2 220.8v6.6c0 140.8 100 261.6 238.4 288 78.8 15.2 159.4-3 223.6-48.2 18-12.8 34.8-27.6 50-44.6 8.4 9.6 17.4 18.4 27 26.6 7.4 6.4 15 12.4 23 18 0 0 0 0 0 0 64.2 45.2 144.8 63.4 223.6 48.4 138.4-26.4 238.4-147.4 238.4-288.2v-6.6c0-83.8-34.8-163.8-96.2-220.8l-355.4-330c-16.4-15.2-38-23.8-60.4-23.8s-44 8.4-60.4 23.8zM478.2 670c-0.8 0.6-1.4 1.4-2 2.2l-35.6 40c0 0-0.2 0.2-0.2 0.2s0 0 0 0c-46.2 51.8-116 75.4-184 62.4-93.2-17.8-160.4-99-160.4-193.8v-6.6c0-57 23.8-111.6 65.6-150.4l350.4-325.4 350.4 325.4c41.8 38.8 65.6 93.4 65.6 150.4v6.6c0 94.6-67.2 176-160.2 193.8-68 13-138-10.8-184-62.4 0 0 0 0-0.2-0.2s0 0-0.2-0.2l-35.6-40c-0.6-0.8-1.4-1.4-2-2.2-9-9-21.2-14-33.8-14s-24.8 5-33.8 14z" />
<glyph unicode="&#xe924;" glyph-name="hone-shop-bag" horiz-adv-x="755" d="M0 5.894c0-14.070 5.678-27.564 15.785-37.513 10.107-9.951 23.816-15.54 38.109-15.54h646.737c14.293 0 28.002 5.589 38.109 15.54 10.107 9.949 15.786 23.442 15.786 37.513v495.158c0.018 3.052-0.767 6.058-2.278 8.722-1.511 2.666-3.697 4.899-6.345 6.487l-9.342 5.481v85.416c0.259 1.877 0.259 3.782 0 5.659-1.25 3.659-3.683 6.816-6.927 8.988s-7.119 3.239-11.038 3.038h-89.825v159.157c0 3.826-1.261 7.55-3.593 10.611l-32.337 42.442h17.965c4.764 0 9.335 1.863 12.703 5.18s5.262 7.814 5.262 12.504v70.737c0 4.69-1.894 9.188-5.262 12.505s-7.939 5.18-12.703 5.18h-287.439c-4.764 0-9.335-1.863-12.703-5.18s-5.262-7.814-5.262-12.505v-70.737c0-4.69 1.894-9.188 5.262-12.504s7.939-5.18 12.703-5.18h17.965l-32.337-42.442c-2.332-3.061-3.593-6.784-3.593-10.611v-17.683h-179.649c-4.765 0-9.334-1.865-12.703-5.181s-5.262-7.815-5.262-12.504v-70.737c0-4.691 1.893-9.189 5.262-12.505s7.939-5.179 12.703-5.179v-35.368h-89.825c-3.766 0.009-7.44-1.148-10.503-3.306s-5.359-5.208-6.564-8.72c-0.56-1.838-0.862-3.742-0.898-5.659v0-85.416l-9.162-5.481c-2.682-1.565-4.904-3.791-6.447-6.457-1.543-2.668-2.355-5.682-2.356-8.753v-495.158zM700.632-11.79h-646.737c-4.765 0-9.334 1.865-12.703 5.181s-5.262 7.815-5.262 12.504v477.475h682.667v-477.475c0-4.689-1.894-9.187-5.262-12.504s-7.939-5.181-12.703-5.181zM161.684 554.104h215.579v-35.368h-215.579v35.368zM431.158 677.895v17.683h161.684v-176.841h-179.649v141.474c4.764 0 9.335 1.863 12.703 5.179s5.262 7.815 5.262 12.505zM700.632 571.789v-28.825l-21.738 12.732 21.738 16.093zM664.702 589.474l-28.744-21.222c-2.357-1.734-4.245-4.012-5.497-6.633-1.254-2.621-1.832-5.504-1.689-8.399 0.151-2.918 1.035-5.752 2.571-8.251 1.536-2.501 3.677-4.586 6.232-6.072l34.133-20.16h-42.936v70.737h35.93zM413.193 872.421v35.368h35.93v-35.368h-35.93zM485.053 907.789h35.93v-35.368h-35.93v35.368zM592.842 872.421h-35.93v35.368h35.93v-35.368zM341.333 907.789h35.93v-35.368h-35.93v35.368zM341.333 778.165l44.912 58.888h161.684l44.912-58.888v-47.217h-161.684v17.685c0 4.689-1.894 9.187-5.262 12.504s-7.939 5.181-12.703 5.181h-71.86v11.848zM143.719 730.947h251.509v-35.369h-251.509v35.369zM377.263 660.211v-70.737h-215.579v70.737h215.579zM118.568 568.252l-28.744 21.222h35.93v-70.737h-42.936l34.133 20.16c2.555 1.486 4.696 3.571 6.232 6.072 1.536 2.499 2.419 5.334 2.57 8.251 0.144 2.894-0.435 5.778-1.688 8.399s-3.141 4.899-5.498 6.633zM53.895 571.789l21.738-16.093-21.738-12.732v28.825zM574.877 448c-12.638-0.097-24.842-4.563-34.475-12.619-9.633-8.054-16.084-19.187-18.224-31.448-2.14-12.263 0.165-24.876 6.514-35.633 6.349-10.759 16.337-18.978 28.219-23.223v-109.288c0-46.901-18.928-91.882-52.617-125.047-33.691-33.163-79.385-51.795-127.032-51.795s-93.34 18.631-127.032 51.795c-33.69 33.165-52.617 78.146-52.617 125.047v109.288c11.986 4.173 22.090 12.381 28.521 23.175 6.433 10.795 8.783 23.482 6.633 35.817s-8.661 23.523-18.38 31.59c-9.721 8.066-22.025 12.491-34.739 12.491s-25.018-4.425-34.738-12.491c-9.72-8.066-16.231-19.255-18.38-31.59s0.199-25.022 6.632-35.817c6.433-10.793 16.535-19.001 28.522-23.175v-109.288c0-56.282 22.713-110.258 63.141-150.056 40.43-39.798 95.263-62.155 152.438-62.155s112.009 22.357 152.438 62.155c40.428 39.798 63.141 93.773 63.141 150.056v109.288c11.882 4.245 21.87 12.464 28.219 23.223 6.349 10.757 8.654 23.371 6.514 35.633-2.14 12.261-8.591 23.394-18.224 31.448s-21.836 12.522-34.475 12.619v0zM179.649 412.632c3.553 0 7.026-1.038 9.981-2.98 2.953-1.944 5.257-4.705 6.616-7.937s1.716-6.787 1.022-10.218c-0.693-3.43-2.404-6.581-4.917-9.054-2.511-2.472-5.713-4.157-9.198-4.84s-7.097-0.332-10.38 1.006c-3.283 1.338-6.088 3.606-8.062 6.514s-3.027 6.327-3.027 9.825c0 4.691 1.893 9.187 5.262 12.504s7.939 5.181 12.703 5.181zM574.877 377.263c-3.553 0-7.026 1.037-9.981 2.98-2.953 1.944-5.257 4.705-6.616 7.937-1.36 3.23-1.716 6.787-1.022 10.217 0.693 3.431 2.404 6.582 4.917 9.054 2.511 2.474 5.713 4.159 9.198 4.84 3.485 0.683 7.098 0.332 10.38-1.006s6.088-3.606 8.063-6.512c1.974-2.909 3.027-6.327 3.027-9.825 0-4.691-1.894-9.189-5.262-12.505s-7.939-5.179-12.703-5.179zM215.579 328.102v-78.517c-0.027-3.431 0.961-6.798 2.842-9.687 1.883-2.889 4.577-5.176 7.757-6.582l61.26-26.703v-63.132c-0.027-3.433 0.961-6.798 2.842-9.687 1.883-2.889 4.577-5.176 7.757-6.584l71.86-31.3c2.316-1.026 4.827-1.554 7.366-1.554 2.54 0 5.050 0.528 7.366 1.554l71.86 31.3c3.18 1.408 5.876 3.695 7.757 6.584 1.883 2.889 2.871 6.254 2.842 9.687v63.132l61.26 26.703c3.18 1.407 5.876 3.694 7.757 6.582 1.883 2.889 2.871 6.255 2.842 9.687v78.517c0.029 3.433-0.959 6.798-2.842 9.687-1.881 2.889-4.577 5.176-7.757 6.584l-71.86 31.3c-2.316 1.026-4.825 1.554-7.366 1.554-2.538 0-5.050-0.528-7.366-1.554l-64.494-28.117-64.494 28.117c-2.316 1.026-4.825 1.554-7.366 1.554-2.538 0-5.050-0.528-7.366-1.554l-71.86-31.3c-3.18-1.408-5.875-3.695-7.757-6.584-1.881-2.889-2.869-6.254-2.842-9.687v0zM377.263 131.277l-53.895 23.698v51.638l53.895 23.52 53.895-23.52v-51.638l-53.895-23.698zM449.123 340.306l53.895-23.698v-55.528l-53.895-23.698-53.895 23.698v55.528l53.895 23.698zM251.509 316.608l53.895 23.698 53.895-23.698v-55.528l-53.895-23.698-53.895 23.698v55.528z" />
<glyph unicode="&#xe925;" glyph-name="hone-stock-open" d="M850.112 827.104h-279.040c-4.147 19.772-21.422 34.412-42.124 34.448h-14.9c-4.188-0.065-8.198-0.727-11.98-1.905l0.3 0.081c-3.342 20.637-21.003 36.212-42.314 36.272h-14.886c-10.304-0.043-19.737-3.741-27.076-9.863l0.068 0.055c-7.271 6.067-16.704 9.765-26.999 9.808h-14.905c-21.317-0.060-38.978-15.635-42.287-36.025l-0.033-0.247c-5.951 1.312-12.786 2.064-19.797 2.064-2.386 0-4.751-0.087-7.093-0.258l0.313 0.018c-23.742-0.027-42.981-19.266-43.008-43.005v-71.747c0.027-23.742 19.266-42.981 43.005-43.008h0.003c1.956-0.137 4.238-0.215 6.538-0.215 7.088 0 14.003 0.743 20.67 2.154l-0.649-0.115c3.343-20.642 21.013-36.221 42.331-36.272h0.005c2.632-0.425 5.665-0.668 8.756-0.668 12.416 0 23.916 3.923 33.327 10.597l-0.179-0.121c9.219-6.556 20.706-10.482 33.11-10.482 3.098 0 6.14 0.245 9.105 0.716l-0.327-0.043c21.317 0.060 38.978 15.635 42.287 36.025l0.033 0.247c5.946-1.312 12.776-2.064 19.782-2.064 2.385 0 4.75 0.087 7.092 0.258l-0.313-0.018c20.712 0.028 37.996 14.67 42.095 34.167l0.049 0.281h279.040c8.837 0 16 7.163 16 16v0 56.864c0 8.837-7.163 16-16 16v0zM322.24 735.792c-9.28 0.288-25.568-2.96-25.904 11.008v71.744c0.32 13.936 16.64 10.736 25.904 11.008 6.073-0.009 10.992-4.934 10.992-11.008 0 0 0 0 0 0v0-71.744c-0.009-6.070-4.923-10.99-10.99-11.008h-0.002zM391.136 701.344c-9.28 0.304-25.568-2.992-25.904 11.008v140.64c0.009 6.082 4.941 11.008 11.024 11.008 0 0 0 0 0 0v0c9.264-0.304 25.568 2.992 25.904-11.008v-140.64c-0.009-6.076-4.932-10.999-11.007-11.008h-0.001zM471.024 712.352c-0.288-13.92-16.64-10.752-25.888-11.008-6.067 0.009-10.983 4.925-10.992 10.991v140.657c0.304 13.92 16.64 10.752 25.888 11.008 6.073-0.009 10.992-4.934 10.992-11.008 0 0 0 0 0 0v0-140.64zM539.92 746.8c-0.32-13.936-16.64-10.736-25.888-11.008-6.080 0-11.008 4.928-11.008 11.008v71.744c0.009 6.076 4.932 10.999 11.007 11.008h0.001c9.28-0.288 25.552 2.96 25.888-11.008v-71.744zM834.096 770.24h-262.16v24.864h262.176zM685.52 505.008c17.604 7.583 29.709 24.775 29.728 44.798v32.658c-0.027 26.976-21.888 48.837-48.861 48.864h-409.075c-26.898-0.082-48.672-21.906-48.672-48.816 0-0.017 0-0.034 0-0.051v0.003-32.672c0-0.077-0.001-0.168-0.001-0.259 0-19.961 12.091-37.098 29.349-44.486l0.315-0.12c-4.746-22.115-14.975-41.341-29.2-56.841l0.080 0.089c-98.816-115.664-52.016-255.312 103.584-414.88 20.703-20.575 49.234-33.293 80.735-33.296h146.081c0.028 0 0.061 0 0.094 0 33.060 0 62.837 14.057 83.679 36.519l0.067 0.073c72.912 79.328 228.32 277.888 97.312 407.936-16.662 16.072-28.957 36.564-35.001 59.589l-0.199 0.891zM683.248 582.464v-32.672c-0.159-9.246-7.617-16.698-16.85-16.848h-132.814v66.384h132.8c9.31-0.009 16.855-7.554 16.864-16.863v-0.001zM334.56 599.328h167.040v-138.128c-0.027-9.871-8.031-17.863-17.903-17.872h-0.001c-12.944-1.344-25.28 3.168-25.84 17.872-0.475 24.367-20.34 43.938-44.776 43.938s-44.301-19.571-44.775-43.893l-0.001-0.044v-31.84c0-9.318-7.554-16.872-16.872-16.872s-16.872 7.554-16.872 16.872v0zM240.656 582.464c0 0.019 0 0.042 0 0.064 0 9.233 7.449 16.727 16.665 16.799h45.239v-66.4h-45.232c-9.224 0.126-16.655 7.624-16.672 16.862v0.002zM232.512 426.256c18.637 20.194 31.959 45.562 37.581 73.709l0.163 0.979h32.32v-71.584c0.698-26.452 22.308-47.629 48.864-47.629s48.166 21.177 48.863 47.565l0.001 0.065v31.84c0.251 6.863 5.875 12.332 12.776 12.332s12.525-5.469 12.775-12.309l0.001-0.023c-0.006-0.22-0.010-0.478-0.010-0.738 0-1.433 0.108-2.841 0.317-4.216l-0.019 0.154c4.96-60 101.2-60.24 106.944-1.552 0.976 3.44 0.32 41.648 0.512 46.080h119.872c7.331-31.317 23.074-58.228 44.703-79.073l0.049-0.047c21.716-20.93 36.336-49.092 39.974-80.598l0.058-0.618h-546.256c4.497 33.448 19.093 62.866 40.573 85.746l-0.077-0.082zM599.888 58.256c-15.016-16.17-36.392-26.256-60.124-26.256-0.063 0-0.126 0-0.189 0h-146.070c-0.024 0-0.053 0-0.082 0-22.609 0-43.090 9.111-57.972 23.862l0.006-0.006c-107.088 107.616-141.648 191.2-144.72 252.736h547.808c-7.888-95.632-91.968-199.52-138.672-250.336z" />
<glyph unicode="&#xe926;" glyph-name="hone-stock" horiz-adv-x="916" d="M829.995 842.596c0-9.407-7.637-17.065-17.063-17.065h-709.631c-9.428 0-17.064 7.658-17.064 17.065 0 9.428 7.636 17.064 17.064 17.064h39.121v32.081c0 37.649 30.61 68.258 68.258 68.258h494.872c37.645 0 68.258-30.61 68.258-68.258v-32.081h39.122c9.426 0 17.063-7.636 17.063-17.064zM898.382 698.145c-18.497-61.006-81.376-104.457-152.899-105.651-53.776-0.875-103.753 22.013-134.446 60.088-32.272-45.391-90.293-74.401-152.941-74.401s-120.668 29.010-152.941 74.401c-30.695-38.075-80.609-60.984-134.447-60.088-71.522 1.194-134.404 44.645-152.898 105.651-1.728 5.717-0.341 11.924 3.648 16.36l64.069 71.242c3.236 3.599 7.848 5.655 12.687 5.655h719.764c4.84 0 9.453-2.054 12.687-5.655l64.070-71.242c3.988-4.437 5.379-10.644 3.649-16.36zM855.363 590.68c-68.274-43.811-162.789-43.828-231.941 4.356-6.268 4.369-14.654 4.070-20.566-0.77-81.471-66.722-207.459-67.125-289.52 0.015-5.908 4.836-14.294 5.124-20.557 0.757-68.917-48.032-163.474-48.295-231.928-4.356-9.089 5.834-21.247 1.653-25.063-8.451-70.592-186.854 42.559-440.612 151.529-607.519 15.827-24.253 42.555-38.713 71.479-38.713h398.629c28.925 0 55.652 14.46 71.475 38.713 109.034 166.998 222.106 420.713 151.53 607.521-3.821 10.107-15.98 14.281-25.066 8.447zM650.084 348.429c0-18.238-9.814-35.215-25.6-44.328-59.473-34.336-56.347-33.005-63.305-35.193 1.929-7.863 1.45-5.966 1.45-73.653 0-18.216-9.814-35.22-25.598-44.328l-53.327-30.779c-15.785-9.13-35.409-9.13-51.194 0l-53.327 30.779c-15.785 9.108-25.597 26.112-25.597 44.328 0 65.897-0.506 65.692 1.451 73.653-7.53 2.371-6.924 2.641-63.31 35.193-15.783 9.114-25.597 26.090-25.597 44.328v61.58c0 18.216 9.812 35.217 25.597 44.325l53.327 30.802c15.733 9.1 35.447 9.1 51.194 0 58.64-33.893 56.591-32.259 61.859-37.009 5.28 4.761 3.149 3.076 61.859 37.009 15.736 9.095 35.451 9.106 51.194 0l53.323-30.802c15.786-9.108 25.6-26.109 25.6-44.325v-61.58zM528.493 256.835v-61.58c0-6.063-3.263-11.733-8.532-14.762l-53.327-30.801c-5.269-3.029-11.796-3.029-17.065 0l-53.327 30.801c-5.269 3.029-8.532 8.699-8.532 14.762v61.58c0 6.079 3.263 11.733 8.532 14.783l53.327 30.779c5.269 3.050 11.796 3.050 17.065 0l53.327-30.779c5.269-3.050 8.532-8.704 8.532-14.783zM615.968 410.010v-61.58c0-6.079-3.266-11.733-8.532-14.783l-53.329-30.779c-5.271-3.050-11.798-3.050-17.065 0l-53.327 30.779c-5.269 3.050-8.533 8.704-8.533 14.783v61.58c0 6.079 3.264 11.732 8.533 14.782l53.327 30.78c5.267 3.029 11.794 3.029 17.065 0l53.329-30.78c5.266-3.050 8.532-8.703 8.532-14.782zM441.045 410.010v-61.58c0-6.079-3.263-11.733-8.532-14.783l-53.327-30.779c-5.269-3.050-11.796-3.050-17.065 0l-53.327 30.779c-5.269 3.050-8.532 8.704-8.532 14.783v61.58c0 6.079 3.263 11.732 8.532 14.782l53.327 30.78c5.269 3.029 11.796 3.029 17.065 0l53.327-30.78c5.269-3.050 8.532-8.703 8.532-14.782z" />
<glyph unicode="&#xe927;" glyph-name="honey-chuck-bee" d="M997.12 759.492c-26.14 26.284-61.71 41.017-98.779 40.915-13.409 0-26.746-1.924-39.609-5.712 3.786 12.862 5.712 26.201 5.712 39.61 0.102 37.070-14.632 72.639-40.914 98.779l-26.883 26.881-26.88-26.881c-39.489-39.101-51.686-98.067-30.95-149.626h-104.641l33.897 33.898-74.815 74.813-108.709-108.711h-484.507v-101.694h322.032v-67.796h-67.796c-28.082 0-50.847-22.764-50.847-50.847 0.055-5.788 1.11-11.52 3.119-16.95h-37.017c-37.443 0-67.796-30.353-67.796-67.794 0.066-11.938 3.32-23.64 9.424-33.9h-9.424c-37.443-0.014-67.783-30.379-67.769-67.823 0.007-13.514 4.051-26.721 11.616-37.922-35.205-12.043-53.983-50.347-41.938-85.552 6.744-19.712 22.227-35.194 41.938-41.938-20.959-31.027-12.796-73.17 18.231-94.128 11.199-7.563 24.404-11.608 37.921-11.617h9.424c-6.104-10.257-9.358-21.959-9.424-33.897 0-37.441 30.354-67.794 67.796-67.794h37.017c-2.008-5.43-3.063-11.162-3.119-16.95 0-28.083 22.765-50.847 50.847-50.847h254.235c28.083 0 50.847 22.764 50.847 50.847-0.054 5.788-1.109 11.52-3.118 16.95h37.015c37.444 0 67.797 30.353 67.797 67.794-0.065 11.938-3.319 23.64-9.424 33.897h9.424c37.441 0.017 67.783 30.382 67.769 67.826-0.006 13.514-4.050 26.718-11.617 37.919 35.206 12.046 53.982 50.35 41.938 85.552-6.744 19.712-22.226 35.197-41.938 41.938 20.961 31.027 12.797 73.173-18.23 94.131-11.199 7.563-24.405 11.608-37.922 11.614h-9.424c6.104 10.26 9.358 21.962 9.424 33.9 0 37.441-30.353 67.794-67.797 67.794h-37.015c2.008 5.43 3.063 11.162 3.118 16.95 0 28.083-22.764 50.847-50.847 50.847h-84.745v67.796h389.828v11.864c55.541-42.606 134.067-37.42 183.524 12.118l26.88 26.864-26.88 26.881zM101.736 139.395c-18.722 0-33.898 15.175-33.898 33.897s15.176 33.897 33.898 33.897h188.136c-0.137-0.609 0-1.237-0.188-1.846-0.973-4.978-1.476-10.032-1.508-15.101v-50.847h-186.441zM508.513-30.097h-254.235c-9.36 0-16.949 7.589-16.949 16.95s7.589 16.95 16.949 16.95h254.235c9.361 0 16.95-7.589 16.95-16.95s-7.586-16.95-16.95-16.95zM593.257 37.7h-423.725c-18.722 0-33.898 15.175-33.898 33.897s15.176 33.897 33.898 33.897h423.725c18.722 0 33.9-15.175 33.9-33.897s-15.178-33.897-33.9-33.897zM322.074 139.395v50.847c-0.145 27.969 22.414 50.759 50.384 50.901 18.253 0.094 35.14-9.64 44.208-25.478 4.605-7.686 7.057-16.466 7.103-25.424v-50.847h-101.695zM661.055 139.395h-203.389v50.847c-0.054 5.072-0.583 10.126-1.576 15.101-0.119 0.609 0 1.237-0.188 1.846h205.153c18.722 0 33.897-15.175 33.897-33.897s-15.175-33.897-33.897-33.897zM728.852 274.987c0-18.722-15.178-33.897-33.9-33.897h-254.592c-0.134 0.168-0.287 0.321-0.424 0.506-0.592 0.779-1.269 1.476-1.897 2.239-1.695 1.966-3.271 3.897-5.086 5.712-0.879 0.899-1.812 1.695-2.728 2.56-1.695 1.525-3.391 3.032-5.083 4.423-1.052 0.848-2.153 1.695-3.24 2.406-1.692 1.254-3.507 2.441-5.322 3.558-1.186 0.731-2.372 1.408-3.575 2.068-1.863 1.018-3.746 1.951-5.678 2.813-1.254 0.577-2.492 1.138-3.78 1.695-2 0.796-4.050 1.476-6.118 2.102-1.271 0.39-2.509 0.814-3.797 1.152-2.27 0.594-4.591 1.018-6.915 1.408-1.118 0.188-2.219 0.458-3.388 0.609-6.975 0.947-14.043 0.947-21.018 0-1.135-0.151-2.239-0.407-3.391-0.609-2.321-0.39-4.645-0.814-6.915-1.408-1.289-0.338-2.526-0.762-3.797-1.152-2.068-0.643-4.102-1.306-6.118-2.102-1.289-0.506-2.526-1.067-3.78-1.695-1.931-0.879-3.812-1.795-5.678-2.813-1.203-0.66-2.406-1.354-3.575-2.068-1.832-1.118-3.593-2.304-5.322-3.558-1.101-0.779-2.187-1.559-3.237-2.406-1.695-1.391-3.391-2.898-5.086-4.423-0.916-0.848-1.846-1.695-2.728-2.56-1.695-1.815-3.391-3.746-5.086-5.712-0.626-0.762-1.306-1.459-1.897-2.239-0.137-0.168-0.287-0.321-0.424-0.506h-237.439c-18.722 0-33.898 15.175-33.898 33.897s15.176 33.897 33.898 33.897h627.114c18.722 0 33.9-15.175 33.9-33.897zM661.055 410.578c18.722 0 33.897-15.175 33.897-33.897s-15.175-33.897-33.897-33.897h-559.319c-18.722 0-33.898 15.175-33.898 33.897s15.176 33.897 33.898 33.897h559.319zM593.257 512.273c18.722 0 33.9-15.175 33.9-33.897s-15.178-33.9-33.9-33.9h-423.725c-18.722 0-33.898 15.178-33.898 33.9s15.176 33.897 33.898 33.897h423.725zM508.513 580.070c9.361 0 16.95-7.589 16.95-16.95s-7.589-16.95-16.95-16.95h-254.235c-9.36 0-16.949 7.589-16.949 16.95s7.589 16.95 16.949 16.95h254.235zM355.971 613.968v67.796h33.9v-67.796h-33.9zM33.94 715.662v33.898h464.64l94.677 94.677 26.883-26.881-67.797-67.796h205.17c0.373-0.492 0.814-0.881 1.186-1.356 3.422-4.445 7.114-8.68 11.051-12.678l9.933-9.932 0.017-9.932h-745.76zM799.562 759.492l-2.916-2.915-2.916 2.915c-4.986 5.002-9.466 10.487-13.372 16.373-27.816 41.932-22.232 97.658 13.355 133.237l2.933 2.932 2.916-2.915c41.313-41.32 41.313-108.304 0-149.626zM973.156 729.696c-41.321-41.311-108.305-41.311-149.626 0l-2.916 2.915 2.916 2.915c41.318 41.311 108.302 41.311 149.626 0l2.913-2.915-2.913-2.915zM971.338 429.358c14.572 25.31 10.408 57.242-10.169 77.966l-9.034 9.034c25.833 11.005 37.857 40.872 26.852 66.708-7.984 18.739-26.379 30.905-46.751 30.919h-2.916c-13.491 0.031-26.433-5.333-35.948-14.899l-11.984-11.984-4.966 4.966c-16.475 16.361-40.451 22.636-62.828 16.441v39.373h-33.9v-50.847h-50.847v-33.897h39.373c-6.195-22.377 0.077-46.359 16.441-62.831l4.966-4.966-11.984-11.984c-9.566-9.512-14.93-22.457-14.896-35.948v-2.916c0.017-28.083 22.793-50.833 50.876-50.816 20.372 0.011 38.767 12.18 46.748 30.919l9.034-9.034c20.639-20.756 52.696-24.94 77.966-10.169l23.728-23.731 23.967 23.967-23.728 23.728zM830.541 444.493c0-9.358-7.589-16.947-16.947-16.947-9.361 0-16.95 7.589-16.95 16.947v2.916c0.014 4.491 1.798 8.798 4.966 11.984l28.931 28.931v-43.83zM835.524 541.238l-21.931-21.931-4.966 4.966c-12.072 12.109-12.072 31.701 0 43.813 12.114 12.058 31.698 12.058 43.813 0l0.017 0.017 4.966-4.966-21.899-21.899zM864.441 468.46v43.83h43.83l8.474-8.476-43.83-43.83-8.474 8.476zM933.572 436.375c-10.829-7.885-25.506-7.885-36.335 0l43.116 43.119c10.035-13.781 6.997-33.084-6.781-43.119zM932.235 546.187h-43.83l28.931 28.934c3.186 3.166 7.492 4.949 11.984 4.964h2.916c9.361 0 16.95-7.589 16.95-16.947 0-9.361-7.586-16.95-16.95-16.95z" />
<glyph unicode="&#xe928;" glyph-name="honey-sarf" d="M983.701 551.44c-17.672 16.664-37.608 27.697-56.8 33.23 0.76 3.947 1.272 7.928 1.272 11.974 0 21.967-11.379 41.307-28.672 53.331l25.632 36.237-26.971 19.059-30.686-43.371c-2.776 0.331-5.517 0.81-8.391 0.81s-5.614-0.48-8.39-0.81l-30.704 43.389-26.971-19.093 25.634-36.221c-17.293-12.024-28.672-31.363-28.672-53.331 0-3.995 0.512-7.944 1.254-11.841-19.339-5.485-39.44-16.567-57.278-33.363-6.97-6.557-13.080-13.594-18.4-20.861h-352.206c-27.317 0-49.549-22.23-49.549-49.547v-16.517h-198.193c-27.318 0-49.548-22.232-49.548-49.549v-33.032c0-12.734 4.955-24.245 12.883-33.032-7.928-8.787-12.883-20.299-12.883-33.032v-33.032c0-12.734 4.955-24.245 12.883-33.032-7.928-8.787-12.883-20.299-12.883-33.032v-33.032c0-5.813 1.189-11.33 3.039-16.517h-19.555c-27.318 0-49.548-22.23-49.548-49.549 0-27.317 22.231-49.547 49.548-49.547h5.55c34.75-79.443 114.258-132.13 201.63-132.13h312.352c87.371 0 166.862 52.687 201.629 132.13h5.549c27.317 0 49.547 22.23 49.547 49.547 0 27.319-22.23 49.549-49.547 49.549h-19.555c1.849 5.186 3.038 10.703 3.038 16.517v12.883c10.059 9.067 16.517 22.065 16.517 36.665v191.208c9.282 2.874 18.68 7.118 27.928 12.651 12.8-24.163 32.718-38.696 54.899-38.696 22.282 0 42.050 14.402 54.802 38.449 18.68-11.081 38.086-17.011 55.411-17.011 15.376 0 29.101 4.558 39.192 14.104 10.157 9.53 15.509 22.776 15.509 38.285 0 25.798-15.062 55.395-40.299 79.162zM859.086 629.676c19.885 0 36.056-14.814 36.056-33.032 0-2.923-0.446-5.763-1.24-8.505-12.371-1.256-23.534-5.352-31.99-13.328-1.173-1.090-2.048-2.413-3.072-3.602-1.042 1.189-1.917 2.511-3.090 3.602-8.339 7.861-19.307 11.957-31.48 13.278-0.808 2.758-1.254 5.616-1.254 8.555 0 18.218 16.168 33.032 36.070 33.032zM99.097 414.966c0 9.117 7.399 16.517 16.516 16.517h412.904c9.115 0 16.515-7.4 16.515-16.517v-49.547h-429.419c-9.117 0-16.516 7.398-16.516 16.515v33.032zM99.097 315.87c0 9.117 7.399 16.517 16.516 16.517h429.419c0-27.319 22.232-49.549 49.549-49.549s49.547 22.23 49.547 49.549v33.032c0 9.117 7.4 16.515 16.517 16.515s16.515-7.398 16.515-16.515v-33.032h33.034v33.032c0 27.317-22.232 49.547-49.549 49.547s-49.549-22.23-49.549-49.547v-33.032c0-9.117-7.398-16.517-16.515-16.517s-16.517 7.4-16.517 16.517v82.579c0 27.317-22.23 49.549-49.547 49.549h-181.677v16.517c0 9.115 7.398 16.515 16.515 16.515h334.832c-2.858-8.605-4.509-17.128-4.509-25.269 0-15.493 5.352-28.738 15.493-38.285 8.934-8.44 20.809-12.766 34.056-13.707v-186.997c0-9.117-7.4-16.515-16.517-16.515s-16.515 7.398-16.515 16.515v66.066h-33.034v-33.034h-561.548c-9.117 0-16.516 7.4-16.516 16.517v33.032zM99.097 216.774c0 9.117 7.399 16.515 16.516 16.515h561.548c0-27.317 22.232-49.547 49.549-49.547 0-9.117-7.4-16.517-16.515-16.517h-594.581c-9.117 0-16.516 7.4-16.516 16.517v33.032zM569.080-30.968h-312.352c-69.303 0-132.774 39.011-164.964 99.096h642.279c-32.19-60.085-95.661-99.096-164.963-99.096zM776.258 134.193c9.117 0 16.515-7.4 16.515-16.517 0-9.115-7.398-16.515-16.515-16.515h-726.71c-9.117 0-16.516 7.4-16.516 16.515 0 9.117 7.399 16.517 16.516 16.517h726.71zM808.315 481.395c-28.985-27.317-64.296-34.866-76.502-23.354-3.386 3.187-5.104 7.978-5.104 14.237 0 13.032 7.861 34.354 29.894 55.131 20.299 19.109 43.685 28.557 60.069 28.557 7.037 0 12.768-1.717 16.434-5.17 3.386-3.203 5.12-8.011 5.12-14.27 0-16.632-11.462-37.739-29.912-55.131zM859.086 431.483c-10.587 0-21.19 9.909-28.16 25.814 0.018 0.018 0.034 0.034 0.050 0.034 11.661 10.984 21.042 23.238 27.88 35.774 6.837-12.536 16.203-24.774 27.862-35.774 0.117-0.099 0.232-0.181 0.331-0.298-6.952-15.558-17.507-25.55-27.962-25.55zM985.848 458.008c-12.239-11.512-47.501-3.965-76.504 23.353-18.432 17.392-29.91 38.501-29.91 55.131 0 6.261 1.717 11.066 5.12 14.271 3.667 3.451 9.397 5.169 16.433 5.169 16.384 0 39.773-9.43 60.069-28.555 22.050-20.744 29.912-42.067 29.912-55.098 0-6.259-1.734-11.050-5.12-14.27zM231.225 613.162c27.317 0 49.547 22.23 49.547 49.547v49.549h33.032v-99.096c0-27.319 22.232-49.549 49.549-49.549s49.549 22.23 49.549 49.549v33.032h-33.034v-33.032c0-9.117-7.398-16.517-16.515-16.517s-16.517 7.4-16.517 16.517v148.643c0 27.319-22.23 49.549-49.547 49.549s-49.549-22.231-49.549-49.549v-99.096c0-9.117-7.4-16.515-16.515-16.515-9.117 0-16.517 7.398-16.517 16.515v214.71c0 27.318 22.232 49.548 49.549 49.548h99.096c9.117 0 16.515-7.399 16.515-16.516v-231.225h33.034v33.032h16.515c22.842 0 41.918 15.608 47.632 36.665 5.715-2.294 11.909-3.633 18.432-3.633h16.517c21.504 0 39.672 13.856 46.509 33.032h415.942c27.317 0 49.549 22.231 49.549 49.548s-22.232 49.548-49.549 49.548h-415.942c-6.837 19.175-25.005 33.032-46.509 33.032h-16.517c-6.523 0-12.717-1.338-18.432-3.634-5.715 21.058-24.79 36.666-47.632 36.666h-16.515c-3.965 0-7.829-0.611-11.629-1.52-9.099 10.917-22.627 18.036-37.92 18.036h-99.096c-45.536 0-82.581-37.046-82.581-82.581v-214.71c0-27.317 22.23-49.547 49.549-49.547zM280.772 761.806c0 9.117 7.4 16.517 16.517 16.517s16.515-7.4 16.515-16.517v-16.515h-33.032v16.515zM561.547 844.387h412.902c9.117 0 16.517-7.399 16.517-16.516s-7.4-16.516-16.517-16.516h-412.902v33.032zM478.966 860.903c0 9.117 7.398 16.516 16.515 16.516h16.517c9.117 0 16.515-7.399 16.515-16.516v-66.065c0-9.117-7.398-16.516-16.515-16.516h-16.517c-9.117 0-16.515 7.399-16.515 16.516v66.065zM412.902 910.452h16.515c9.117 0 16.517-7.399 16.517-16.516v-132.13c0-9.115-7.4-16.515-16.517-16.515h-16.515v165.161z" />
<glyph unicode="&#xe929;" glyph-name="honey-sourced" horiz-adv-x="981" d="M322.906 589.216l-148.35 88.606-148.351-88.606v-182.117c0-1.156-0.22-2.308-0.65-3.388-9.549-23.974-25.555-69.329-25.555-103.872 0-12.425 2.097-24.474 6.231-35.831 5.993-16.435 21.23-22.293 33.5-22.293s27.517 5.858 33.509 22.293c4.134 11.345 6.231 23.407 6.231 35.831 0 18.462-4.526 41.899-13.452 69.675-1.164 3.639 0.037 7.625 3.041 9.988 2.987 2.372 7.157 2.637 10.419 0.661l95.103-57.318 148.333 88.597v177.775l-0.009-0.002zM795.452 693.692v175.602l-148.352 90.706-148.348-90.706v-175.611l148.348-88.598 148.352 88.606zM804.621 677.823l-148.352-88.606v-177.773l148.352-88.61 148.352 88.61v177.773l-148.352 88.606zM498.752 306.965v-177.766l116.954-69.858c3.977-2.372 5.555-7.347 3.674-11.584-16.427-37.047-25.114-68.924-25.114-92.198 0-13.039 2.684-25.694 7.991-37.615 6.63-14.95 24.721-24.61 46.071-24.61s39.437 9.66 46.071 24.602c5.308 11.93 7.991 24.593 7.991 37.615 0 23.514-8.862 55.774-25.621 93.325-1.899 4.237-0.32 9.22 3.665 11.601l115.034 68.706v177.762l-148.352 88.61-148.365-88.589zM637.931 589.216l-148.352 88.606-148.349-88.606v-177.773l148.349-88.61 148.352 88.61v177.773zM231.836-51.614c-6.789 0-12.315-5.628-12.315-12.553 0-6.921 5.524-12.544 12.315-12.544s12.316 5.623 12.316 12.544c0.009 6.916-5.516 12.553-12.316 12.553z" />
<glyph unicode="&#xe92a;" glyph-name="honeycomb" d="M245.447 695.459v32.944h-99.441l-64.076-106.821 28.233-16.966 54.506 90.843h80.779zM554.167 439.896l28.25 16.968-64.075 106.821h-99.443v-32.944h80.779l54.489-90.845zM654.467 464.851l-98.832 164.72h-164.72l-98.832 164.72h-183.367l-108.715-181.192 98.832-164.72-98.832-164.72 108.715-181.192h164.72l98.832-164.72h183.384l98.832 164.72h164.72l108.715 181.192-108.715 181.192h-164.736zM390.931 596.627h146.057l88.95-148.248-88.95-148.248h-146.057l-88.95 148.248 88.95 148.248zM38.413 613.099l88.949 148.248h146.057l88.95-148.248-88.95-148.248h-146.057l-88.949 148.248zM273.419 135.411h-146.057l-88.949 148.248 88.949 148.248h146.057l88.95-148.248-88.95-148.248zM536.987-29.31h-146.057l-88.95 148.248 88.95 148.248h146.057l88.95-148.248-88.95-148.248zM800.54 135.411h-146.057l-88.95 148.248 88.95 148.248h146.057l88.95-148.248-88.95-148.248zM642.361 283.659l54.209 90.349-28.25 16.966-64.372-107.315 69.165-115.304h103.807v32.944h-85.143l-49.416 82.36zM110.163 292.142l-28.233-16.966 64.076-106.821h99.441v32.944h-80.779l-54.506 90.843zM513.365 234.243h-32.944v-32.944h32.944v32.944zM340.396 118.938l64.372-107.315 28.25 16.966-54.209 90.349 49.416 82.36h19.255v32.944h-37.919l-69.165-115.304zM969.265 749.060c-33.224 31.676-71.917 49.63-104.712 51.508 3.771 8.17 5.963 17.164 5.963 26.685 0 14.116-4.712 27.129-12.568 37.853l3.525 6.737c13.738 26.174 37.408 45.71 66.662 55.017l-9.965 31.396c-37.574-11.959-68.080-37.21-85.869-71.11l-0.429-0.807c-8.993 4.2-18.975 6.786-29.649 6.786s-20.656-2.586-29.649-6.803l-0.429 0.807c-17.773 33.916-48.263 59.167-85.851 71.11l-9.967-31.396c29.254-9.307 52.925-28.842 66.646-55.016l3.541-6.737c-7.872-10.723-12.566-23.753-12.566-37.853 0-10.246 2.635-19.816 6.967-28.464-29.385-5.485-61.918-22.517-90.448-49.713-34.279-32.664-54.737-72.411-54.737-106.261 0-18.613 6.261-34.41 18.103-45.694 11.943-11.366 28.25-16.819 46.781-16.819 14.018 0 29.321 3.295 44.919 9.324 14.347-64.702 52.281-108.287 96.691-108.287 45.841 0 84.782 46.879 97.991 114.447 20.36-10.064 40.703-15.484 58.905-15.484 18.531 0 34.838 5.436 46.781 16.819 11.842 11.284 18.101 27.080 18.101 45.694 0 33.849-20.457 73.597-54.735 106.261zM802.238 860.18c19.487 0 35.35-14.792 35.35-32.944s-15.863-32.944-35.35-32.944c-19.487 0-35.348 14.792-35.348 32.944s15.861 32.944 35.348 32.944zM823.107 661.511c-8.647 0.593-17.311 0.79-26.042 0.641 4.827 6.705 9.142 13.492 12.798 20.343 3.773-7.066 8.237-14.083 13.244-20.985zM636.562 620.941c-5.237 4.991-7.89 12.353-7.89 21.858 0 24.659 17.067 56.236 44.54 82.425 43.701 41.659 93.908 51.838 111.632 34.938 5.221-4.991 7.89-12.338 7.89-21.842 0-24.642-17.065-56.236-44.54-82.443-43.718-41.691-93.908-51.87-111.632-34.936zM802.221 514.267c-19.569 0-38.364 17.164-51.507 44.228 32.4 6.555 70.516 6.606 102.934 0.032-13.113-26.964-31.793-44.26-51.426-44.26zM865.079 589.677c-39.384 8.828-86.33 8.878-125.715 0.099-1.301 4.924-2.486 9.965-3.426 15.204 9.949 6.193 19.716 13.506 29.155 21.908 30.621 4.331 64.932 3.013 93.676-3.641 3.69-3.129 7.428-6.061 11.217-8.862-1.202-8.566-2.833-16.851-4.908-24.707zM983.15 620.941c-17.658-16.918-67.897-6.739-111.614 34.936-27.476 26.207-44.54 57.8-44.54 82.443 0 9.503 2.652 16.851 7.89 21.842 5.386 5.14 13.804 7.791 24.132 7.791 23.572 0 57.109-13.754 87.498-42.73 27.476-26.189 44.54-57.766 44.54-82.425 0-9.505-2.652-16.867-7.906-21.858z" />
<glyph unicode="&#xe92b;" glyph-name="house-hone" horiz-adv-x="1293" d="M646.726 721.507l-461.311-366.524c0-0.517-0.135-1.277-0.405-2.317-0.264-1.029-0.405-1.773-0.405-2.307v-371.141c0-13.404 5.083-25.018 15.248-34.794 10.161-9.787 22.194-14.708 36.101-14.708h308.070v296.922h205.409v-296.933h308.062c13.905 0 25.956 4.91 36.104 14.719 10.165 9.766 15.263 21.391 15.263 34.794v371.141c0 2.059-0.291 3.616-0.808 4.624l-461.328 366.524zM1284.549 438.495l-175.691 140.727v315.478c0 7.212-2.404 13.143-7.233 17.785-4.786 4.637-10.941 6.955-18.443 6.955h-154.037c-7.491 0-13.641-2.318-18.464-6.955-4.807-4.642-7.206-10.576-7.206-17.785v-150.778l-195.756 157.743c-17.101 13.403-37.425 20.103-60.966 20.103-23.53 0-43.86-6.7-60.971-20.103l-576.867-463.171c-5.348-4.116-8.279-9.657-8.824-16.618-0.542-6.952 1.326-13.032 5.612-18.179l49.741-57.22c4.286-4.64 9.895-7.475 16.85-8.51 6.421-0.523 12.842 1.288 19.263 5.411l555.18 446.164 555.191-446.164c4.285-3.595 9.89-5.389 16.847-5.389h2.409c6.947 1.019 12.541 3.87 16.853 8.499l49.745 57.209c4.279 5.163 6.149 11.226 5.594 18.189-0.55 6.941-3.492 12.483-8.828 16.607z" />
<glyph unicode="&#xe92c;" glyph-name="instagram" horiz-adv-x="896" d="M448.2 678c-127.2 0-229.8-102.6-229.8-229.8s102.6-229.8 229.8-229.8 229.8 102.6 229.8 229.8-102.6 229.8-229.8 229.8zM448.2 298.8c-82.2 0-149.4 67-149.4 149.4s67 149.4 149.4 149.4 149.4-67 149.4-149.4-67.2-149.4-149.4-149.4zM741 687.4c0-29.8-24-53.6-53.6-53.6-29.8 0-53.6 24-53.6 53.6s24 53.6 53.6 53.6 53.6-24 53.6-53.6zM893.2 633c-3.4 71.8-19.8 135.4-72.4 187.8-52.4 52.4-116 68.8-187.8 72.4-74 4.2-295.8 4.2-369.8 0-71.6-3.4-135.2-19.8-187.8-72.2s-68.8-116-72.4-187.8c-4.2-74-4.2-295.8 0-369.8 3.4-71.8 19.8-135.4 72.4-187.8s116-68.8 187.8-72.4c74-4.2 295.8-4.2 369.8 0 71.8 3.4 135.4 19.8 187.8 72.4 52.4 52.4 68.8 116 72.4 187.8 4.2 74 4.2 295.6 0 369.6zM797.6 184c-15.6-39.2-45.8-69.4-85.2-85.2-59-23.4-199-18-264.2-18s-205.4-5.2-264.2 18c-39.2 15.6-69.4 45.8-85.2 85.2-23.4 59-18 199-18 264.2s-5.2 205.4 18 264.2c15.6 39.2 45.8 69.4 85.2 85.2 59 23.4 199 18 264.2 18s205.4 5.2 264.2-18c39.2-15.6 69.4-45.8 85.2-85.2 23.4-59 18-199 18-264.2s5.4-205.4-18-264.2z" />
<glyph unicode="&#xe92d;" glyph-name="linkedin-in" horiz-adv-x="896" d="M200.56 64h-185.76v598.2h185.76zM107.58 743.8c-59.4 0-107.58 49.2-107.58 108.6 0 59.415 48.165 107.58 107.58 107.58s107.58-48.165 107.58-107.58v0c0-59.4-48.2-108.6-107.58-108.6zM895.8 64h-185.36v291.2c0 69.4-1.4 158.4-96.58 158.4-96.58 0-111.38-75.4-111.38-153.4v-296.2h-185.56v598.2h178.16v-81.6h2.6c24.8 47 85.38 96.6 175.76 96.6 188 0 222.56-123.8 222.56-284.6v-328.6z" />
<glyph unicode="&#xe92e;" glyph-name="location-dot" horiz-adv-x="768" d="M431.4-38.4c102.6 128.4 336.6 439.6 336.6 614.4 0 212-172 384-384 384s-384-172-384-384c0-174.8 234-486 336.6-614.4 24.6-30.6 70.2-30.6 94.8 0zM384 704c70.692 0 128-57.308 128-128s-57.308-128-128-128v0c-70.692 0-128 57.308-128 128s57.308 128 128 128v0z" />
<glyph unicode="&#xe92f;" glyph-name="magnifying-glass" d="M1014.294-8.29l-264.38 260.155c69.233 75.219 111.771 174.698 111.771 284.164-0.033 234.168-192.91 423.971-430.854 423.971s-430.821-189.803-430.821-423.971 192.877-423.971 430.821-423.971c102.808 0 197.102 35.56 271.168 94.678l265.406-261.181c12.932-12.74 33.927-12.74 46.859 0 6.003 5.867 9.726 14.045 9.726 23.092 0 9.033-3.71 17.199-9.69 23.057l-0.005 0.005zM430.831 177.289c-201.326 0-364.533 160.613-364.533 358.74s163.207 358.74 364.533 358.74c201.328 0 364.533-160.613 364.533-358.74s-163.205-358.74-364.533-358.74z" />
<glyph unicode="&#xe930;" glyph-name="order-food" horiz-adv-x="775" d="M372.038 451.18h-30.46v30.74h30.46v-30.74zM311.12 451.18h-30.46v30.74h30.46v-30.74zM250.201 451.18h-30.458v30.74h30.458v-30.74zM765.026 161.097c0 33.902-27.328 61.484-60.918 61.484-12.545 0-24.218-3.847-33.918-10.435-8.366 23.887-30.964 41.049-57.46 41.049-12.515 0-24.159-3.828-33.846-10.385-8.306 23.995-30.958 41.255-57.531 41.255-11.087 0-21.494-3.008-30.46-8.252v100.348c0 33.902-27.328 61.484-60.918 61.484s-60.918-27.582-60.918-61.484v-184.3l-30.365-0.598c-33.517-0.086-60.76-27.635-60.76-61.453l-0.121-61.194h-217.407c-13.997 0-25.383 11.492-25.383 25.619v696.814h-30.459v-696.814c0-31.078 25.049-56.361 55.842-56.361h217.345l-0.079-40.28 33.069-61.594 26.779 14.645-29.373 54.712 0.246 124.419c0 16.95 13.663 30.742 30.46 30.742l30.205 0.594v-138.357h30.458v353.406c0 16.952 13.665 30.742 30.46 30.742s30.46-13.79 30.46-30.742v-261.307h30.458v107.726c0 16.95 13.665 30.74 30.46 30.74s30.458-13.79 30.458-30.74v-107.726h30.46v76.854c0 16.952 13.665 30.742 30.46 30.742s30.458-13.79 30.458-30.742v-76.856h30.46v46.241c0 16.952 13.665 30.742 30.46 30.742s30.458-13.79 30.458-30.779l0.508-217.773 30.46 0.072-0.508 217.74zM35.023 903.64c0 14.127 11.386 25.618 25.383 25.618h92.392v-31.767c0-31.078 25.050-56.36 55.842-56.36h166.637c30.79 0 55.842 25.282 55.842 56.36v31.767h96.329c13.997 0 25.382-11.491 25.382-25.618v-604.462h30.46v604.462c0 31.078-25.053 56.36-55.842 56.36h-467.042c-30.792 0-55.842-25.282-55.842-56.36v-81.978h30.459v81.978zM400.658 929.258v-31.767c0-14.127-11.385-25.618-25.382-25.618h-166.637c-13.998 0-25.383 11.491-25.383 25.618v31.767h217.403zM485.818 546.816v30.742h-21.017c-7.297 83.592-73.446 150.355-156.27 157.718v18.21h-30.46v-18.21c-82.821-7.363-148.971-74.126-156.267-157.718h-20.534v-30.742h384.546zM152.364 577.558c7.619 71.689 67.919 127.696 140.938 127.696s133.319-56.007 140.939-127.696h-281.876zM111.425 376.036h152.041v-30.742h-152.041v30.742zM111.425 314.549h152.041v-30.742h-152.041v30.742zM111.425 253.064h152.041v-30.742h-152.041v30.742z" />
<glyph unicode="&#xe931;" glyph-name="phone" d="M329.8 910.8c-15.4 37.2-56 57-94.8 46.4l-176-48c-34.8-9.6-59-41.2-59-77.2 0-494.8 401.2-896 896-896 36 0 67.6 24.2 77.2 59l48 176c10.6 38.8-9.2 79.4-46.4 94.8l-192 80c-32.6 13.6-70.4 4.2-92.6-23.2l-80.8-98.6c-140.8 66.6-254.8 180.6-321.4 321.4l98.6 80.6c27.4 22.4 36.8 60 23.2 92.6l-80 192z" />
<glyph unicode="&#xe932;" glyph-name="pinterest-p" horiz-adv-x="768" d="M408 947c-205.2 0-408-136.8-408-358.2 0-140.8 79.2-220.8 127.2-220.8 19.8 0 31.2 55.2 31.2 70.8 0 18.6-47.4 58.2-47.4 135.6 0 160.8 122.4 274.8 280.8 274.8 136.2 0 237-77.4 237-219.6 0-106.2-42.6-305.4-180.6-305.4-49.8 0-92.4 36-92.4 87.6 0 75.6 52.8 148.8 52.8 226.8 0 132.4-187.8 108.4-187.8-51.6 0-33.6 4.2-70.8 19.2-101.4-27.6-118.8-84-295.8-84-418.2 0-37.8 5.4-75 9-112.8 6.8-7.6 3.4-6.8 13.8-3 100.8 138 97.2 165 142.8 345.6 24.6-46.8 88.2-72 138.6-72 212.4 0 307.8 207 307.8 393.6 0 198.6-171.6 328.2-360 328.2z" />
<glyph unicode="&#xe933;" glyph-name="play-t" horiz-adv-x="768" d="M146 882c-29.6 18.2-66.8 18.8-97 1.8s-49-49-49-83.8v-704c0-34.8 18.8-66.8 49-83.8s67.4-16.2 97 1.8l576 352c28.6 17.4 46 48.4 46 82s-17.4 64.4-46 82l-576 352z" />
<glyph unicode="&#xe934;" glyph-name="quote-right" horiz-adv-x="896" d="M896 368c0-132.6-107.4-240-240-240h-16c-35.4 0-64 28.6-64 64s28.6 64 64 64h16c61.8 0 112 50.2 112 112v16h-128c-70.6 0-128 57.4-128 128v128c0 70.6 57.4 128 128 128h128c70.6 0 128-57.4 128-128v-272zM384 368c0-132.6-107.4-240-240-240h-16c-35.4 0-64 28.6-64 64s28.6 64 64 64h16c61.8 0 112 50.2 112 112v16h-128c-70.6 0-128 57.4-128 128v128c0 70.6 57.4 128 128 128h128c70.6 0 128-57.4 128-128v-272z" />
<glyph unicode="&#xe935;" glyph-name="share-nodes" d="M723.647 271.211c-49.062 0-93.266-21.186-123.944-54.89l-275.945 170.906c7.248 17.995 11.452 38.861 11.452 60.709 0 0.023 0 0.046 0 0.068v-0.004c0 0.023 0 0.049 0 0.076 0 21.844-4.204 42.706-11.848 61.82l0.396-1.123 275.945 170.914c30.68-33.704 74.882-54.9 123.944-54.9 92.422 0 167.61 75.188 167.61 167.61s-75.188 167.602-167.61 167.602c-92.42 0-167.608-75.188-167.608-167.61 0-0.009 0-0.021 0-0.032 0-21.859 4.204-42.735 11.849-61.865l-0.397 1.125-275.937-170.908c-30.68 33.704-74.882 54.9-123.944 54.9-92.422 0-167.61-75.196-167.61-167.61 0-92.42 75.188-167.61 167.61-167.61 49.060 0 93.266 21.188 123.944 54.9l275.939-170.908c-7.249-18.007-11.454-38.886-11.454-60.747 0-0.012 0-0.023 0-0.035v0.002c0-92.414 75.186-167.602 167.608-167.602s167.61 75.188 167.61 167.6c0 92.424-75.188 167.61-167.61 167.61zM617.155 792.39c0 58.72 47.774 106.492 106.492 106.492s106.492-47.772 106.492-106.492c0-58.72-47.772-106.492-106.492-106.492s-106.492 47.774-106.492 106.492zM167.61 341.509c-58.728 0-106.5 47.774-106.5 106.492s47.772 106.492 106.5 106.492c58.72 0 106.484-47.774 106.484-106.492s-47.766-106.492-106.484-106.492zM617.155 103.61c0 58.72 47.774 106.494 106.492 106.494s106.492-47.774 106.492-106.492c0-58.72-47.772-106.492-106.492-106.492s-106.492 47.772-106.492 106.492z" />
<glyph unicode="&#xe936;" glyph-name="shipped" horiz-adv-x="1645" d="M1529.95 526.833l-42.602 169.712c11.647 2.464 20.386 12.756 20.386 25.085v27.364c0 59.411-48.534 107.744-108.185 107.744h-194.046v56.442c0 29.235-23.881 53.018-53.235 53.018h-989.132c-29.355 0-53.235-23.782-53.235-53.018v-465.184c0-14.166 11.532-25.654 25.759-25.654 14.225 0 25.76 11.484 25.76 25.654v465.184c0 0.944 0.768 1.709 1.716 1.709h989.129c0.947 0 1.716-0.765 1.716-1.709v-465.191c0-14.166 11.531-25.654 25.759-25.654 14.224 0 25.759 11.484 25.759 25.654v29.082h303.861c0.025 0 0.045-0.007 0.067-0.007 0.025 0 0.049 0.003 0.071 0.003 37.391-0.025 69.14-24.467 80.045-58.146h-80.095c-14.225 0-25.759-11.486-25.759-25.654v-54.727c0-44.324 36.204-80.381 80.71-80.381h29.194v-112.873h-67.354c-22.125 63.626-82.857 109.456-154.171 109.456-71.316 0-132.049-45.83-154.172-109.456h-12.402v193.257c0 14.166-11.533 25.654-25.759 25.654-14.225 0-25.759-11.484-25.759-25.654v-193.252h-534.431c-22.125 63.626-82.857 109.457-154.172 109.457-71.314 0-132.049-45.832-154.171-109.457h-148.064c-0.948 0-1.716 0.765-1.716 1.709v56.439h111.62c14.225 0 25.759 11.484 25.759 25.654s-11.531 25.655-25.759 25.655h-247.281c-14.224 0-25.759-11.486-25.759-25.655s11.532-25.654 25.759-25.654h84.145v-56.439c0-29.234 23.88-53.016 53.235-53.016h139.14c-0.007-0.571-0.045-1.136-0.045-1.709 0-89.588 73.186-162.47 163.137-162.47s163.137 72.882 163.137 162.47c0 0.576-0.039 1.138-0.045 1.709h580.514c-0.007-0.571-0.045-1.136-0.045-1.709 0-89.588 73.186-162.47 163.137-162.47s163.137 72.882 163.137 162.47c0 0.576-0.039 1.138-0.045 1.709h84.193c14.225 0 25.759 11.484 25.759 25.654v273.635c0.003 67.559-50.047 123.691-115.161 133.561zM1205.503 805.432h194.046c31.247 0 56.669-25.318 56.669-56.438v-1.709h-250.715v58.147zM1205.503 528.376v167.604h228.886l42.073-167.604h-270.959zM465.371-18.897c-61.547 0-111.619 49.865-111.619 111.164s50.072 111.164 111.619 111.164c61.547 0 111.621-49.865 111.621-111.164s-50.074-111.164-111.621-111.164zM1372.074-18.897c-61.547 0-111.621 49.865-111.621 111.164s50.074 111.164 111.621 111.164c61.547 0 111.619-49.865 111.619-111.164s-50.072-111.164-111.619-111.164zM1593.599 309.468h-29.194c-16.099 0-29.196 13.042-29.196 29.075v29.075h58.386v-58.15h0.003zM465.366 145.287c-29.355 0-53.235-23.782-53.235-53.018 0-29.234 23.879-53.018 53.235-53.018s53.235 23.784 53.235 53.018c0 29.236-23.879 53.018-53.235 53.018zM1372.079 145.287c-29.355 0-53.235-23.782-53.235-53.018 0-29.234 23.879-53.018 53.235-53.018s53.235 23.784 53.235 53.018c0 29.236-23.879 53.018-53.235 53.018zM1069.843 254.738h-384.661c-14.225 0-25.759-11.484-25.759-25.654s11.531-25.655 25.759-25.655h384.661c14.224 0 25.759 11.486 25.759 25.655s-11.533 25.654-25.759 25.654zM410.424 364.197h-329.71c-14.225 0-25.76-11.484-25.76-25.654s11.532-25.655 25.76-25.655h329.71c14.225 0 25.761 11.486 25.761 25.655s-11.536 25.654-25.761 25.654zM895.72 712.415c-10.057 10.015-26.371 10.015-36.428-0.003l-229.069-228.132-119.165 118.678c-10.060 10.020-26.371 10.020-36.428 0-10.060-10.018-10.060-26.258 0-36.278l137.381-136.818c5.028-5.013 11.622-7.514 18.212-7.514s13.186 2.501 18.212 7.514l247.281 246.272c10.060 10.022 10.060 26.261 0.003 36.281z" />
<glyph unicode="&#xe937;" glyph-name="shop-bag" horiz-adv-x="1084" d="M962.325 697.407c-5.036 25.212-25.178 45.382-50.357 45.382h-151.082c0 110.933-90.648 201.697-201.438 201.697-110.792 0-201.439-90.764-201.439-201.697h-151.079c-25.18 0-45.323-20.17-50.36-45.382l-100.719-705.942c-5.036-30.25 20.144-55.465 50.36-55.465h906.477c30.214 0 55.392 25.214 50.357 55.465l-100.719 705.942zM559.449 843.637c55.397 0 100.718-45.382 100.718-100.848h-201.438c0 55.466 45.324 100.848 100.72 100.848zM166.642 36.852l85.612 605.088h105.755v-50.424c0-65.551 100.719-65.551 100.719 0v50.424h201.438v-50.424c0-65.551 100.719-65.551 100.719 0v50.424h105.755l85.612-605.088h-785.612z" />
</font>
</defs>
</svg>
